  0
SECTION
  2
HEADER
  9
$ACADVER
  1
AC1015
  9
$ACADMAINTVER
 70
           6
  9
$DWGCODEPAGE
  3
ANSI_1252
  9
$INSBASE
 10
0.0
 20
0.0
 30
0.0
  9
$EXTMIN
 10
-23.555853746372
 20
-17.398125247129
 30
-0.5
  9
$EXTMAX
 10
23.555853746372
 20
17.398125247129
 30
0.5
  9
$LIMMIN
 10
-23.555853746372
 20
-17.398125247129
  9
$LIMMAX
 10
23.555853746372
 20
17.398125247129
  9
$ORTHOMODE
 70
           0
  9
$REGENMODE
 70
           1
  9
$FILLMODE
 70
           1
  9
$QTEXTMODE
 70
           0
  9
$MIRRTEXT
 70
           1
  9
$LTSCALE
 40
1.0
  9
$ATTMODE
 70
           1
  9
$TEXTSIZE
 40
0.3229166567
  9
$TRACEWID
 40
0.05
  9
$TEXTSTYLE
  7
STANDARD
  9
$CLAYER
  8
0
  9
$CELTYPE
  6
Continuous
  9
$CECOLOR
 62
           7
  9
$CELTSCALE
 40
1.0
  9
$DISPSILH
 70
           0
  9
$DIMSCALE
 40
1.0
  9
$DIMASZ
 40
0.18
  9
$DIMEXO
 40
0.0625
  9
$DIMDLI
 40
0.38
  9
$DIMRND
 40
0.0000001
  9
$DIMDLE
 40
0.0
  9
$DIMEXE
 40
0.18
  9
$DIMTP
 40
0.0
  9
$DIMTM
 40
0.0
  9
$DIMTXT
 40
0.185806451613
  9
$DIMCEN
 40
0.09
  9
$DIMTSZ
 40
0.0
  9
$DIMTOL
 70
           0
  9
$DIMLIM
 70
           0
  9
$DIMTIH
 70
           1
  9
$DIMTOH
 70
           1
  9
$DIMSE1
 70
           0
  9
$DIMSE2
 70
           0
  9
$DIMTAD
 70
           0
  9
$DIMZIN
 70
           0
  9
$DIMBLK
  1

  9
$DIMASO
 70
           0
  9
$DIMSHO
 70
           1
  9
$DIMPOST
  1

  9
$DIMAPOST
  1

  9
$DIMALT
 70
           0
  9
$DIMALTD
 70
           2
  9
$DIMALTF
 40
25.4
  9
$DIMLFAC
 40
1.0
  9
$DIMTOFL
 70
           0
  9
$DIMTVP
 40
0.0
  9
$DIMTIX
 70
           0
  9
$DIMSOXD
 70
           0
  9
$DIMSAH
 70
           0
  9
$DIMBLK1
  1

  9
$DIMBLK2
  1

  9
$DIMSTYLE
  2
STANDARD
  9
$DIMCLRD
 70
           0
  9
$DIMCLRE
 70
           0
  9
$DIMCLRT
 70
           0
  9
$DIMTFAC
 40
1.0
  9
$DIMGAP
 40
0.09
  9
$DIMJUST
 70
           0
  9
$DIMSD1
 70
           0
  9
$DIMSD2
 70
           0
  9
$DIMTOLJ
 70
           1
  9
$DIMTZIN
 70
           0
  9
$DIMALTZ
 70
           0
  9
$DIMALTTZ
 70
           0
  9
$DIMUPT
 70
           0
  9
$DIMDEC
 70
           4
  9
$DIMTDEC
 70
           4
  9
$DIMALTU
 70
           2
  9
$DIMALTTD
 70
           2
  9
$DIMTXSTY
  7
STANDARD
  9
$DIMAUNIT
 70
           0
  9
$DIMADEC
 70
           4
  9
$DIMALTRND
 40
0.0
  9
$DIMAZIN
 70
           0
  9
$DIMDSEP
 70
           0
  9
$DIMATFIT
 70
           0
  9
$DIMFRAC
 70
           0
  9
$DIMLDRBLK
  1

  9
$DIMLUNIT
 70
           2
  9
$DIMLWD
 70
           0
  9
$DIMLWE
 70
           0
  9
$DIMTMOVE
 70
           0
  9
$LUNITS
 70
           2
  9
$LUPREC
 70
           4
  9
$SKETCHINC
 40
0.1
  9
$FILLETRAD
 40
0.5
  9
$AUNITS
 70
           0
  9
$AUPREC
 70
           0
  9
$MENU
  1
acad
  9
$ELEVATION
 40
0.0
  9
$PELEVATION
 40
0.0
  9
$THICKNESS
 40
0.0
  9
$LIMCHECK
 70
           0
  9
$CHAMFERA
 40
0.0
  9
$CHAMFERB
 40
0.0
  9
$CHAMFERC
 40
0.0
  9
$CHAMFERD
 40
0.0
  9
$SKPOLY
 70
           0
  9
$TDCREATE
 40
0.000000000
  9
$TDUCREATE
 40
0.000000000
  9
$TDUPDATE
 40
2451621.153704861
  9
$TDUUPDATE
 40
0.000000000
  9
$TDINDWG
 40
0.4995559838
  9
$TDUSRTIMER
 40
0.4995559838
  9
$USRTIMER
 70
           1
  9
$ANGBASE
 50
0.0
  9
$ANGDIR
 70
           1
  9
$PDMODE
 70
           0
  9
$PDSIZE
 40
0.0
  9
$PLINEWID
 40
0.0
  9
$SPLFRAME
 70
           0
  9
$SPLINETYPE
 70
           6
  9
$SPLINESEGS
 70
           8
  9
$HANDSEED
  5
4CE
  9
$SURFTAB1
 70
           6
  9
$SURFTAB2
 70
           6
  9
$SURFTYPE
 70
           6
  9
$SURFU
 70
           6
  9
$SURFV
 70
           6
  9
$UCSBASE
  2

  9
$UCSNAME
  2

  9
$UCSORG
 10
0.0
 20
0.0
 30
0.0
  9
$UCSXDIR
 10
1.0
 20
0.0
 30
0.0
  9
$UCSYDIR
 10
0.0
 20
1.0
 30
0.0
  9
$UCSORTHOREF
  2

  9
$UCSORTHOVIEW
 70
           0
  9
$UCSORGTOP
 10
0.0
 20
0.0
 30
0.0
  9
$UCSORGBOTTOM
 10
0.0
 20
0.0
 30
0.0
  9
$UCSORGLEFT
 10
0.0
 20
0.0
 30
0.0
  9
$UCSORGRIGHT
 10
0.0
 20
0.0
 30
0.0
  9
$UCSORGFRONT
 10
0.0
 20
0.0
 30
0.0
  9
$UCSORGBACK
 10
0.0
 20
0.0
 30
0.0
  9
$PUCSBASE
  2

  9
$PUCSNAME
  2

  9
$PUCSORG
 10
0.0
 20
0.0
 30
0.0
  9
$PUCSXDIR
 10
1.0
 20
0.0
 30
0.0
  9
$PUCSYDIR
 10
0.0
 20
1.0
 30
0.0
  9
$PUCSORTHOREF
  2

  9
$PUCSORTHOVIEW
 70
           0
  9
$PUCSORGTOP
 10
0.0
 20
0.0
 30
0.0
  9
$PUCSORGBOTTOM
 10
0.0
 20
0.0
 30
0.0
  9
$PUCSORGLEFT
 10
0.0
 20
0.0
 30
0.0
  9
$PUCSORGRIGHT
 10
0.0
 20
0.0
 30
0.0
  9
$PUCSORGFRONT
 10
0.0
 20
0.0
 30
0.0
  9
$PUCSORGBACK
 10
0.0
 20
0.0
 30
0.0
  9
$USERI1
 70
           0
  9
$USERI2
 70
           0
  9
$USERI3
 70
           0
  9
$USERI4
 70
           0
  9
$USERI5
 70
           0
  9
$USERR1
 40
0.0
  9
$USERR2
 40
0.0
  9
$USERR3
 40
0.0
  9
$USERR4
 40
0.0
  9
$USERR5
 40
0.0
  9
$WORLDVIEW
 70
           1
  9
$SHADEDGE
 70
           3
  9
$SHADEDIF
 70
          70
  9
$TILEMODE
 70
           1
  9
$MAXACTVP
 70
          16
  9
$PINSBASE
 10
0.0
 20
0.0
 30
0.0
  9
$PLIMCHECK
 70
           0
  9
$PEXTMIN
 10
-1.172820775707
 20
-1.180397824559
 30
0.0
  9
$PEXTMAX
 10
11.327179308952
 20
8.478693149986
 30
0.0
  9
$PLIMMIN
 10
-1.172820775707
 20
-1.180397824559
  9
$PLIMMAX
 10
11.327179308952
 20
8.478693149986
  9
$UNITMODE
 70
           0
  9
$VISRETAIN
 70
           0
  9
$PLINEGEN
 70
           1
  9
$PSLTSCALE
 70
           1
  9
$TREEDEPTH
 70
        3020
  9
$CMLSTYLE
  2
STANDARD
  9
$CMLJUST
 70
           0
  9
$CMLSCALE
 40
1.0
  9
$PROXYGRAPHICS
 70
           0
  9
$MEASUREMENT
 70
           0
  9
$CELWEIGHT
370
           0
  9
$ENDCAPS
280
           0
  9
$JOINSTYLE
280
           0
  9
$LWDISPLAY
290
           0
  9
$INSUNITS
 70
           0
  9
$HYPERLINKBASE
  1

  9
$STYLESHEET
  1

  9
$XEDIT
290
           1
  9
$CEPSNTYPE
380
           0
  9
$PSTYLEMODE
290
           1
  9
$FINGERPRINTGUID
  2

  9
$VERSIONGUID
  2

  9
$EXTNAMES
290
           1
  9
$PSVPSCALE
 40
0.0
  0
ENDSEC
  0
SECTION
  2
CLASSES
  0
CLASS
  1
LWPOLYLINE
  2
AcDbPolyline
  3
AutoCAD 2000
 90
        0
280
           0
281
           1
  0
CLASS
  1
IMAGE
  2
AcDbRasterImage
  3
ISM
 90
    32895
280
           0
281
           1
  0
CLASS
  1
OLE2FRAME
  2
AcDbOle2Frame
  3
AutoCAD 2000
 90
    32768
280
           0
281
           1
  0
CLASS
  1
HATCH
  2
AcDbHatch
  3
AutoCAD 2000
 90
        0
280
           0
281
           1
  0
CLASS
  1
DICTIONARYVAR
  2
AcDbDictionaryVar
  3
AutoCAD 2000
 90
    32768
280
           0
281
           0
  0
CLASS
  1
RASTERVARIABLES
  2
AcDbRasterVariables
  3
ISM
 90
    32768
280
           0
281
           0
  0
CLASS
  1
IMAGEDEF
  2
AcDbRasterImageDef
  3
ISM
 90
    32768
280
           0
281
           0
  0
CLASS
  1
IMAGEDEF_REACTOR
  2
AcDbRasterImageDefReactor
  3
ISM
 90
    32769
280
           0
281
           0
  0
CLASS
  1
IDBUFFER
  2
AcDbIdBuffer
  3
AutoCAD 2000
 90
    32768
280
           0
281
           0
  0
CLASS
  1
SPATIAL_FILTER
  2
AcDbSpatialFilter
  3
AutoCAD 2000
 90
    32768
280
           0
281
           0
  0
CLASS
  1
XRECORD
  2
AcDbXrecord
  3
AutoCAD 2000
 90
    32768
280
           0
281
           0
  0
CLASS
  1
SORTENTSTABLE
  2
AcDbSortentsTable
  3
AutoCAD 2000
 90
    32768
280
           0
281
           0
  0
CLASS
  1
LAYER_INDEX
  2
AcDbLayerIndex
  3
AutoCAD 2000
 90
    32768
280
           0
281
           0
  0
CLASS
  1
SPATIAL_INDEX
  2
AcDbSpatialIndex
  3
AutoCAD 2000
 90
    32768
280
           0
281
           0
  0
CLASS
  1
OBJECT_PTR
  2
CAseDLPNTableRecord
  3
"ASE-LPNTableRecord"
 90
    32769
280
           0
281
           0
  0
CLASS
  1
LAYOUT
  2
AcDbLayout
  3
AutoCAD 2000
 90
        0
280
           0
281
           0
  0
CLASS
  1
PLOTSETTINGS
  2
AcDbPlotSettings
  3
AutoCAD 2000
 90
    32768
280
           0
281
           0
  0
CLASS
  1
ACDBDICTIONARYWDFLT
  2
AcDbDictionaryWithDefault
  3
AutoCAD 2000
 90
        0
280
           0
281
           0
  0
CLASS
  1
ACDBPLACEHOLDER
  2
AcDbPlaceHolder
  3
AutoCAD 2000
 90
        0
280
           0
281
           0
  0
ENDSEC
  0
SECTION
  2
TABLES
  0
TABLE
  2
VPORT
  5
7
100
AcDbSymbolTable
 70
           1
  0
VPORT
  5
15
100
AcDbSymbolTableRecord
100
AcDbViewportTableRecord
  2
*ACTIVE
 70
           0
 10
0.0
 20
0.0
 11
1.0
 21
1.0
 12
0.0
 22
0.0
 13
0.0
 23
0.0
 14
0.05
 24
0.05
 15
0.05
 25
0.05
 16
0.0
 26
0.0
 36
1.0
 17
0.0
 27
0.0
 37
3.0
 40
35.492175504144
 41
1.911704312115
 42
50.0
 43
0.0
 44
0.0
 50
0.0
 51
0.0
 71
           0
 72
         100
 73
           1
 74
           1
 75
           0
 76
           1
 77
           0
 78
           0
281
           0
 65
           0
110
0.0
120
0.0
130
0.0
111
1.0
121
0.0
131
0.0
112
0.0
122
1.0
132
0.0
345
0
346
0
 79
           0
146
0.0
  0
ENDTAB
  0
TABLE
  2
LTYPE
  5
4
100
AcDbSymbolTable
 70
          14
  0
LTYPE
  5
11
100
AcDbSymbolTableRecord
100
AcDbLinetypeTableRecord
  2
ByBlock
 70
          64
  3

 72
          65
 73
           0
 40
0.0
  0
LTYPE
  5
12
100
AcDbSymbolTableRecord
100
AcDbLinetypeTableRecord
  2
ByLayer
 70
          64
  3

 72
          65
 73
           0
 40
0.0
  0
LTYPE
  5
13
100
AcDbSymbolTableRecord
100
AcDbLinetypeTableRecord
  2
Continuous
 70
          64
  3
Solid line
 72
          65
 73
           0
 40
0.0
  0
LTYPE
  5
24
100
AcDbSymbolTableRecord
100
AcDbLinetypeTableRecord
  2
BORDER
 70
           0
  3
BORDER
 72
          65
 73
           6
 40
1.75
 49
0.5
 74
           0
 49
-0.25
 74
           0
 49
0.5
 74
           0
 49
-0.25
 74
           0
 49
0.0
 74
           0
 49
-0.25
 74
           0
  0
LTYPE
  5
25
100
AcDbSymbolTableRecord
100
AcDbLinetypeTableRecord
  2
CENTER
 70
           0
  3
CENTER
 72
          65
 73
           4
 40
19.4
 49
13.0
 74
           0
 49
-2.1
 74
           0
 49
2.2
 74
           0
 49
-2.1
 74
           0
  0
LTYPE
  5
26
100
AcDbSymbolTableRecord
100
AcDbLinetypeTableRecord
  2
DASHDOT
 70
           0
  3
DASHDOT
 72
          65
 73
           4
 40
1.0
 49
0.5
 74
           0
 49
-0.25
 74
           0
 49
0.0
 74
           0
 49
-0.25
 74
           0
  0
LTYPE
  5
27
100
AcDbSymbolTableRecord
100
AcDbLinetypeTableRecord
  2
DASHED
 70
           0
  3
DASHED
 72
          65
 73
           2
 40
2.2
 49
1.3
 74
           0
 49
-0.9
 74
           0
  0
LTYPE
  5
28
100
AcDbSymbolTableRecord
100
AcDbLinetypeTableRecord
  2
DIVIDE
 70
           0
  3
DIVIDE
 72
          65
 73
           6
 40
1.25
 49
0.5
 74
           0
 49
-0.25
 74
           0
 49
0.0
 74
           0
 49
-0.25
 74
           0
 49
0.0
 74
           0
 49
-0.25
 74
           0
  0
LTYPE
  5
29
100
AcDbSymbolTableRecord
100
AcDbLinetypeTableRecord
  2
DOT
 70
           0
  3
DOT
 72
          65
 73
           2
 40
0.25
 49
0.0
 74
           0
 49
-0.25
 74
           0
  0
LTYPE
  5
2A
100
AcDbSymbolTableRecord
100
AcDbLinetypeTableRecord
  2
HIDDEN
 70
           0
  3
HIDDEN
 72
          65
 73
           2
 40
0.375
 49
0.25
 74
           0
 49
-0.125
 74
           0
  0
LTYPE
  5
2B
100
AcDbSymbolTableRecord
100
AcDbLinetypeTableRecord
  2
PHANTOM
 70
           0
  3
PHANTOM
 72
          65
 73
           6
 40
2.5
 49
1.25
 74
           0
 49
-0.25
 74
           0
 49
0.25
 74
           0
 49
-0.25
 74
           0
 49
0.25
 74
           0
 49
-0.25
 74
           0
  0
LTYPE
  5
2C
100
AcDbSymbolTableRecord
100
AcDbLinetypeTableRecord
  2
$INVISIBLE
 70
           0
  3
$INVISIBLE
 72
          65
 73
           2
 40
200.0
 49
-100.0
 74
           0
 49
-100.0
 74
           0
  0
LTYPE
  5
2D
100
AcDbSymbolTableRecord
100
AcDbLinetypeTableRecord
  2
$SNAPEXT
 70
           0
  3
$SNAPEXT
 72
          65
 73
           2
 40
0.04
 49
0.02
 74
           0
 49
-0.02
 74
           0
  0
LTYPE
  5
2E
100
AcDbSymbolTableRecord
100
AcDbLinetypeTableRecord
  2
$AUXILIARY
 70
           0
  3
$AUXILIARY
 72
          65
 73
           2
 40
0.1
 49
0.05
 74
           0
 49
-0.05
 74
           0
  0
ENDTAB
  0
TABLE
  2
LAYER
  5
2
100
AcDbSymbolTable
 70
           7
  0
LAYER
  5
14
100
AcDbSymbolTableRecord
100
AcDbLayerTableRecord
  2
0
 70
           0
 62
           7
  6
Continuous
290
           1
370
           0
390
0
1001
TCAD
1000
TCW_LAYER_ORDER
1002
{
1071
        0
1002
}
  0
LAYER
  5
2F
100
AcDbSymbolTableRecord
100
AcDbLayerTableRecord
  2
DEFPOINTS
 70
           0
 62
           7
  6
Continuous
290
           0
370
           0
390
0
1001
TCAD
1000
TCW_LAYER_ORDER
1002
{
1071
        0
1002
}
  0
LAYER
  5
30
100
AcDbSymbolTableRecord
100
AcDbLayerTableRecord
  2
DETAIL-0
 70
           0
 62
           7
  6
Continuous
290
           1
370
           0
390
0
1001
TCAD
1000
TCW_LAYER_ORDER
1002
{
1071
        0
1002
}
  0
LAYER
  5
31
100
AcDbSymbolTableRecord
100
AcDbLayerTableRecord
  2
DETAIL-1
 70
           0
 62
           3
  6
Continuous
290
           1
370
           0
390
0
1001
TCAD
1000
TCW_LAYER_ORDER
1002
{
1071
        0
1002
}
  0
LAYER
  5
32
100
AcDbSymbolTableRecord
100
AcDbLayerTableRecord
  2
DEFPOINTS-0
 70
           0
 62
           3
  6
Continuous
290
           1
370
           0
390
0
1001
TCAD
1000
TCW_LAYER_ORDER
1002
{
1071
        0
1002
}
  0
LAYER
  5
33
100
AcDbSymbolTableRecord
100
AcDbLayerTableRecord
  2
PV-0
 70
           0
 62
           7
  6
Continuous
290
           1
370
           0
390
0
1001
TCAD
1000
TCW_LAYER_ORDER
1002
{
1071
        0
1002
}
  0
LAYER
  5
34
100
AcDbSymbolTableRecord
100
AcDbLayerTableRecord
  2
1
 70
           0
 62
           7
  6
Continuous
290
           1
370
           0
390
0
1001
TCAD
1000
TCW_LAYER_ORDER
1002
{
1071
        0
1002
}
  0
ENDTAB
  0
TABLE
  2
STYLE
  5
3
100
AcDbSymbolTable
 70
           5
  0
STYLE
  5
17
100
AcDbSymbolTableRecord
100
AcDbTextStyleTableRecord
  2
STANDARD
 70
           0
 40
0.0
 41
1.0
 50
0.0
 71
           0
 42
0.20000000298
  3
ROMAND.SHX
  4

  0
STYLE
  5
39
100
AcDbSymbolTableRecord
100
AcDbTextStyleTableRecord
  2
ATTR
 70
           0
 40
0.008020019159
 41
1.0
 50
0.0
 71
           0
 42
0.20000000298
  3
ROMAND.SHX
  4

  0
STYLE
  5
1DD
100
AcDbSymbolTableRecord
100
AcDbTextStyleTableRecord
  2
_TCW_TXTSTY_1
 70
           0
 40
0.0
 41
1.0
 50
0.0
 71
           0
 42
0.2
  3
ROMANS.SHX
  4

  0
STYLE
  5
262
100
AcDbSymbolTableRecord
100
AcDbTextStyleTableRecord
  2
_TCW_TXTSTY_2
 70
           0
 40
0.0
 41
1.0
 50
0.0
 71
           0
 42
0.2
  3
TXT.SHX
  4

  0
STYLE
  5
440
100
AcDbSymbolTableRecord
100
AcDbTextStyleTableRecord
  2
_TCW_TXTSTY_3
 70
           0
 40
0.0
 41
1.0
 50
0.0
 71
           0
 42
0.224505141377
  3
TIMES.TTF
  4

1001
ACAD
1000
Times New Roman
1071
      290
  0
ENDTAB
  0
TABLE
  2
VIEW
  5
5
100
AcDbSymbolTable
 70
           4
  0
VIEW
  5
35
100
AcDbSymbolTableRecord
100
AcDbViewTableRecord
  2
View_0
 70
           0
 40
8.267716535433
 10
5.846456692913
 20
4.133858267717
 41
11.692913385827
 11
0.0
 21
0.0
 31
1.0
 12
0.0
 22
0.0
 32
0.0
 42
45.247172312671
 43
0.0
 44
0.0
 50
0.0
 71
           0
281
           0
 72
           0
110
0.0
120
0.0
130
0.0
111
1.0
121
0.0
131
0.0
112
0.0
122
1.0
132
0.0
  0
VIEW
  5
36
100
AcDbSymbolTableRecord
100
AcDbViewTableRecord
  2
View_1
 70
           0
 40
92.164911746979
 10
149.583045959473
 20
39.027971982956
 41
121.657699584961
 11
0.0
 21
0.0
 31
1.0
 12
0.0
 22
0.0
 32
0.0
 42
96.321836770587
 43
0.0
 44
0.0
 50
0.0
 71
           0
281
           0
 72
           0
110
0.0
120
0.0
130
0.0
111
1.0
121
0.0
131
0.0
112
0.0
122
1.0
132
0.0
  0
VIEW
  5
37
100
AcDbSymbolTableRecord
100
AcDbViewTableRecord
  2
OLE1
 70
           0
 40
3.485294342041
 10
9.612509012222
 20
4.419694423676
 41
5.789809703827
 11
0.0
 21
0.0
 31
1.0
 12
0.0
 22
0.0
 32
0.0
 42
82.265564008146
 43
0.0
 44
0.0
 50
0.0
 71
           0
281
           0
 72
           0
110
0.0
120
0.0
130
0.0
111
1.0
121
0.0
131
0.0
112
0.0
122
1.0
132
0.0
  0
VIEW
  5
38
100
AcDbSymbolTableRecord
100
AcDbViewTableRecord
  2
View_3
 70
           0
 40
94.793879834024
 10
149.583045959473
 20
39.027971982956
 41
121.657699584961
 11
0.0
 21
0.0
 31
1.0
 12
0.0
 22
0.0
 32
0.0
 42
98.040483136436
 43
0.0
 44
0.0
 50
0.0
 71
           0
281
           0
 72
           0
110
0.0
120
0.0
130
0.0
111
1.0
121
0.0
131
0.0
112
0.0
122
1.0
132
0.0
  0
ENDTAB
  0
TABLE
  2
UCS
  5
6
100
AcDbSymbolTable
 70
           1
  0
UCS
  5
3A
100
AcDbSymbolTableRecord
100
AcDbUCSTableRecord
  2
CK_VIEW_1
 70
           0
 10
0.0
 20
0.0
 30
1.0
 11
1.0
 21
0.0
 31
0.0
 12
0.0
 22
1.0
 32
0.0
 79
           0
146
0.0
  0
ENDTAB
  0
TABLE
  2
APPID
  5
8
100
AcDbSymbolTable
 70
           2
  0
APPID
  5
16
100
AcDbSymbolTableRecord
100
AcDbRegAppTableRecord
  2
ACAD
 70
           0
  0
APPID
  5
23
100
AcDbSymbolTableRecord
100
AcDbRegAppTableRecord
  2
TCAD
 70
           0
  0
ENDTAB
  0
TABLE
  2
DIMSTYLE
  5
9
100
AcDbSymbolTable
 70
           1
100
AcDbDimStyleTable
 71
           0
  0
DIMSTYLE
105
18
100
AcDbSymbolTableRecord
100
AcDbDimStyleTableRecord
  2
STANDARD
 70
           0
  3

  4

 40
1.0
 41
0.18
 42
0.0625
 43
0.38
 44
0.18
 45
0.0000001
 46
0.0
 47
0.0
 48
0.0
 71
           0
 72
           0
 73
           1
 74
           1
 75
           0
 76
           0
 77
           0
 78
           0
 79
           0
140
0.185806451613
141
0.09
142
0.0
143
25.4
144
1.0
145
0.0
146
1.0
147
0.09
148
0.0000001
170
           0
171
           2
172
           0
173
           0
174
           0
175
           0
176
           0
177
           0
178
           0
179
           4
271
           4
272
           4
273
           2
274
           2
275
           0
276
           0
277
           2
278
          46
279
           0
280
           0
281
           0
282
           0
283
           1
284
           0
285
           0
286
           0
288
           0
340
17
341
0
342
0
343
0
344
0
371
          -2
372
          -2
  0
ENDTAB
  0
TABLE
  2
BLOCK_RECORD
  5
1
100
AcDbSymbolTable
 70
          42
  0
BLOCK_RECORD
  5
A
100
AcDbSymbolTableRecord
100
AcDbBlockTableRecord
  2
*MODEL_SPACE
340
4CA
  0
BLOCK_RECORD
  5
B
100
AcDbSymbolTableRecord
100
AcDbBlockTableRecord
  2
*PAPER_SPACE
340
4CD
  0
BLOCK_RECORD
  5
3B
100
AcDbSymbolTableRecord
100
AcDbBlockTableRecord
  2
Block_0
340
0
102
{BLKREFS
331
495
102
}
  0
BLOCK_RECORD
  5
5A
100
AcDbSymbolTableRecord
100
AcDbBlockTableRecord
  2
Block_3
340
0
102
{BLKREFS
331
496
102
}
  0
BLOCK_RECORD
  5
1DB
100
AcDbSymbolTableRecord
100
AcDbBlockTableRecord
  2
Fuse
340
0
102
{BLKREFS
331
2C4
102
}
  0
BLOCK_RECORD
  5
1E4
100
AcDbSymbolTableRecord
100
AcDbBlockTableRecord
  2
Lamp 1
340
0
  0
BLOCK_RECORD
  5
1ED
100
AcDbSymbolTableRecord
100
AcDbBlockTableRecord
  2
Transformer
340
0
  0
BLOCK_RECORD
  5
1FB
100
AcDbSymbolTableRecord
100
AcDbBlockTableRecord
  2
3-Phase Delta
340
0
  0
BLOCK_RECORD
  5
212
100
AcDbSymbolTableRecord
100
AcDbBlockTableRecord
  2
Inductor
340
0
  0
BLOCK_RECORD
  5
21B
100
AcDbSymbolTableRecord
100
AcDbBlockTableRecord
  2
Resistor
340
0
102
{BLKREFS
331
23E
102
}
  0
BLOCK_RECORD
  5
220
100
AcDbSymbolTableRecord
100
AcDbBlockTableRecord
  2
Capacitor
340
0
  0
BLOCK_RECORD
  5
228
100
AcDbSymbolTableRecord
100
AcDbBlockTableRecord
  2
Locking Switch Open
340
0
  0
BLOCK_RECORD
  5
235
100
AcDbSymbolTableRecord
100
AcDbBlockTableRecord
  2
Power Ground
340
0
  0
BLOCK_RECORD
  5
23C
100
AcDbSymbolTableRecord
100
AcDbBlockTableRecord
  2
A$C03040EC0
340
0
  0
BLOCK_RECORD
  5
240
100
AcDbSymbolTableRecord
100
AcDbBlockTableRecord
  2
A$C6A19271A
340
0
  0
BLOCK_RECORD
  5
244
100
AcDbSymbolTableRecord
100
AcDbBlockTableRecord
  2
Ohm Symbol
340
0
102
{BLKREFS
331
278
102
}
  0
BLOCK_RECORD
  5
24B
100
AcDbSymbolTableRecord
100
AcDbBlockTableRecord
  2
Rheostat
340
0
102
{BLKREFS
331
261
102
}
  0
BLOCK_RECORD
  5
25C
100
AcDbSymbolTableRecord
100
AcDbBlockTableRecord
  2
A$C08006EF5
340
0
  0
BLOCK_RECORD
  5
27E
100
AcDbSymbolTableRecord
100
AcDbBlockTableRecord
  2
A$C26A43B7E
340
0
  0
BLOCK_RECORD
  5
285
100
AcDbSymbolTableRecord
100
AcDbBlockTableRecord
  2
A$C06E97278
340
0
  0
BLOCK_RECORD
  5
290
100
AcDbSymbolTableRecord
100
AcDbBlockTableRecord
  2
A$C3881095A
340
0
  0
BLOCK_RECORD
  5
297
100
AcDbSymbolTableRecord
100
AcDbBlockTableRecord
  2
A$C7C7A5DC8
340
0
  0
BLOCK_RECORD
  5
29B
100
AcDbSymbolTableRecord
100
AcDbBlockTableRecord
  2
A$C4FB532C2
340
0
  0
BLOCK_RECORD
  5
2A3
100
AcDbSymbolTableRecord
100
AcDbBlockTableRecord
  2
A$C581B394E
340
0
  0
BLOCK_RECORD
  5
2AA
100
AcDbSymbolTableRecord
100
AcDbBlockTableRecord
  2
A$C25FD3304
340
0
  0
BLOCK_RECORD
  5
2AE
100
AcDbSymbolTableRecord
100
AcDbBlockTableRecord
  2
A$C79987CD6
340
0
  0
BLOCK_RECORD
  5
2B2
100
AcDbSymbolTableRecord
100
AcDbBlockTableRecord
  2
A$C16C43627
340
0
  0
BLOCK_RECORD
  5
2B7
100
AcDbSymbolTableRecord
100
AcDbBlockTableRecord
  2
A$C4FC73B81
340
0
  0
BLOCK_RECORD
  5
2BB
100
AcDbSymbolTableRecord
100
AcDbBlockTableRecord
  2
A$C2EB3516B
340
0
  0
BLOCK_RECORD
  5
2C0
100
AcDbSymbolTableRecord
100
AcDbBlockTableRecord
  2
A$C40435073
340
0
  0
BLOCK_RECORD
  5
2C6
100
AcDbSymbolTableRecord
100
AcDbBlockTableRecord
  2
Thermal Overload Switch
340
0
  0
BLOCK_RECORD
  5
2CE
100
AcDbSymbolTableRecord
100
AcDbBlockTableRecord
  2
Momentary Switch NO
340
0
  0
BLOCK_RECORD
  5
2D6
100
AcDbSymbolTableRecord
100
AcDbBlockTableRecord
  2
Block_2
340
0
  0
BLOCK_RECORD
  5
34B
100
AcDbSymbolTableRecord
100
AcDbBlockTableRecord
  2
*D31
340
0
  0
BLOCK_RECORD
  5
359
100
AcDbSymbolTableRecord
100
AcDbBlockTableRecord
  2
*D32
340
0
  0
BLOCK_RECORD
  5
365
100
AcDbSymbolTableRecord
100
AcDbBlockTableRecord
  2
_NONE
340
0
  0
BLOCK_RECORD
  5
36A
100
AcDbSymbolTableRecord
100
AcDbBlockTableRecord
  2
*D34
340
0
  0
BLOCK_RECORD
  5
377
100
AcDbSymbolTableRecord
100
AcDbBlockTableRecord
  2
*D35
340
0
  0
BLOCK_RECORD
  5
384
100
AcDbSymbolTableRecord
100
AcDbBlockTableRecord
  2
*D36
340
0
  0
BLOCK_RECORD
  5
39A
100
AcDbSymbolTableRecord
100
AcDbBlockTableRecord
  2
*D37
340
0
  0
BLOCK_RECORD
  5
3A7
100
AcDbSymbolTableRecord
100
AcDbBlockTableRecord
  2
*D38
340
0
  0
BLOCK_RECORD
  5
3DB
100
AcDbSymbolTableRecord
100
AcDbBlockTableRecord
  2
*D39
340
0
  0
BLOCK_RECORD
  5
41B
100
AcDbSymbolTableRecord
100
AcDbBlockTableRecord
  2
*D40
340
0
  0
BLOCK_RECORD
  5
429
100
AcDbSymbolTableRecord
100
AcDbBlockTableRecord
  2
*D41
340
0
  0
ENDTAB
  0
ENDSEC
  0
SECTION
  2
BLOCKS
  0
BLOCK
  5
D
100
AcDbEntity
  8
0
100
AcDbBlockBegin
  2
*MODEL_SPACE
 70
           0
 10
0.0
 20
0.0
 30
0.0
  3
*MODEL_SPACE
  1

  0
ENDBLK
  5
E
100
AcDbEntity
  8
0
100
AcDbBlockEnd
  0
BLOCK
  5
F
100
AcDbEntity
 67
           1
  8
0
100
AcDbBlockBegin
  2
*PAPER_SPACE
 70
           0
 10
0.0
 20
0.0
 30
0.0
  3
*PAPER_SPACE
  1

  0
ENDBLK
  5
10
100
AcDbEntity
 67
           1
  8
0
100
AcDbBlockEnd
  0
BLOCK
  5
3C
100
AcDbEntity
  8
0
100
AcDbBlockBegin
  2
Block_0
 70
           0
 10
0.0
 20
0.0
 30
0.0
  3
Block_0
  1

  0
LINE
  5
3D
100
AcDbEntity
  8
0
 62
           0
100
AcDbLine
 10
10.506844388461
 20
1.597298945511
 30
0.0
 11
10.540382297308
 21
1.630836854358
 31
0.0
1001
ACAD
1000
TCW40_DEV_WIDTH
1002
{
1040
-3.0
1002
}
  0
LINE
  5
3E
100
AcDbEntity
  8
0
 62
           0
100
AcDbLine
 10
10.631849321437
 20
1.722303878487
 30
0.0
 11
10.665387230284
 21
1.755841787334
 31
0.0
1001
ACAD
1000
TCW40_DEV_WIDTH
1002
{
1040
-3.0
1002
}
  0
LINE
  5
3F
100
AcDbEntity
  8
0
 62
           0
100
AcDbLine
 10
10.498005553696
 20
1.606137780276
 30
0.0
 11
10.531543462544
 21
1.639675689123
 31
0.0
1001
ACAD
1000
TCW40_DEV_WIDTH
1002
{
1040
-3.0
1002
}
  0
LINE
  5
40
100
AcDbEntity
  8
0
 62
           0
100
AcDbLine
 10
10.623010486672
 20
1.731142713251
 30
0.0
 11
10.653499494715
 21
1.761631721294
 31
0.0
1001
ACAD
1000
TCW40_DEV_WIDTH
1002
{
1040
-3.0
1002
}
  0
LINE
  5
41
100
AcDbEntity
  8
0
 62
           0
100
AcDbLine
 10
10.489166718932
 20
1.61497661504
 30
0.0
 11
10.528802429387
 21
1.654612325496
 31
0.0
1001
ACAD
1000
TCW40_DEV_WIDTH
1002
{
1040
-3.0
1002
}
  0
LINE
  5
42
100
AcDbEntity
  8
0
 62
           0
100
AcDbLine
 10
10.608073850299
 20
1.733883746408
 30
0.0
 11
10.641611759146
 21
1.767421655255
 31
0.0
1001
ACAD
1000
TCW40_DEV_WIDTH
1002
{
1040
-3.0
1002
}
  0
LINE
  5
43
100
AcDbEntity
  8
0
 62
           0
100
AcDbLine
 10
10.483376784971
 20
1.626864350609
 30
0.0
 11
10.523940330262
 21
1.667427895901
 31
0.0
1001
ACAD
1000
TCW40_DEV_WIDTH
1002
{
1040
-3.0
1002
}
  0
LINE
  5
44
100
AcDbEntity
  8
0
 62
           0
100
AcDbLine
 10
10.595258279894
 20
1.738745845533
 30
0.0
 11
10.626675122773
 21
1.770162688411
 31
0.0
1001
ACAD
1000
TCW40_DEV_WIDTH
1002
{
1040
-3.0
1002
}
  0
LINE
  5
45
100
AcDbEntity
  8
0
 62
           0
100
AcDbLine
 10
10.47758685101
 20
1.638752086179
 30
0.0
 11
10.530038131871
 21
1.691203367039
 31
0.0
1001
ACAD
1000
TCW40_DEV_WIDTH
1002
{
1040
-3.0
1002
}
  0
LINE
  5
46
100
AcDbEntity
  8
0
 62
           0
100
AcDbLine
 10
10.571482808756
 20
1.732648043924
 30
0.0
 11
10.614167420016
 21
1.775332655184
 31
0.0
1001
ACAD
1000
TCW40_DEV_WIDTH
1002
{
1040
-3.0
1002
}
  0
LINE
  5
47
100
AcDbEntity
  8
0
 62
           0
100
AcDbLine
 10
10.47179691705
 20
1.650639821748
 30
0.0
 11
10.596489750486
 21
1.775332655184
 31
0.0
1001
ACAD
1000
TCW40_DEV_WIDTH
1002
{
1040
-3.0
1002
}
  0
LINE
  5
48
100
AcDbEntity
  8
0
 62
           0
100
AcDbLine
 10
10.469060115785
 20
1.665580690013
 30
0.0
 11
10.578812080957
 21
1.775332655184
 31
0.0
1001
ACAD
1000
TCW40_DEV_WIDTH
1002
{
1040
-3.0
1002
}
  0
LINE
  5
49
100
AcDbEntity
  8
0
 62
           0
100
AcDbLine
 10
10.469060115785
 20
1.683258359542
 30
0.0
 11
10.555036609818
 21
1.769234853575
 31
0.0
1001
ACAD
1000
TCW40_DEV_WIDTH
1002
{
1040
-3.0
1002
}
  0
LINE
  5
4A
100
AcDbEntity
  8
0
 62
           0
100
AcDbLine
 10
10.481255719002
 20
1.713131632289
 30
0.0
 11
10.525163337071
 21
1.757039250358
 31
0.0
1001
ACAD
1000
TCW40_DEV_WIDTH
1002
{
1040
-3.0
1002
}
  0
LINE
  5
4B
100
AcDbEntity
  8
0
 62
           0
100
AcDbLine
 10
10.51873212403
 20
1.59150901155
 30
0.0
 11
10.549221132073
 21
1.621998019593
 31
0.0
1001
ACAD
1000
TCW40_DEV_WIDTH
1002
{
1040
-3.0
1002
}
  0
LINE
  5
4C
100
AcDbEntity
  8
0
 62
           0
100
AcDbLine
 10
10.640688156202
 20
1.713465043722
 30
0.0
 11
10.677274965853
 21
1.750051853373
 31
0.0
1001
ACAD
1000
TCW40_DEV_WIDTH
1002
{
1040
-3.0
1002
}
  0
LINE
  5
4D
100
AcDbEntity
  8
0
 62
           0
100
AcDbLine
 10
10.530619859599
 20
1.58571907759
 30
0.0
 11
10.558059966838
 21
1.613159184828
 31
0.0
1001
ACAD
1000
TCW40_DEV_WIDTH
1002
{
1040
-3.0
1002
}
  0
LINE
  5
4E
100
AcDbEntity
  8
0
 62
           0
100
AcDbLine
 10
10.649526990967
 20
1.704626208957
 30
0.0
 11
10.686113800618
 21
1.741213018608
 31
0.0
1001
ACAD
1000
TCW40_DEV_WIDTH
1002
{
1040
-3.0
1002
}
  0
LINE
  5
4F
100
AcDbEntity
  8
0
 62
           0
100
AcDbLine
 10
10.542507595169
 20
1.579929143629
 30
0.0
 11
10.572996603211
 21
1.610418151672
 31
0.0
1001
ACAD
1000
TCW40_DEV_WIDTH
1002
{
1040
-3.0
1002
}
  0
LINE
  5
50
100
AcDbEntity
  8
0
 62
           0
100
AcDbLine
 10
10.652268024123
 20
1.689689572583
 30
0.0
 11
10.694952635383
 21
1.732374183844
 31
0.0
1001
ACAD
1000
TCW40_DEV_WIDTH
1002
{
1040
-3.0
1002
}
  0
LINE
  5
51
100
AcDbEntity
  8
0
 62
           0
100
AcDbLine
 10
10.55436132317
 20
1.574105202101
 30
0.0
 11
10.584850331213
 21
1.604594210144
 31
0.0
1001
ACAD
1000
TCW40_DEV_WIDTH
1002
{
1040
-3.0
1002
}
  0
LINE
  5
52
100
AcDbEntity
  8
0
 62
           0
100
AcDbLine
 10
10.658091965651
 20
1.677835844582
 30
0.0
 11
10.700776576911
 21
1.720520455842
 31
0.0
1001
ACAD
1000
TCW40_DEV_WIDTH
1002
{
1040
-3.0
1002
}
  0
LINE
  5
53
100
AcDbEntity
  8
0
 62
           0
100
AcDbLine
 10
10.566283066307
 20
1.568349275708
 30
0.0
 11
10.602528000743
 21
1.604594210144
 31
0.0
1001
ACAD
1000
TCW40_DEV_WIDTH
1002
{
1040
-3.0
1002
}
  0
LINE
  5
54
100
AcDbEntity
  8
0
 62
           0
100
AcDbLine
 10
10.658091965651
 20
1.660158175052
 30
0.0
 11
10.70687437852
 21
1.708940587921
 31
0.0
1001
ACAD
1000
TCW40_DEV_WIDTH
1002
{
1040
-3.0
1002
}
  0
LINE
  5
55
100
AcDbEntity
  8
0
 62
           0
100
AcDbLine
 10
10.583618860621
 20
1.568007400492
 30
0.0
 11
10.712972180128
 21
1.69736072
 31
0.0
1001
ACAD
1000
TCW40_DEV_WIDTH
1002
{
1040
-3.0
1002
}
  0
LINE
  5
56
100
AcDbEntity
  8
0
 62
           0
100
AcDbLine
 10
10.60129653015
 20
1.568007400492
 30
0.0
 11
10.719069981737
 21
1.685780852079
 31
0.0
1001
ACAD
1000
TCW40_DEV_WIDTH
1002
{
1040
-3.0
1002
}
  0
LINE
  5
57
100
AcDbEntity
  8
0
 62
           0
100
AcDbLine
 10
10.61897419968
 20
1.568007400492
 30
0.0
 11
10.719069981737
 21
1.668103182549
 31
0.0
1001
ACAD
1000
TCW40_DEV_WIDTH
1002
{
1040
-3.0
1002
}
  0
LINE
  5
58
100
AcDbEntity
  8
0
 62
           0
100
AcDbLine
 10
10.648847472427
 20
1.580203003709
 30
0.0
 11
10.712972180128
 21
1.644327711411
 31
0.0
1001
ACAD
1000
TCW40_DEV_WIDTH
1002
{
1040
-3.0
1002
}
  0
ENDBLK
  5
59
100
AcDbEntity
  8
0
100
AcDbBlockEnd
  0
BLOCK
  5
5B
100
AcDbEntity
  8
0
100
AcDbBlockBegin
  2
Block_3
 70
           0
 10
0.0
 20
0.0
 30
0.0
  3
Block_3
  1

  0
LINE
  5
5C
100
AcDbEntity
  8
0
 62
           0
100
AcDbLine
 10
10.421500709726
 20
1.653376623012
 30
0.0
 11
10.438571107742
 21
1.670447021029
 31
0.0
1001
ACAD
1000
TCW40_DEV_WIDTH
1002
{
1040
-3.0
1002
}
  0
LINE
  5
5D
100
AcDbEntity
  8
0
 62
           0
100
AcDbLine
 10
10.38552963537
 20
1.635083218187
 30
0.0
 11
10.450766710959
 21
1.700320293776
 31
0.0
1001
ACAD
1000
TCW40_DEV_WIDTH
1002
{
1040
-3.0
1002
}
  0
LINE
  5
5E
100
AcDbEntity
  8
0
 62
           0
100
AcDbLine
 10
10.361754164232
 20
1.628985416578
 30
0.0
 11
10.445487068485
 21
1.712718320831
 31
0.0
1001
ACAD
1000
TCW40_DEV_WIDTH
1002
{
1040
-3.0
1002
}
  0
LINE
  5
5F
100
AcDbEntity
  8
0
 62
           0
100
AcDbLine
 10
10.337978693094
 20
1.62288761497
 30
0.0
 11
10.440106214091
 21
1.725015135967
 31
0.0
1001
ACAD
1000
TCW40_DEV_WIDTH
1002
{
1040
-3.0
1002
}
  0
LINE
  5
60
100
AcDbEntity
  8
0
 62
           0
100
AcDbLine
 10
10.320301023564
 20
1.62288761497
 30
0.0
 11
10.431267379326
 21
1.733853970732
 31
0.0
1001
ACAD
1000
TCW40_DEV_WIDTH
1002
{
1040
-3.0
1002
}
  0
LINE
  5
61
100
AcDbEntity
  8
0
 62
           0
100
AcDbLine
 10
10.302623354034
 20
1.62288761497
 30
0.0
 11
10.357503568512
 21
1.677767829447
 31
0.0
1001
ACAD
1000
TCW40_DEV_WIDTH
1002
{
1040
-3.0
1002
}
  0
LINE
  5
62
100
AcDbEntity
  8
0
 62
           0
100
AcDbLine
 10
10.382792834105
 20
1.703057095041
 30
0.0
 11
10.422428544561
 21
1.742692805496
 31
0.0
1001
ACAD
1000
TCW40_DEV_WIDTH
1002
{
1040
-3.0
1002
}
  0
LINE
  5
63
100
AcDbEntity
  8
0
 62
           0
100
AcDbLine
 10
10.236163271636
 20
1.574105202101
 30
0.0
 11
10.249539257876
 21
1.587481188341
 31
0.0
1001
ACAD
1000
TCW40_DEV_WIDTH
1002
{
1040
-3.0
1002
}
  0
LINE
  5
64
100
AcDbEntity
  8
0
 62
           0
100
AcDbLine
 10
10.373953999341
 20
1.711895929805
 30
0.0
 11
10.410540808992
 21
1.748482739457
 31
0.0
1001
ACAD
1000
TCW40_DEV_WIDTH
1002
{
1040
-3.0
1002
}
  0
LINE
  5
65
100
AcDbEntity
  8
0
 62
           0
100
AcDbLine
 10
10.284945684505
 20
1.62288761497
 30
0.0
 11
10.333728097373
 21
1.671670027838
 31
0.0
1001
ACAD
1000
TCW40_DEV_WIDTH
1002
{
1040
-3.0
1002
}
  0
LINE
  5
66
100
AcDbEntity
  8
0
 62
           0
100
AcDbLine
 10
10.218485602106
 20
1.574105202101
 30
0.0
 11
10.249539257876
 21
1.605158857871
 31
0.0
1001
ACAD
1000
TCW40_DEV_WIDTH
1002
{
1040
-3.0
1002
}
  0
LINE
  5
67
100
AcDbEntity
  8
0
 62
           0
100
AcDbLine
 10
10.362066263772
 20
1.717685863766
 30
0.0
 11
10.398653073423
 21
1.754272673417
 31
0.0
1001
ACAD
1000
TCW40_DEV_WIDTH
1002
{
1040
-3.0
1002
}
  0
LINE
  5
68
100
AcDbEntity
  8
0
 62
           0
100
AcDbLine
 10
10.273365816584
 20
1.628985416578
 30
0.0
 11
10.316050427844
 21
1.671670027838
 31
0.0
1001
ACAD
1000
TCW40_DEV_WIDTH
1002
{
1040
-3.0
1002
}
  0
LINE
  5
69
100
AcDbEntity
  8
0
 62
           0
100
AcDbLine
 10
10.200807932577
 20
1.574105202101
 30
0.0
 11
10.249539257876
 21
1.6228365274
 31
0.0
1001
ACAD
1000
TCW40_DEV_WIDTH
1002
{
1040
-3.0
1002
}
  0
LINE
  5
6A
100
AcDbEntity
  8
0
 62
           0
100
AcDbLine
 10
10.347155171183
 20
1.720452440707
 30
0.0
 11
10.386765337854
 21
1.760062607378
 31
0.0
1001
ACAD
1000
TCW40_DEV_WIDTH
1002
{
1040
-3.0
1002
}
  0
LINE
  5
6B
100
AcDbEntity
  8
0
 62
           0
100
AcDbLine
 10
10.255688147054
 20
1.628985416578
 30
0.0
 11
10.298372758314
 21
1.671670027838
 31
0.0
1001
ACAD
1000
TCW40_DEV_WIDTH
1002
{
1040
-3.0
1002
}
  0
LINE
  5
6C
100
AcDbEntity
  8
0
 62
           0
100
AcDbLine
 10
10.183130263047
 20
1.574105202101
 30
0.0
 11
10.249539257876
 21
1.64051419693
 31
0.0
1001
ACAD
1000
TCW40_DEV_WIDTH
1002
{
1040
-3.0
1002
}
  0
LINE
  5
6D
100
AcDbEntity
  8
0
 62
           0
100
AcDbLine
 10
10.335575303262
 20
1.726550242315
 30
0.0
 11
10.372162112913
 21
1.763137051967
 31
0.0
1001
ACAD
1000
TCW40_DEV_WIDTH
1002
{
1040
-3.0
1002
}
  0
LINE
  5
6E
100
AcDbEntity
  8
0
 62
           0
100
AcDbLine
 10
10.249539257876
 20
1.64051419693
 30
0.0
 11
10.280695088784
 21
1.671670027838
 31
0.0
1001
ACAD
1000
TCW40_DEV_WIDTH
1002
{
1040
-3.0
1002
}
  0
LINE
  5
6F
100
AcDbEntity
  8
0
 62
           0
100
AcDbLine
 10
10.182463440182
 20
1.591116048765
 30
0.0
 11
10.249539257876
 21
1.65819186646
 31
0.0
1001
ACAD
1000
TCW40_DEV_WIDTH
1002
{
1040
-3.0
1002
}
  0
LINE
  5
70
100
AcDbEntity
  8
0
 62
           0
100
AcDbLine
 10
10.317897633732
 20
1.726550242315
 30
0.0
 11
10.359940965911
 21
1.768593574495
 31
0.0
1001
ACAD
1000
TCW40_DEV_WIDTH
1002
{
1040
-3.0
1002
}
  0
LINE
  5
71
100
AcDbEntity
  8
0
 62
           0
100
AcDbLine
 10
10.249539257876
 20
1.65819186646
 30
0.0
 11
10.265425040978
 21
1.674077649562
 31
0.0
1001
ACAD
1000
TCW40_DEV_WIDTH
1002
{
1040
-3.0
1002
}
  0
LINE
  5
72
100
AcDbEntity
  8
0
 62
           0
100
AcDbLine
 10
10.147774923988
 20
1.574105202101
 30
0.0
 11
10.162397590884
 21
1.588727868997
 31
0.0
1001
ACAD
1000
TCW40_DEV_WIDTH
1002
{
1040
-3.0
1002
}
  0
LINE
  5
73
100
AcDbEntity
  8
0
 62
           0
100
AcDbLine
 10
10.300219964202
 20
1.726550242315
 30
0.0
 11
10.342904575462
 21
1.769234853575
 31
0.0
1001
ACAD
1000
TCW40_DEV_WIDTH
1002
{
1040
-3.0
1002
}
  0
LINE
  5
74
100
AcDbEntity
  8
0
 62
           0
100
AcDbLine
 10
10.182463440182
 20
1.608793718295
 30
0.0
 11
10.249539257876
 21
1.675869535989
 31
0.0
1001
ACAD
1000
TCW40_DEV_WIDTH
1002
{
1040
-3.0
1002
}
  0
LINE
  5
75
100
AcDbEntity
  8
0
 62
           0
100
AcDbLine
 10
10.249539257876
 20
1.675869535989
 30
0.0
 11
10.251437551334
 21
1.677767829447
 31
0.0
1001
ACAD
1000
TCW40_DEV_WIDTH
1002
{
1040
-3.0
1002
}
  0
LINE
  5
76
100
AcDbEntity
  8
0
 62
           0
100
AcDbLine
 10
10.130097254458
 20
1.574105202101
 30
0.0
 11
10.160486491475
 21
1.604494439118
 31
0.0
1001
ACAD
1000
TCW40_DEV_WIDTH
1002
{
1040
-3.0
1002
}
  0
LINE
  5
77
100
AcDbEntity
  8
0
 62
           0
100
AcDbLine
 10
10.282542294673
 20
1.726550242315
 30
0.0
 11
10.330067693165
 21
1.774075640807
 31
0.0
1001
ACAD
1000
TCW40_DEV_WIDTH
1002
{
1040
-3.0
1002
}
  0
LINE
  5
78
100
AcDbEntity
  8
0
 62
           0
100
AcDbLine
 10
10.182463440182
 20
1.626471387825
 30
0.0
 11
10.249539257876
 21
1.693547205519
 31
0.0
1001
ACAD
1000
TCW40_DEV_WIDTH
1002
{
1040
-3.0
1002
}
  0
LINE
  5
79
100
AcDbEntity
  8
0
 62
           0
100
AcDbLine
 10
10.112419584928
 20
1.574105202101
 30
0.0
 11
10.158575392067
 21
1.620261009239
 31
0.0
1001
ACAD
1000
TCW40_DEV_WIDTH
1002
{
1040
-3.0
1002
}
  0
LINE
  5
7A
100
AcDbEntity
  8
0
 62
           0
100
AcDbLine
 10
10.258766823534
 20
1.720452440707
 30
0.0
 11
10.313647038012
 21
1.775332655184
 31
0.0
1001
ACAD
1000
TCW40_DEV_WIDTH
1002
{
1040
-3.0
1002
}
  0
LINE
  5
7B
100
AcDbEntity
  8
0
 62
           0
100
AcDbLine
 10
10.182463440182
 20
1.644149057354
 30
0.0
 11
10.249539257876
 21
1.711224875049
 31
0.0
1001
ACAD
1000
TCW40_DEV_WIDTH
1002
{
1040
-3.0
1002
}
  0
LINE
  5
7C
100
AcDbEntity
  8
0
 62
           0
100
AcDbLine
 10
10.102628679012
 20
1.581991965714
 30
0.0
 11
10.156664292658
 21
1.63602757936
 31
0.0
1001
ACAD
1000
TCW40_DEV_WIDTH
1002
{
1040
-3.0
1002
}
  0
LINE
  5
7D
100
AcDbEntity
  8
0
 62
           0
100
AcDbLine
 10
10.182463440182
 20
1.661826726884
 30
0.0
 11
10.295969368482
 21
1.775332655184
 31
0.0
1001
ACAD
1000
TCW40_DEV_WIDTH
1002
{
1040
-3.0
1002
}
  0
LINE
  5
7E
100
AcDbEntity
  8
0
 62
           0
100
AcDbLine
 10
10.10145016771
 20
1.598491123942
 30
0.0
 11
10.154753193249
 21
1.651794149481
 31
0.0
1001
ACAD
1000
TCW40_DEV_WIDTH
1002
{
1040
-3.0
1002
}
  0
LINE
  5
7F
100
AcDbEntity
  8
0
 62
           0
100
AcDbLine
 10
10.182463440182
 20
1.679504396414
 30
0.0
 11
10.278291698952
 21
1.775332655184
 31
0.0
1001
ACAD
1000
TCW40_DEV_WIDTH
1002
{
1040
-3.0
1002
}
  0
LINE
  5
80
100
AcDbEntity
  8
0
 62
           0
100
AcDbLine
 10
10.100271656408
 20
1.61499028217
 30
0.0
 11
10.152842093841
 21
1.667560719602
 31
0.0
1001
ACAD
1000
TCW40_DEV_WIDTH
1002
{
1040
-3.0
1002
}
  0
LINE
  5
81
100
AcDbEntity
  8
0
 62
           0
100
AcDbLine
 10
10.182463440182
 20
1.697182065943
 30
0.0
 11
10.260614029423
 21
1.775332655184
 31
0.0
1001
ACAD
1000
TCW40_DEV_WIDTH
1002
{
1040
-3.0
1002
}
  0
LINE
  5
82
100
AcDbEntity
  8
0
 62
           0
100
AcDbLine
 10
10.04170890681
 20
1.574105202101
 30
0.0
 11
10.067110305994
 21
1.599506601285
 31
0.0
1001
ACAD
1000
TCW40_DEV_WIDTH
1002
{
1040
-3.0
1002
}
  0
LINE
  5
83
100
AcDbEntity
  8
0
 62
           0
100
AcDbLine
 10
10.182463440182
 20
1.714859735473
 30
0.0
 11
10.242936359893
 21
1.775332655184
 31
0.0
1001
ACAD
1000
TCW40_DEV_WIDTH
1002
{
1040
-3.0
1002
}
  0
LINE
  5
84
100
AcDbEntity
  8
0
 62
           0
100
AcDbLine
 10
10.099093145106
 20
1.631489440397
 30
0.0
 11
10.150930994432
 21
1.683327289723
 31
0.0
1001
ACAD
1000
TCW40_DEV_WIDTH
1002
{
1040
-3.0
1002
}
  0
LINE
  5
85
100
AcDbEntity
  8
0
 62
           0
100
AcDbLine
 10
10.02403123728
 20
1.574105202101
 30
0.0
 11
10.084787975523
 21
1.634861940344
 31
0.0
1001
ACAD
1000
TCW40_DEV_WIDTH
1002
{
1040
-3.0
1002
}
  0
LINE
  5
86
100
AcDbEntity
  8
0
 62
           0
100
AcDbLine
 10
10.182463440182
 20
1.732537405003
 30
0.0
 11
10.219160888755
 21
1.769234853575
 31
0.0
1001
ACAD
1000
TCW40_DEV_WIDTH
1002
{
1040
-3.0
1002
}
  0
LINE
  5
87
100
AcDbEntity
  8
0
 62
           0
100
AcDbLine
 10
10.097914633804
 20
1.647988598625
 30
0.0
 11
10.149019895024
 21
1.699093859844
 31
0.0
1001
ACAD
1000
TCW40_DEV_WIDTH
1002
{
1040
-3.0
1002
}
  0
LINE
  5
88
100
AcDbEntity
  8
0
 62
           0
100
AcDbLine
 10
10.00635356775
 20
1.574105202101
 30
0.0
 11
10.147108795615
 21
1.714860429965
 31
0.0
1001
ACAD
1000
TCW40_DEV_WIDTH
1002
{
1040
-3.0
1002
}
  0
LINE
  5
89
100
AcDbEntity
  8
0
 62
           0
100
AcDbLine
 10
10.182463440182
 20
1.750215074532
 30
0.0
 11
10.195385417616
 21
1.763137051967
 31
0.0
1001
ACAD
1000
TCW40_DEV_WIDTH
1002
{
1040
-3.0
1002
}
  0
LINE
  5
8A
100
AcDbEntity
  8
0
 62
           0
100
AcDbLine
 10
9.992004882687
 20
1.577434186568
 30
0.0
 11
10.145197696206
 21
1.730627000087
 31
0.0
1001
ACAD
1000
TCW40_DEV_WIDTH
1002
{
1040
-3.0
1002
}
  0
LINE
  5
8B
100
AcDbEntity
  8
0
 62
           0
100
AcDbLine
 10
9.986701581829
 20
1.589808555238
 30
0.0
 11
10.143286596798
 21
1.746393570208
 31
0.0
1001
ACAD
1000
TCW40_DEV_WIDTH
1002
{
1040
-3.0
1002
}
  0
LINE
  5
8C
100
AcDbEntity
  8
0
 62
           0
100
AcDbLine
 10
9.98139828097
 20
1.602182923909
 30
0.0
 11
10.141375497389
 21
1.762160140329
 31
0.0
1001
ACAD
1000
TCW40_DEV_WIDTH
1002
{
1040
-3.0
1002
}
  0
LINE
  5
8D
100
AcDbEntity
  8
0
 62
           0
100
AcDbLine
 10
9.935642889632
 20
1.574105202101
 30
0.0
 11
9.946150225417
 21
1.584612537886
 31
0.0
1001
ACAD
1000
TCW40_DEV_WIDTH
1002
{
1040
-3.0
1002
}
  0
LINE
  5
8E
100
AcDbEntity
  8
0
 62
           0
100
AcDbLine
 10
10.026035861055
 20
1.664498173524
 30
0.0
 11
10.136870342715
 21
1.775332655184
 31
0.0
1001
ACAD
1000
TCW40_DEV_WIDTH
1002
{
1040
-3.0
1002
}
  0
LINE
  5
8F
100
AcDbEntity
  8
0
 62
           0
100
AcDbLine
 10
9.976094980111
 20
1.61455729258
 30
0.0
 11
10.023058824668
 21
1.661521137137
 31
0.0
1001
ACAD
1000
TCW40_DEV_WIDTH
1002
{
1040
-3.0
1002
}
  0
LINE
  5
90
100
AcDbEntity
  8
0
 62
           0
100
AcDbLine
 10
9.917965220102
 20
1.574105202101
 30
0.0
 11
9.949096503672
 21
1.60523648567
 31
0.0
1001
ACAD
1000
TCW40_DEV_WIDTH
1002
{
1040
-3.0
1002
}
  0
LINE
  5
91
100
AcDbEntity
  8
0
 62
           0
100
AcDbLine
 10
10.038892347986
 20
1.695032329984
 30
0.0
 11
10.119192673185
 21
1.775332655184
 31
0.0
1001
ACAD
1000
TCW40_DEV_WIDTH
1002
{
1040
-3.0
1002
}
  0
LINE
  5
92
100
AcDbEntity
  8
0
 62
           0
100
AcDbLine
 10
9.970791679252
 20
1.626931661251
 30
0.0
 11
10.017820996659
 21
1.673960978658
 31
0.0
1001
ACAD
1000
TCW40_DEV_WIDTH
1002
{
1040
-3.0
1002
}
  0
LINE
  5
93
100
AcDbEntity
  8
0
 62
           0
100
AcDbLine
 10
9.900287550573
 20
1.574105202101
 30
0.0
 11
9.952042781926
 21
1.625860433455
 31
0.0
1001
ACAD
1000
TCW40_DEV_WIDTH
1002
{
1040
-3.0
1002
}
  0
LINE
  5
94
100
AcDbEntity
  8
0
 62
           0
100
AcDbLine
 10
10.051748834916
 20
1.725566486445
 30
0.0
 11
10.101515003656
 21
1.775332655184
 31
0.0
1001
ACAD
1000
TCW40_DEV_WIDTH
1002
{
1040
-3.0
1002
}
  0
LINE
  5
95
100
AcDbEntity
  8
0
 62
           0
100
AcDbLine
 10
9.965488378393
 20
1.639306029921
 30
0.0
 11
10.01258316865
 21
1.686400820179
 31
0.0
1001
ACAD
1000
TCW40_DEV_WIDTH
1002
{
1040
-3.0
1002
}
  0
LINE
  5
96
100
AcDbEntity
  8
0
 62
           0
100
AcDbLine
 10
9.883817544854
 20
1.575312865912
 30
0.0
 11
9.954989060181
 21
1.64648438124
 31
0.0
1001
ACAD
1000
TCW40_DEV_WIDTH
1002
{
1040
-3.0
1002
}
  0
LINE
  5
97
100
AcDbEntity
  8
0
 62
           0
100
AcDbLine
 10
10.064605321847
 20
1.756100642905
 30
0.0
 11
10.083837334126
 21
1.775332655184
 31
0.0
1001
ACAD
1000
TCW40_DEV_WIDTH
1002
{
1040
-3.0
1002
}
  0
LINE
  5
98
100
AcDbEntity
  8
0
 62
           0
100
AcDbLine
 10
9.960185077534
 20
1.651680398592
 30
0.0
 11
10.007345340642
 21
1.6988406617
 31
0.0
1001
ACAD
1000
TCW40_DEV_WIDTH
1002
{
1040
-3.0
1002
}
  0
LINE
  5
99
100
AcDbEntity
  8
0
 62
           0
100
AcDbLine
 10
9.858834409905
 20
1.568007400492
 30
0.0
 11
9.865377756536
 21
1.574550747124
 31
0.0
1001
ACAD
1000
TCW40_DEV_WIDTH
1002
{
1040
-3.0
1002
}
  0
LINE
  5
9A
100
AcDbEntity
  8
0
 62
           0
100
AcDbLine
 10
9.886255844099
 20
1.595428834687
 30
0.0
 11
10.002107512633
 21
1.711280503221
 31
0.0
1001
ACAD
1000
TCW40_DEV_WIDTH
1002
{
1040
-3.0
1002
}
  0
LINE
  5
9B
100
AcDbEntity
  8
0
 62
           0
100
AcDbLine
 10
9.841156740375
 20
1.568007400492
 30
0.0
 11
9.865377756536
 21
1.592228416653
 31
0.0
1001
ACAD
1000
TCW40_DEV_WIDTH
1002
{
1040
-3.0
1002
}
  0
LINE
  5
9C
100
AcDbEntity
  8
0
 62
           0
100
AcDbLine
 10
9.888694143345
 20
1.615544803462
 30
0.0
 11
9.996869684624
 21
1.723720344741
 31
0.0
1001
ACAD
1000
TCW40_DEV_WIDTH
1002
{
1040
-3.0
1002
}
  0
LINE
  5
9D
100
AcDbEntity
  8
0
 62
           0
100
AcDbLine
 10
9.823479070845
 20
1.568007400492
 30
0.0
 11
9.865377756536
 21
1.609906086183
 31
0.0
1001
ACAD
1000
TCW40_DEV_WIDTH
1002
{
1040
-3.0
1002
}
  0
LINE
  5
9E
100
AcDbEntity
  8
0
 62
           0
100
AcDbLine
 10
9.89113244259
 20
1.635660772237
 30
0.0
 11
9.991631856615
 21
1.736160186262
 31
0.0
1001
ACAD
1000
TCW40_DEV_WIDTH
1002
{
1040
-3.0
1002
}
  0
LINE
  5
9F
100
AcDbEntity
  8
0
 62
           0
100
AcDbLine
 10
9.805801401316
 20
1.568007400492
 30
0.0
 11
9.865377756536
 21
1.627583755713
 31
0.0
1001
ACAD
1000
TCW40_DEV_WIDTH
1002
{
1040
-3.0
1002
}
  0
LINE
  5
A0
100
AcDbEntity
  8
0
 62
           0
100
AcDbLine
 10
9.893570741836
 20
1.655776741012
 30
0.0
 11
9.986394028606
 21
1.748600027783
 31
0.0
1001
ACAD
1000
TCW40_DEV_WIDTH
1002
{
1040
-3.0
1002
}
  0
LINE
  5
A1
100
AcDbEntity
  8
0
 62
           0
100
AcDbLine
 10
9.798301938841
 20
1.578185607548
 30
0.0
 11
9.865377756536
 21
1.645261425242
 31
0.0
1001
ACAD
1000
TCW40_DEV_WIDTH
1002
{
1040
-3.0
1002
}
  0
LINE
  5
A2
100
AcDbEntity
  8
0
 62
           0
100
AcDbLine
 10
9.896009041081
 20
1.675892709788
 30
0.0
 11
9.981156200598
 21
1.761039869304
 31
0.0
1001
ACAD
1000
TCW40_DEV_WIDTH
1002
{
1040
-3.0
1002
}
  0
LINE
  5
A3
100
AcDbEntity
  8
0
 62
           0
100
AcDbLine
 10
9.798301938841
 20
1.595863277078
 30
0.0
 11
9.865377756536
 21
1.662939094772
 31
0.0
1001
ACAD
1000
TCW40_DEV_WIDTH
1002
{
1040
-3.0
1002
}
  0
LINE
  5
A4
100
AcDbEntity
  8
0
 62
           0
100
AcDbLine
 10
9.898447340327
 20
1.696008678563
 30
0.0
 11
9.975918372589
 21
1.773479710825
 31
0.0
1001
ACAD
1000
TCW40_DEV_WIDTH
1002
{
1040
-3.0
1002
}
  0
LINE
  5
A5
100
AcDbEntity
  8
0
 62
           0
100
AcDbLine
 10
9.758866194335
 20
1.574105202101
 30
0.0
 11
9.767812930799
 21
1.583051938564
 31
0.0
1001
ACAD
1000
TCW40_DEV_WIDTH
1002
{
1040
-3.0
1002
}
  0
LINE
  5
A6
100
AcDbEntity
  8
0
 62
           0
100
AcDbLine
 10
9.900885639572
 20
1.716124647338
 30
0.0
 11
9.960093647418
 21
1.775332655184
 31
0.0
1001
ACAD
1000
TCW40_DEV_WIDTH
1002
{
1040
-3.0
1002
}
  0
LINE
  5
A7
100
AcDbEntity
  8
0
 62
           0
100
AcDbLine
 10
9.798301938841
 20
1.613540946607
 30
0.0
 11
9.865377756536
 21
1.680616764302
 31
0.0
1001
ACAD
1000
TCW40_DEV_WIDTH
1002
{
1040
-3.0
1002
}
  0
LINE
  5
A8
100
AcDbEntity
  8
0
 62
           0
100
AcDbLine
 10
9.741188524806
 20
1.574105202101
 30
0.0
 11
9.767812930799
 21
1.600729608094
 31
0.0
1001
ACAD
1000
TCW40_DEV_WIDTH
1002
{
1040
-3.0
1002
}
  0
LINE
  5
A9
100
AcDbEntity
  8
0
 62
           0
100
AcDbLine
 10
9.903323938818
 20
1.736240616113
 30
0.0
 11
9.942415977889
 21
1.775332655184
 31
0.0
1001
ACAD
1000
TCW40_DEV_WIDTH
1002
{
1040
-3.0
1002
}
  0
LINE
  5
AA
100
AcDbEntity
  8
0
 62
           0
100
AcDbLine
 10
9.798301938841
 20
1.631218616137
 30
0.0
 11
9.865377756536
 21
1.698294433831
 31
0.0
1001
ACAD
1000
TCW40_DEV_WIDTH
1002
{
1040
-3.0
1002
}
  0
LINE
  5
AB
100
AcDbEntity
  8
0
 62
           0
100
AcDbLine
 10
9.723510855276
 20
1.574105202101
 30
0.0
 11
9.767812930799
 21
1.618407277624
 31
0.0
1001
ACAD
1000
TCW40_DEV_WIDTH
1002
{
1040
-3.0
1002
}
  0
LINE
  5
AC
100
AcDbEntity
  8
0
 62
           0
100
AcDbLine
 10
9.905762238063
 20
1.756356584888
 30
0.0
 11
9.924738308359
 21
1.775332655184
 31
0.0
1001
ACAD
1000
TCW40_DEV_WIDTH
1002
{
1040
-3.0
1002
}
  0
LINE
  5
AD
100
AcDbEntity
  8
0
 62
           0
100
AcDbLine
 10
9.798301938841
 20
1.648896285667
 30
0.0
 11
9.865377756536
 21
1.715972103361
 31
0.0
1001
ACAD
1000
TCW40_DEV_WIDTH
1002
{
1040
-3.0
1002
}
  0
LINE
  5
AE
100
AcDbEntity
  8
0
 62
           0
100
AcDbLine
 10
9.705833185746
 20
1.574105202101
 30
0.0
 11
9.767812930799
 21
1.636084947153
 31
0.0
1001
ACAD
1000
TCW40_DEV_WIDTH
1002
{
1040
-3.0
1002
}
  0
LINE
  5
AF
100
AcDbEntity
  8
0
 62
           0
100
AcDbLine
 10
9.798301938841
 20
1.666573955196
 30
0.0
 11
9.865377756536
 21
1.733649772891
 31
0.0
1001
ACAD
1000
TCW40_DEV_WIDTH
1002
{
1040
-3.0
1002
}
  0
LINE
  5
B0
100
AcDbEntity
  8
0
 62
           0
100
AcDbLine
 10
9.700737113104
 20
1.586686798989
 30
0.0
 11
9.767812930799
 21
1.653762616683
 31
0.0
1001
ACAD
1000
TCW40_DEV_WIDTH
1002
{
1040
-3.0
1002
}
  0
LINE
  5
B1
100
AcDbEntity
  8
0
 62
           0
100
AcDbLine
 10
9.798301938841
 20
1.684251624726
 30
0.0
 11
9.865377756536
 21
1.75132744242
 31
0.0
1001
ACAD
1000
TCW40_DEV_WIDTH
1002
{
1040
-3.0
1002
}
  0
LINE
  5
B2
100
AcDbEntity
  8
0
 62
           0
100
AcDbLine
 10
9.700737113104
 20
1.604364468518
 30
0.0
 11
9.767812930799
 21
1.671440286213
 31
0.0
1001
ACAD
1000
TCW40_DEV_WIDTH
1002
{
1040
-3.0
1002
}
  0
LINE
  5
B3
100
AcDbEntity
  8
0
 62
           0
100
AcDbLine
 10
9.798301938841
 20
1.701929294255
 30
0.0
 11
9.865377756536
 21
1.76900511195
 31
0.0
1001
ACAD
1000
TCW40_DEV_WIDTH
1002
{
1040
-3.0
1002
}
  0
LINE
  5
B4
100
AcDbEntity
  8
0
 62
           0
100
AcDbLine
 10
9.700737113104
 20
1.622042138048
 30
0.0
 11
9.767812930799
 21
1.689117955742
 31
0.0
1001
ACAD
1000
TCW40_DEV_WIDTH
1002
{
1040
-3.0
1002
}
  0
LINE
  5
B5
100
AcDbEntity
  8
0
 62
           0
100
AcDbLine
 10
9.798301938841
 20
1.719606963785
 30
0.0
 11
9.85402763024
 21
1.775332655184
 31
0.0
1001
ACAD
1000
TCW40_DEV_WIDTH
1002
{
1040
-3.0
1002
}
  0
LINE
  5
B6
100
AcDbEntity
  8
0
 62
           0
100
AcDbLine
 10
9.700737113104
 20
1.639719807578
 30
0.0
 11
9.767812930799
 21
1.706795625272
 31
0.0
1001
ACAD
1000
TCW40_DEV_WIDTH
1002
{
1040
-3.0
1002
}
  0
LINE
  5
B7
100
AcDbEntity
  8
0
 62
           0
100
AcDbLine
 10
9.798301938841
 20
1.737284633315
 30
0.0
 11
9.836349960711
 21
1.775332655184
 31
0.0
1001
ACAD
1000
TCW40_DEV_WIDTH
1002
{
1040
-3.0
1002
}
  0
LINE
  5
B8
100
AcDbEntity
  8
0
 62
           0
100
AcDbLine
 10
9.690618457401
 20
1.647278821404
 30
0.0
 11
9.767812930799
 21
1.724473294802
 31
0.0
1001
ACAD
1000
TCW40_DEV_WIDTH
1002
{
1040
-3.0
1002
}
  0
LINE
  5
B9
100
AcDbEntity
  8
0
 62
           0
100
AcDbLine
 10
9.798301938841
 20
1.754962302844
 30
0.0
 11
9.818672291181
 21
1.775332655184
 31
0.0
1001
ACAD
1000
TCW40_DEV_WIDTH
1002
{
1040
-3.0
1002
}
  0
LINE
  5
BA
100
AcDbEntity
  8
0
 62
           0
100
AcDbLine
 10
9.672940787871
 20
1.647278821404
 30
0.0
 11
9.767812930799
 21
1.742150964331
 31
0.0
1001
ACAD
1000
TCW40_DEV_WIDTH
1002
{
1040
-3.0
1002
}
  0
LINE
  5
BB
100
AcDbEntity
  8
0
 62
           0
100
AcDbLine
 10
9.798301938841
 20
1.772639972374
 30
0.0
 11
9.800994621651
 21
1.775332655184
 31
0.0
1001
ACAD
1000
TCW40_DEV_WIDTH
1002
{
1040
-3.0
1002
}
  0
LINE
  5
BC
100
AcDbEntity
  8
0
 62
           0
100
AcDbLine
 10
9.582089499039
 20
1.574105202101
 30
0.0
 11
9.597074485758
 21
1.589090188821
 31
0.0
1001
ACAD
1000
TCW40_DEV_WIDTH
1002
{
1040
-3.0
1002
}
  0
LINE
  5
BD
100
AcDbEntity
  8
0
 62
           0
100
AcDbLine
 10
9.655263118342
 20
1.647278821404
 30
0.0
 11
9.767812930799
 21
1.759828633861
 31
0.0
1001
ACAD
1000
TCW40_DEV_WIDTH
1002
{
1040
-3.0
1002
}
  0
LINE
  5
BE
100
AcDbEntity
  8
0
 62
           0
100
AcDbLine
 10
9.564411829509
 20
1.574105202101
 30
0.0
 11
9.597074485758
 21
1.60676785835
 31
0.0
1001
ACAD
1000
TCW40_DEV_WIDTH
1002
{
1040
-3.0
1002
}
  0
LINE
  5
BF
100
AcDbEntity
  8
0
 62
           0
100
AcDbLine
 10
9.700737113104
 20
1.710430485696
 30
0.0
 11
9.765639282592
 21
1.775332655184
 31
0.0
1001
ACAD
1000
TCW40_DEV_WIDTH
1002
{
1040
-3.0
1002
}
  0
LINE
  5
C0
100
AcDbEntity
  8
0
 62
           0
100
AcDbLine
 10
9.637585448812
 20
1.647278821404
 30
0.0
 11
9.68636786168
 21
1.696061234272
 31
0.0
1001
ACAD
1000
TCW40_DEV_WIDTH
1002
{
1040
-3.0
1002
}
  0
LINE
  5
C1
100
AcDbEntity
  8
0
 62
           0
100
AcDbLine
 10
9.546734159979
 20
1.574105202101
 30
0.0
 11
9.597074485758
 21
1.62444552788
 31
0.0
1001
ACAD
1000
TCW40_DEV_WIDTH
1002
{
1040
-3.0
1002
}
  0
LINE
  5
C2
100
AcDbEntity
  8
0
 62
           0
100
AcDbLine
 10
9.700737113104
 20
1.728108155226
 30
0.0
 11
9.747961613062
 21
1.775332655184
 31
0.0
1001
ACAD
1000
TCW40_DEV_WIDTH
1002
{
1040
-3.0
1002
}
  0
LINE
  5
C3
100
AcDbEntity
  8
0
 62
           0
100
AcDbLine
 10
9.619907779282
 20
1.647278821404
 30
0.0
 11
9.668690192151
 21
1.696061234272
 31
0.0
1001
ACAD
1000
TCW40_DEV_WIDTH
1002
{
1040
-3.0
1002
}
  0
LINE
  5
C4
100
AcDbEntity
  8
0
 62
           0
100
AcDbLine
 10
9.536096469673
 20
1.581145181324
 30
0.0
 11
9.597074485758
 21
1.64212319741
 31
0.0
1001
ACAD
1000
TCW40_DEV_WIDTH
1002
{
1040
-3.0
1002
}
  0
LINE
  5
C5
100
AcDbEntity
  8
0
 62
           0
100
AcDbLine
 10
9.700737113104
 20
1.745785824756
 30
0.0
 11
9.730283943533
 21
1.775332655184
 31
0.0
1001
ACAD
1000
TCW40_DEV_WIDTH
1002
{
1040
-3.0
1002
}
  0
LINE
  5
C6
100
AcDbEntity
  8
0
 62
           0
100
AcDbLine
 10
9.602230109753
 20
1.647278821404
 30
0.0
 11
9.651012522621
 21
1.696061234272
 31
0.0
1001
ACAD
1000
TCW40_DEV_WIDTH
1002
{
1040
-3.0
1002
}
  0
LINE
  5
C7
100
AcDbEntity
  8
0
 62
           0
100
AcDbLine
 10
9.536096469673
 20
1.598822850854
 30
0.0
 11
9.633334853091
 21
1.696061234272
 31
0.0
1001
ACAD
1000
TCW40_DEV_WIDTH
1002
{
1040
-3.0
1002
}
  0
LINE
  5
C8
100
AcDbEntity
  8
0
 62
           0
100
AcDbLine
 10
9.700737113104
 20
1.763463494285
 30
0.0
 11
9.712606274003
 21
1.775332655184
 31
0.0
1001
ACAD
1000
TCW40_DEV_WIDTH
1002
{
1040
-3.0
1002
}
  0
LINE
  5
C9
100
AcDbEntity
  8
0
 62
           0
100
AcDbLine
 10
9.536096469673
 20
1.616500520383
 30
0.0
 11
9.615657183562
 21
1.696061234272
 31
0.0
1001
ACAD
1000
TCW40_DEV_WIDTH
1002
{
1040
-3.0
1002
}
  0
LINE
  5
CA
100
AcDbEntity
  8
0
 62
           0
100
AcDbLine
 10
9.494316886686
 20
1.592398606927
 30
0.0
 11
9.499509660021
 21
1.597591380261
 31
0.0
1001
ACAD
1000
TCW40_DEV_WIDTH
1002
{
1040
-3.0
1002
}
  0
LINE
  5
CB
100
AcDbEntity
  8
0
 62
           0
100
AcDbLine
 10
9.536096469673
 20
1.634178189913
 30
0.0
 11
9.597979514032
 21
1.696061234272
 31
0.0
1001
ACAD
1000
TCW40_DEV_WIDTH
1002
{
1040
-3.0
1002
}
  0
LINE
  5
CC
100
AcDbEntity
  8
0
 62
           0
100
AcDbLine
 10
9.500414688295
 20
1.598496408535
 30
0.0
 11
9.50560746163
 21
1.60368918187
 31
0.0
1001
ACAD
1000
TCW40_DEV_WIDTH
1002
{
1040
-3.0
1002
}
  0
LINE
  5
CD
100
AcDbEntity
  8
0
 62
           0
100
AcDbLine
 10
9.506512489903
 20
1.604594210144
 30
0.0
 11
9.511705263238
 21
1.609786983479
 31
0.0
1001
ACAD
1000
TCW40_DEV_WIDTH
1002
{
1040
-3.0
1002
}
  0
LINE
  5
CE
100
AcDbEntity
  8
0
 62
           0
100
AcDbLine
 10
9.464443613939
 20
1.580203003709
 30
0.0
 11
9.517803064847
 21
1.633562454617
 31
0.0
1001
ACAD
1000
TCW40_DEV_WIDTH
1002
{
1040
-3.0
1002
}
  0
LINE
  5
CF
100
AcDbEntity
  8
0
 62
           0
100
AcDbLine
 10
9.536096469673
 20
1.651855859443
 30
0.0
 11
9.597074485758
 21
1.712833875528
 31
0.0
1001
ACAD
1000
TCW40_DEV_WIDTH
1002
{
1040
-3.0
1002
}
  0
LINE
  5
D0
100
AcDbEntity
  8
0
 62
           0
100
AcDbLine
 10
9.440668142801
 20
1.574105202101
 30
0.0
 11
9.444629445544
 21
1.578066504844
 31
0.0
1001
ACAD
1000
TCW40_DEV_WIDTH
1002
{
1040
-3.0
1002
}
  0
LINE
  5
D1
100
AcDbEntity
  8
0
 62
           0
100
AcDbLine
 10
9.536096469673
 20
1.669533528972
 30
0.0
 11
9.597074485758
 21
1.730511545058
 31
0.0
1001
ACAD
1000
TCW40_DEV_WIDTH
1002
{
1040
-3.0
1002
}
  0
LINE
  5
D2
100
AcDbEntity
  8
0
 62
           0
100
AcDbLine
 10
9.44676594441
 20
1.580203003709
 30
0.0
 11
9.513841762104
 21
1.647278821404
 31
0.0
1001
ACAD
1000
TCW40_DEV_WIDTH
1002
{
1040
-3.0
1002
}
  0
LINE
  5
D3
100
AcDbEntity
  8
0
 62
           0
100
AcDbLine
 10
9.422990473272
 20
1.574105202101
 30
0.0
 11
9.508359695792
 21
1.659474424621
 31
0.0
1001
ACAD
1000
TCW40_DEV_WIDTH
1002
{
1040
-3.0
1002
}
  0
LINE
  5
D4
100
AcDbEntity
  8
0
 62
           0
100
AcDbLine
 10
9.536096469673
 20
1.687211198502
 30
0.0
 11
9.597074485758
 21
1.748189214588
 31
0.0
1001
ACAD
1000
TCW40_DEV_WIDTH
1002
{
1040
-3.0
1002
}
  0
LINE
  5
D5
100
AcDbEntity
  8
0
 62
           0
100
AcDbLine
 10
9.405312803742
 20
1.574105202101
 30
0.0
 11
9.441899613393
 21
1.610692011752
 31
0.0
1001
ACAD
1000
TCW40_DEV_WIDTH
1002
{
1040
-3.0
1002
}
  0
LINE
  5
D6
100
AcDbEntity
  8
0
 62
           0
100
AcDbLine
 10
9.536096469673
 20
1.704888868032
 30
0.0
 11
9.597074485758
 21
1.765866884117
 31
0.0
1001
ACAD
1000
TCW40_DEV_WIDTH
1002
{
1040
-3.0
1002
}
  0
LINE
  5
D7
100
AcDbEntity
  8
0
 62
           0
100
AcDbLine
 10
9.444629445544
 20
1.613421843903
 30
0.0
 11
9.447997415002
 21
1.616789813361
 31
0.0
1001
ACAD
1000
TCW40_DEV_WIDTH
1002
{
1040
-3.0
1002
}
  0
LINE
  5
D8
100
AcDbEntity
  8
0
 62
           0
100
AcDbLine
 10
9.450727247152
 20
1.619519645511
 30
0.0
 11
9.498144743946
 21
1.666937142305
 31
0.0
1001
ACAD
1000
TCW40_DEV_WIDTH
1002
{
1040
-3.0
1002
}
  0
LINE
  5
D9
100
AcDbEntity
  8
0
 62
           0
100
AcDbLine
 10
9.387635134212
 20
1.574105202101
 30
0.0
 11
9.424221943864
 21
1.610692011752
 31
0.0
1001
ACAD
1000
TCW40_DEV_WIDTH
1002
{
1040
-3.0
1002
}
  0
LINE
  5
DA
100
AcDbEntity
  8
0
 62
           0
100
AcDbLine
 10
9.536096469673
 20
1.722566537561
 30
0.0
 11
9.588862587295
 21
1.775332655184
 31
0.0
1001
ACAD
1000
TCW40_DEV_WIDTH
1002
{
1040
-3.0
1002
}
  0
LINE
  5
DB
100
AcDbEntity
  8
0
 62
           0
100
AcDbLine
 10
9.444629445544
 20
1.631099513433
 30
0.0
 11
9.486257008377
 21
1.672727076265
 31
0.0
1001
ACAD
1000
TCW40_DEV_WIDTH
1002
{
1040
-3.0
1002
}
  0
LINE
  5
DC
100
AcDbEntity
  8
0
 62
           0
100
AcDbLine
 10
9.369957464683
 20
1.574105202101
 30
0.0
 11
9.406544274334
 21
1.610692011752
 31
0.0
1001
ACAD
1000
TCW40_DEV_WIDTH
1002
{
1040
-3.0
1002
}
  0
LINE
  5
DD
100
AcDbEntity
  8
0
 62
           0
100
AcDbLine
 10
9.536096469673
 20
1.740244207091
 30
0.0
 11
9.571184917766
 21
1.775332655184
 31
0.0
1001
ACAD
1000
TCW40_DEV_WIDTH
1002
{
1040
-3.0
1002
}
  0
LINE
  5
DE
100
AcDbEntity
  8
0
 62
           0
100
AcDbLine
 10
9.431684661548
 20
1.635832398966
 30
0.0
 11
9.473620092028
 21
1.677767829447
 31
0.0
1001
ACAD
1000
TCW40_DEV_WIDTH
1002
{
1040
-3.0
1002
}
  0
LINE
  5
DF
100
AcDbEntity
  8
0
 62
           0
100
AcDbLine
 10
9.352279795153
 20
1.574105202101
 30
0.0
 11
9.388866604804
 21
1.610692011752
 31
0.0
1001
ACAD
1000
TCW40_DEV_WIDTH
1002
{
1040
-3.0
1002
}
  0
LINE
  5
E0
100
AcDbEntity
  8
0
 62
           0
100
AcDbLine
 10
9.536096469673
 20
1.757921876621
 30
0.0
 11
9.553507248236
 21
1.775332655184
 31
0.0
1001
ACAD
1000
TCW40_DEV_WIDTH
1002
{
1040
-3.0
1002
}
  0
LINE
  5
E1
100
AcDbEntity
  8
0
 62
           0
100
AcDbLine
 10
9.419355612847
 20
1.641181019795
 30
0.0
 11
9.462040224107
 21
1.683865631055
 31
0.0
1001
ACAD
1000
TCW40_DEV_WIDTH
1002
{
1040
-3.0
1002
}
  0
LINE
  5
E2
100
AcDbEntity
  8
0
 62
           0
100
AcDbLine
 10
9.483823842869
 20
1.705649249816
 30
0.0
 11
9.497771268239
 21
1.719596675187
 31
0.0
1001
ACAD
1000
TCW40_DEV_WIDTH
1002
{
1040
-3.0
1002
}
  0
LINE
  5
E3
100
AcDbEntity
  8
0
 62
           0
100
AcDbLine
 10
9.337784471911
 20
1.577287548388
 30
0.0
 11
9.371188935275
 21
1.610692011752
 31
0.0
1001
ACAD
1000
TCW40_DEV_WIDTH
1002
{
1040
-3.0
1002
}
  0
LINE
  5
E4
100
AcDbEntity
  8
0
 62
           0
100
AcDbLine
 10
9.469020651978
 20
1.708523728456
 30
0.0
 11
9.503663824749
 21
1.743166901227
 31
0.0
1001
ACAD
1000
TCW40_DEV_WIDTH
1002
{
1040
-3.0
1002
}
  0
LINE
  5
E5
100
AcDbEntity
  8
0
 62
           0
100
AcDbLine
 10
9.407775744926
 20
1.647278821404
 30
0.0
 11
9.447544900865
 21
1.687047977343
 31
0.0
1001
ACAD
1000
TCW40_DEV_WIDTH
1002
{
1040
-3.0
1002
}
  0
LINE
  5
E6
100
AcDbEntity
  8
0
 62
           0
100
AcDbLine
 10
9.323022257702
 20
1.580203003709
 30
0.0
 11
9.359609067354
 21
1.616789813361
 31
0.0
1001
ACAD
1000
TCW40_DEV_WIDTH
1002
{
1040
-3.0
1002
}
  0
LINE
  5
E7
100
AcDbEntity
  8
0
 62
           0
100
AcDbLine
 10
9.457173893091
 20
1.714354639098
 30
0.0
 11
9.499509660021
 21
1.756690406028
 31
0.0
1001
ACAD
1000
TCW40_DEV_WIDTH
1002
{
1040
-3.0
1002
}
  0
LINE
  5
E8
100
AcDbEntity
  8
0
 62
           0
100
AcDbLine
 10
9.390098075397
 20
1.647278821404
 30
0.0
 11
9.432782686657
 21
1.689963432664
 31
0.0
1001
ACAD
1000
TCW40_DEV_WIDTH
1002
{
1040
-3.0
1002
}
  0
LINE
  5
E9
100
AcDbEntity
  8
0
 62
           0
100
AcDbLine
 10
9.305344588173
 20
1.580203003709
 30
0.0
 11
9.341931397824
 21
1.616789813361
 31
0.0
1001
ACAD
1000
TCW40_DEV_WIDTH
1002
{
1040
-3.0
1002
}
  0
LINE
  5
EA
100
AcDbEntity
  8
0
 62
           0
100
AcDbLine
 10
9.44559402517
 20
1.720452440707
 30
0.0
 11
9.482180834821
 21
1.757039250358
 31
0.0
1001
ACAD
1000
TCW40_DEV_WIDTH
1002
{
1040
-3.0
1002
}
  0
LINE
  5
EB
100
AcDbEntity
  8
0
 62
           0
100
AcDbLine
 10
9.372420405867
 20
1.647278821404
 30
0.0
 11
9.42023823911
 21
1.695096654647
 31
0.0
1001
ACAD
1000
TCW40_DEV_WIDTH
1002
{
1040
-3.0
1002
}
  0
LINE
  5
EC
100
AcDbEntity
  8
0
 62
           0
100
AcDbLine
 10
9.293764720251
 20
1.586300805318
 30
0.0
 11
9.330351529903
 21
1.62288761497
 31
0.0
1001
ACAD
1000
TCW40_DEV_WIDTH
1002
{
1040
-3.0
1002
}
  0
LINE
  5
ED
100
AcDbEntity
  8
0
 62
           0
100
AcDbLine
 10
9.430175098983
 20
1.72271118405
 30
0.0
 11
9.4706009669
 21
1.763137051967
 31
0.0
1001
ACAD
1000
TCW40_DEV_WIDTH
1002
{
1040
-3.0
1002
}
  0
LINE
  5
EE
100
AcDbEntity
  8
0
 62
           0
100
AcDbLine
 10
9.354742736337
 20
1.647278821404
 30
0.0
 11
9.403525149206
 21
1.696061234272
 31
0.0
1001
ACAD
1000
TCW40_DEV_WIDTH
1002
{
1040
-3.0
1002
}
  0
LINE
  5
EF
100
AcDbEntity
  8
0
 62
           0
100
AcDbLine
 10
9.279988802112
 20
1.590202556709
 30
0.0
 11
9.312673860373
 21
1.62288761497
 31
0.0
1001
ACAD
1000
TCW40_DEV_WIDTH
1002
{
1040
-3.0
1002
}
  0
LINE
  5
F0
100
AcDbEntity
  8
0
 62
           0
100
AcDbLine
 10
9.416336487719
 20
1.726550242315
 30
0.0
 11
9.45792307387
 21
1.768136828466
 31
0.0
1001
ACAD
1000
TCW40_DEV_WIDTH
1002
{
1040
-3.0
1002
}
  0
LINE
  5
F1
100
AcDbEntity
  8
0
 62
           0
100
AcDbLine
 10
9.343162868416
 20
1.653376623012
 30
0.0
 11
9.391945281285
 21
1.702159035881
 31
0.0
1001
ACAD
1000
TCW40_DEV_WIDTH
1002
{
1040
-3.0
1002
}
  0
LINE
  5
F2
100
AcDbEntity
  8
0
 62
           0
100
AcDbLine
 10
9.267793198895
 20
1.595684623021
 30
0.0
 11
9.301093992452
 21
1.628985416578
 31
0.0
1001
ACAD
1000
TCW40_DEV_WIDTH
1002
{
1040
-3.0
1002
}
  0
LINE
  5
F3
100
AcDbEntity
  8
0
 62
           0
100
AcDbLine
 10
9.400301826237
 20
1.728193250363
 30
0.0
 11
9.441343429449
 21
1.769234853575
 31
0.0
1001
ACAD
1000
TCW40_DEV_WIDTH
1002
{
1040
-3.0
1002
}
  0
LINE
  5
F4
100
AcDbEntity
  8
0
 62
           0
100
AcDbLine
 10
9.325485198886
 20
1.653376623012
 30
0.0
 11
9.374267611755
 21
1.702159035881
 31
0.0
1001
ACAD
1000
TCW40_DEV_WIDTH
1002
{
1040
-3.0
1002
}
  0
LINE
  5
F5
100
AcDbEntity
  8
0
 62
           0
100
AcDbLine
 10
9.265202630249
 20
1.610771723905
 30
0.0
 11
9.289514124531
 21
1.635083218187
 31
0.0
1001
ACAD
1000
TCW40_DEV_WIDTH
1002
{
1040
-3.0
1002
}
  0
LINE
  5
F6
100
AcDbEntity
  8
0
 62
           0
100
AcDbLine
 10
9.387078950268
 20
1.732648043924
 30
0.0
 11
9.425000900319
 21
1.770569993975
 31
0.0
1001
ACAD
1000
TCW40_DEV_WIDTH
1002
{
1040
-3.0
1002
}
  0
LINE
  5
F7
100
AcDbEntity
  8
0
 62
           0
100
AcDbLine
 10
9.313905330965
 20
1.659474424621
 30
0.0
 11
9.356589942225
 21
1.702159035881
 31
0.0
1001
ACAD
1000
TCW40_DEV_WIDTH
1002
{
1040
-3.0
1002
}
  0
LINE
  5
F8
100
AcDbEntity
  8
0
 62
           0
100
AcDbLine
 10
9.272273698061
 20
1.635520461246
 30
0.0
 11
9.27793425661
 21
1.641181019795
 31
0.0
1001
ACAD
1000
TCW40_DEV_WIDTH
1002
{
1040
-3.0
1002
}
  0
LINE
  5
F9
100
AcDbEntity
  8
0
 62
           0
100
AcDbLine
 10
9.369401280739
 20
1.732648043924
 30
0.0
 11
9.412085891999
 21
1.775332655184
 31
0.0
1001
ACAD
1000
TCW40_DEV_WIDTH
1002
{
1040
-3.0
1002
}
  0
LINE
  5
FA
100
AcDbEntity
  8
0
 62
           0
100
AcDbLine
 10
9.297254934187
 20
1.660501697372
 30
0.0
 11
9.338912272696
 21
1.702159035881
 31
0.0
1001
ACAD
1000
TCW40_DEV_WIDTH
1002
{
1040
-3.0
1002
}
  0
LINE
  5
FB
100
AcDbEntity
  8
0
 62
           0
100
AcDbLine
 10
9.284647793515
 20
1.66557222623
 30
0.0
 11
9.327332404775
 21
1.70825683749
 31
0.0
1001
ACAD
1000
TCW40_DEV_WIDTH
1002
{
1040
-3.0
1002
}
  0
LINE
  5
FC
100
AcDbEntity
  8
0
 62
           0
100
AcDbLine
 10
9.355491917116
 20
1.736416349831
 30
0.0
 11
9.394408222469
 21
1.775332655184
 31
0.0
1001
ACAD
1000
TCW40_DEV_WIDTH
1002
{
1040
-3.0
1002
}
  0
LINE
  5
FD
100
AcDbEntity
  8
0
 62
           0
100
AcDbLine
 10
9.273479463049
 20
1.672081565293
 30
0.0
 11
9.315752536854
 21
1.714354639098
 31
0.0
1001
ACAD
1000
TCW40_DEV_WIDTH
1002
{
1040
-3.0
1002
}
  0
LINE
  5
FE
100
AcDbEntity
  8
0
 62
           0
100
AcDbLine
 10
9.340143743288
 20
1.738745845533
 30
0.0
 11
9.376730552939
 21
1.775332655184
 31
0.0
1001
ACAD
1000
TCW40_DEV_WIDTH
1002
{
1040
-3.0
1002
}
  0
LINE
  5
FF
100
AcDbEntity
  8
0
 62
           0
100
AcDbLine
 10
9.264640628284
 20
1.680920400058
 30
0.0
 11
9.35905288341
 21
1.775332655184
 31
0.0
1001
ACAD
1000
TCW40_DEV_WIDTH
1002
{
1040
-3.0
1002
}
  0
LINE
  5
100
100
AcDbEntity
  8
0
 62
           0
100
AcDbLine
 10
9.255801793519
 20
1.689759234823
 30
0.0
 11
9.34137521388
 21
1.775332655184
 31
0.0
1001
ACAD
1000
TCW40_DEV_WIDTH
1002
{
1040
-3.0
1002
}
  0
LINE
  5
101
100
AcDbEntity
  8
0
 62
           0
100
AcDbLine
 10
9.250011859558
 20
1.701646970392
 30
0.0
 11
9.32369754435
 21
1.775332655184
 31
0.0
1001
ACAD
1000
TCW40_DEV_WIDTH
1002
{
1040
-3.0
1002
}
  0
LINE
  5
102
100
AcDbEntity
  8
0
 62
           0
100
AcDbLine
 10
9.249499794069
 20
1.718812574433
 30
0.0
 11
9.299922073212
 21
1.769234853575
 31
0.0
1001
ACAD
1000
TCW40_DEV_WIDTH
1002
{
1040
-3.0
1002
}
  0
LINE
  5
103
100
AcDbEntity
  8
0
 62
           0
100
AcDbLine
 10
9.261695397286
 20
1.748685847179
 30
0.0
 11
9.263950998857
 21
1.75094144875
 31
0.0
1001
ACAD
1000
TCW40_DEV_WIDTH
1002
{
1040
-3.0
1002
}
  0
LINE
  5
104
100
AcDbEntity
  8
0
 62
           0
100
AcDbLine
 10
10.796536522365
 20
1.745569723177
 30
0.0
 11
10.807272112181
 21
1.756305312993
 31
0.0
1001
ACAD
1000
TCW40_DEV_WIDTH
1002
{
1040
-3.0
1002
}
  0
LINE
  5
105
100
AcDbEntity
  8
0
 62
           0
100
AcDbLine
 10
10.807903617464
 20
1.756936818276
 30
0.0
 11
10.820201652763
 21
1.769234853575
 31
0.0
1001
ACAD
1000
TCW40_DEV_WIDTH
1002
{
1040
-3.0
1002
}
  0
LINE
  5
106
100
AcDbEntity
  8
0
 62
           0
100
AcDbLine
 10
10.796536522365
 20
1.727892053648
 30
0.0
 11
10.818075132449
 21
1.749430663732
 31
0.0
1001
ACAD
1000
TCW40_DEV_WIDTH
1002
{
1040
-3.0
1002
}
  0
LINE
  5
107
100
AcDbEntity
  8
0
 62
           0
100
AcDbLine
 10
10.819342109513
 20
1.750697640795
 30
0.0
 11
10.837879322293
 21
1.769234853575
 31
0.0
1001
ACAD
1000
TCW40_DEV_WIDTH
1002
{
1040
-3.0
1002
}
  0
LINE
  5
108
100
AcDbEntity
  8
0
 62
           0
100
AcDbLine
 10
10.796536522365
 20
1.710214384118
 30
0.0
 11
10.828878152717
 21
1.74255601447
 31
0.0
1001
ACAD
1000
TCW40_DEV_WIDTH
1002
{
1040
-3.0
1002
}
  0
LINE
  5
109
100
AcDbEntity
  8
0
 62
           0
100
AcDbLine
 10
10.830780601561
 20
1.744458463314
 30
0.0
 11
10.861654793431
 21
1.775332655184
 31
0.0
1001
ACAD
1000
TCW40_DEV_WIDTH
1002
{
1040
-3.0
1002
}
  0
LINE
  5
10A
100
AcDbEntity
  8
0
 62
           0
100
AcDbLine
 10
10.796536522365
 20
1.692536714588
 30
0.0
 11
10.839681172985
 21
1.735681365209
 31
0.0
1001
ACAD
1000
TCW40_DEV_WIDTH
1002
{
1040
-3.0
1002
}
  0
LINE
  5
10B
100
AcDbEntity
  8
0
 62
           0
100
AcDbLine
 10
10.84221909361
 20
1.738219285833
 30
0.0
 11
10.879332462961
 21
1.775332655184
 31
0.0
1001
ACAD
1000
TCW40_DEV_WIDTH
1002
{
1040
-3.0
1002
}
  0
LINE
  5
10C
100
AcDbEntity
  8
0
 62
           0
100
AcDbLine
 10
10.796536522365
 20
1.674859045059
 30
0.0
 11
10.850484193253
 21
1.728806715947
 31
0.0
1001
ACAD
1000
TCW40_DEV_WIDTH
1002
{
1040
-3.0
1002
}
  0
LINE
  5
10D
100
AcDbEntity
  8
0
 62
           0
100
AcDbLine
 10
10.853657585659
 20
1.731980108352
 30
0.0
 11
10.89701013249
 21
1.775332655184
 31
0.0
1001
ACAD
1000
TCW40_DEV_WIDTH
1002
{
1040
-3.0
1002
}
  0
LINE
  5
10E
100
AcDbEntity
  8
0
 62
           0
100
AcDbLine
 10
10.796536522365
 20
1.657181375529
 30
0.0
 11
10.861287213522
 21
1.721932066685
 31
0.0
1001
ACAD
1000
TCW40_DEV_WIDTH
1002
{
1040
-3.0
1002
}
  0
LINE
  5
10F
100
AcDbEntity
  8
0
 62
           0
100
AcDbLine
 10
10.865905389152
 20
1.726550242315
 30
0.0
 11
10.91468780202
 21
1.775332655184
 31
0.0
1001
ACAD
1000
TCW40_DEV_WIDTH
1002
{
1040
-3.0
1002
}
  0
LINE
  5
110
100
AcDbEntity
  8
0
 62
           0
100
AcDbLine
 10
10.796536522365
 20
1.639503705999
 30
0.0
 11
10.863612340059
 21
1.706579523694
 31
0.0
1001
ACAD
1000
TCW40_DEV_WIDTH
1002
{
1040
-3.0
1002
}
  0
LINE
  5
111
100
AcDbEntity
  8
0
 62
           0
100
AcDbLine
 10
10.88968086029
 20
1.732648043924
 30
0.0
 11
10.926267669941
 21
1.769234853575
 31
0.0
1001
ACAD
1000
TCW40_DEV_WIDTH
1002
{
1040
-3.0
1002
}
  0
LINE
  5
112
100
AcDbEntity
  8
0
 62
           0
100
AcDbLine
 10
10.796536522365
 20
1.62182603647
 30
0.0
 11
10.863612340059
 21
1.688901854164
 31
0.0
1001
ACAD
1000
TCW40_DEV_WIDTH
1002
{
1040
-3.0
1002
}
  0
LINE
  5
113
100
AcDbEntity
  8
0
 62
           0
100
AcDbLine
 10
10.907358529819
 20
1.732648043924
 30
0.0
 11
10.943945339471
 21
1.769234853575
 31
0.0
1001
ACAD
1000
TCW40_DEV_WIDTH
1002
{
1040
-3.0
1002
}
  0
LINE
  5
114
100
AcDbEntity
  8
0
 62
           0
100
AcDbLine
 10
10.796536522365
 20
1.60414836694
 30
0.0
 11
10.863612340059
 21
1.671224184634
 31
0.0
1001
ACAD
1000
TCW40_DEV_WIDTH
1002
{
1040
-3.0
1002
}
  0
LINE
  5
115
100
AcDbEntity
  8
0
 62
           0
100
AcDbLine
 10
10.925036199349
 20
1.732648043924
 30
0.0
 11
10.955525207392
 21
1.763137051967
 31
0.0
1001
ACAD
1000
TCW40_DEV_WIDTH
1002
{
1040
-3.0
1002
}
  0
LINE
  5
116
100
AcDbEntity
  8
0
 62
           0
100
AcDbLine
 10
10.796536522365
 20
1.58647069741
 30
0.0
 11
10.863612340059
 21
1.653546515105
 31
0.0
1001
ACAD
1000
TCW40_DEV_WIDTH
1002
{
1040
-3.0
1002
}
  0
LINE
  5
117
100
AcDbEntity
  8
0
 62
           0
100
AcDbLine
 10
10.936701013316
 20
1.726635188361
 30
0.0
 11
10.970238922163
 21
1.760173097209
 31
0.0
1001
ACAD
1000
TCW40_DEV_WIDTH
1002
{
1040
-3.0
1002
}
  0
LINE
  5
118
100
AcDbEntity
  8
0
 62
           0
100
AcDbLine
 10
10.807946498194
 20
1.580203003709
 30
0.0
 11
10.863612340059
 21
1.635868845575
 31
0.0
1001
ACAD
1000
TCW40_DEV_WIDTH
1002
{
1040
-3.0
1002
}
  0
LINE
  5
119
100
AcDbEntity
  8
0
 62
           0
100
AcDbLine
 10
10.95163764969
 20
1.723894155205
 30
0.0
 11
10.984782744843
 21
1.757039250358
 31
0.0
1001
ACAD
1000
TCW40_DEV_WIDTH
1002
{
1040
-3.0
1002
}
  0
LINE
  5
11A
100
AcDbEntity
  8
0
 62
           0
100
AcDbLine
 10
10.819526366115
 20
1.574105202101
 30
0.0
 11
10.862210977375
 21
1.616789813361
 31
0.0
1001
ACAD
1000
TCW40_DEV_WIDTH
1002
{
1040
-3.0
1002
}
  0
LINE
  5
11B
100
AcDbEntity
  8
0
 62
           0
100
AcDbLine
 10
10.963525385259
 20
1.718104221245
 30
0.0
 11
10.996362612764
 21
1.75094144875
 31
0.0
1001
ACAD
1000
TCW40_DEV_WIDTH
1002
{
1040
-3.0
1002
}
  0
LINE
  5
11C
100
AcDbEntity
  8
0
 62
           0
100
AcDbLine
 10
10.837204035645
 20
1.574105202101
 30
0.0
 11
10.874799394286
 21
1.611700560743
 31
0.0
1001
ACAD
1000
TCW40_DEV_WIDTH
1002
{
1040
-3.0
1002
}
  0
LINE
  5
11D
100
AcDbEntity
  8
0
 62
           0
100
AcDbLine
 10
10.972364220024
 20
1.70926538648
 30
0.0
 11
11.005902128871
 21
1.742803295327
 31
0.0
1001
ACAD
1000
TCW40_DEV_WIDTH
1002
{
1040
-3.0
1002
}
  0
LINE
  5
11E
100
AcDbEntity
  8
0
 62
           0
100
AcDbLine
 10
10.848783903566
 20
1.568007400492
 30
0.0
 11
10.891468514826
 21
1.610692011752
 31
0.0
1001
ACAD
1000
TCW40_DEV_WIDTH
1002
{
1040
-3.0
1002
}
  0
LINE
  5
11F
100
AcDbEntity
  8
0
 62
           0
100
AcDbLine
 10
10.984251955593
 20
1.703475452519
 30
0.0
 11
11.01778986444
 21
1.737013361367
 31
0.0
1001
ACAD
1000
TCW40_DEV_WIDTH
1002
{
1040
-3.0
1002
}
  0
LINE
  5
120
100
AcDbEntity
  8
0
 62
           0
100
AcDbLine
 10
10.866461573095
 20
1.568007400492
 30
0.0
 11
10.909146184355
 21
1.610692011752
 31
0.0
1001
ACAD
1000
TCW40_DEV_WIDTH
1002
{
1040
-3.0
1002
}
  0
LINE
  5
121
100
AcDbEntity
  8
0
 62
           0
100
AcDbLine
 10
10.990041889553
 20
1.69158771695
 30
0.0
 11
11.026628699205
 21
1.728174526602
 31
0.0
1001
ACAD
1000
TCW40_DEV_WIDTH
1002
{
1040
-3.0
1002
}
  0
LINE
  5
122
100
AcDbEntity
  8
0
 62
           0
100
AcDbLine
 10
10.884139242625
 20
1.568007400492
 30
0.0
 11
10.926823853885
 21
1.610692011752
 31
0.0
1001
ACAD
1000
TCW40_DEV_WIDTH
1002
{
1040
-3.0
1002
}
  0
LINE
  5
123
100
AcDbEntity
  8
0
 62
           0
100
AcDbLine
 10
11.07703539636
 20
1.760903554227
 30
0.0
 11
11.0792688941
 21
1.763137051967
 31
0.0
1001
ACAD
1000
TCW40_DEV_WIDTH
1002
{
1040
-3.0
1002
}
  0
LINE
  5
124
100
AcDbEntity
  8
0
 62
           0
100
AcDbLine
 10
10.997763975448
 20
1.681632133315
 30
0.0
 11
11.03546753397
 21
1.719335691837
 31
0.0
1001
ACAD
1000
TCW40_DEV_WIDTH
1002
{
1040
-3.0
1002
}
  0
LINE
  5
125
100
AcDbEntity
  8
0
 62
           0
100
AcDbLine
 10
10.901816912155
 20
1.568007400492
 30
0.0
 11
10.956697126632
 21
1.62288761497
 31
0.0
1001
ACAD
1000
TCW40_DEV_WIDTH
1002
{
1040
-3.0
1002
}
  0
LINE
  5
126
100
AcDbEntity
  8
0
 62
           0
100
AcDbLine
 10
11.07703539636
 20
1.743225884697
 30
0.0
 11
11.103044365238
 21
1.769234853575
 31
0.0
1001
ACAD
1000
TCW40_DEV_WIDTH
1002
{
1040
-3.0
1002
}
  0
LINE
  5
127
100
AcDbEntity
  8
0
 62
           0
100
AcDbLine
 10
10.997763975448
 20
1.663954463786
 30
0.0
 11
11.044306368734
 21
1.710496857072
 31
0.0
1001
ACAD
1000
TCW40_DEV_WIDTH
1002
{
1040
-3.0
1002
}
  0
LINE
  5
128
100
AcDbEntity
  8
0
 62
           0
100
AcDbLine
 10
10.925592383293
 20
1.574105202101
 30
0.0
 11
11.050096302695
 21
1.698609121503
 31
0.0
1001
ACAD
1000
TCW40_DEV_WIDTH
1002
{
1040
-3.0
1002
}
  0
LINE
  5
129
100
AcDbEntity
  8
0
 62
           0
100
AcDbLine
 10
11.07703539636
 20
1.725548215168
 30
0.0
 11
11.120722034768
 21
1.769234853575
 31
0.0
1001
ACAD
1000
TCW40_DEV_WIDTH
1002
{
1040
-3.0
1002
}
  0
LINE
  5
12A
100
AcDbEntity
  8
0
 62
           0
100
AcDbLine
 10
10.943270052823
 20
1.574105202101
 30
0.0
 11
11.055886236656
 21
1.686721385934
 31
0.0
1001
ACAD
1000
TCW40_DEV_WIDTH
1002
{
1040
-3.0
1002
}
  0
LINE
  5
12B
100
AcDbEntity
  8
0
 62
           0
100
AcDbLine
 10
11.07703539636
 20
1.707870545638
 30
0.0
 11
11.144497505906
 21
1.775332655184
 31
0.0
1001
ACAD
1000
TCW40_DEV_WIDTH
1002
{
1040
-3.0
1002
}
  0
LINE
  5
12C
100
AcDbEntity
  8
0
 62
           0
100
AcDbLine
 10
10.967045523961
 20
1.580203003709
 30
0.0
 11
11.058741991534
 21
1.671899471283
 31
0.0
1001
ACAD
1000
TCW40_DEV_WIDTH
1002
{
1040
-3.0
1002
}
  0
LINE
  5
12D
100
AcDbEntity
  8
0
 62
           0
100
AcDbLine
 10
11.07703539636
 20
1.690192876108
 30
0.0
 11
11.162175175435
 21
1.775332655184
 31
0.0
1001
ACAD
1000
TCW40_DEV_WIDTH
1002
{
1040
-3.0
1002
}
  0
LINE
  5
12E
100
AcDbEntity
  8
0
 62
           0
100
AcDbLine
 10
10.996918796708
 20
1.592398606927
 30
0.0
 11
11.052644189925
 21
1.648124000144
 31
0.0
1001
ACAD
1000
TCW40_DEV_WIDTH
1002
{
1040
-3.0
1002
}
  0
LINE
  5
12F
100
AcDbEntity
  8
0
 62
           0
100
AcDbLine
 10
11.07703539636
 20
1.672515206579
 30
0.0
 11
11.179852844965
 21
1.775332655184
 31
0.0
1001
ACAD
1000
TCW40_DEV_WIDTH
1002
{
1040
-3.0
1002
}
  0
LINE
  5
130
100
AcDbEntity
  8
0
 62
           0
100
AcDbLine
 10
11.07703539636
 20
1.654837537049
 30
0.0
 11
11.142650300018
 21
1.720452440707
 31
0.0
1001
ACAD
1000
TCW40_DEV_WIDTH
1002
{
1040
-3.0
1002
}
  0
LINE
  5
131
100
AcDbEntity
  8
0
 62
           0
100
AcDbLine
 10
11.144968743804
 20
1.722770884493
 30
0.0
 11
11.197530514495
 21
1.775332655184
 31
0.0
1001
ACAD
1000
TCW40_DEV_WIDTH
1002
{
1040
-3.0
1002
}
  0
LINE
  5
132
100
AcDbEntity
  8
0
 62
           0
100
AcDbLine
 10
11.07703539636
 20
1.637159867519
 30
0.0
 11
11.144111214054
 21
1.704235685214
 31
0.0
1001
ACAD
1000
TCW40_DEV_WIDTH
1002
{
1040
-3.0
1002
}
  0
LINE
  5
133
100
AcDbEntity
  8
0
 62
           0
100
AcDbLine
 10
11.166425771156
 20
1.726550242315
 30
0.0
 11
11.215208184024
 21
1.775332655184
 31
0.0
1001
ACAD
1000
TCW40_DEV_WIDTH
1002
{
1040
-3.0
1002
}
  0
LINE
  5
134
100
AcDbEntity
  8
0
 62
           0
100
AcDbLine
 10
11.07703539636
 20
1.61948219799
 30
0.0
 11
11.144111214054
 21
1.686558015684
 31
0.0
1001
ACAD
1000
TCW40_DEV_WIDTH
1002
{
1040
-3.0
1002
}
  0
LINE
  5
135
100
AcDbEntity
  8
0
 62
           0
100
AcDbLine
 10
11.184103440685
 20
1.726550242315
 30
0.0
 11
11.22813424426
 21
1.77058104589
 31
0.0
1001
ACAD
1000
TCW40_DEV_WIDTH
1002
{
1040
-3.0
1002
}
  0
LINE
  5
136
100
AcDbEntity
  8
0
 62
           0
100
AcDbLine
 10
11.07703539636
 20
1.60180452846
 30
0.0
 11
11.139886573058
 21
1.664655705158
 31
0.0
1001
ACAD
1000
TCW40_DEV_WIDTH
1002
{
1040
-3.0
1002
}
  0
LINE
  5
137
100
AcDbEntity
  8
0
 62
           0
100
AcDbLine
 10
11.201781110215
 20
1.726550242315
 30
0.0
 11
11.244465721475
 21
1.769234853575
 31
0.0
1001
ACAD
1000
TCW40_DEV_WIDTH
1002
{
1040
-3.0
1002
}
  0
LINE
  5
138
100
AcDbEntity
  8
0
 62
           0
100
AcDbLine
 10
11.141970459068
 20
1.666739591168
 30
0.0
 11
11.151603856505
 21
1.676372988605
 31
0.0
1001
ACAD
1000
TCW40_DEV_WIDTH
1002
{
1040
-3.0
1002
}
  0
LINE
  5
139
100
AcDbEntity
  8
0
 62
           0
100
AcDbLine
 10
11.07703539636
 20
1.58412685893
 30
0.0
 11
11.139445077707
 21
1.646536540277
 31
0.0
1001
ACAD
1000
TCW40_DEV_WIDTH
1002
{
1040
-3.0
1002
}
  0
LINE
  5
13A
100
AcDbEntity
  8
0
 62
           0
100
AcDbLine
 10
11.219458779745
 20
1.726550242315
 30
0.0
 11
11.258007517007
 21
1.765098979577
 31
0.0
1001
ACAD
1000
TCW40_DEV_WIDTH
1002
{
1040
-3.0
1002
}
  0
LINE
  5
13B
100
AcDbEntity
  8
0
 62
           0
100
AcDbLine
 10
11.142096281749
 20
1.64918774432
 30
0.0
 11
11.164578565268
 21
1.671670027838
 31
0.0
1001
ACAD
1000
TCW40_DEV_WIDTH
1002
{
1040
-3.0
1002
}
  0
LINE
  5
13C
100
AcDbEntity
  8
0
 62
           0
100
AcDbLine
 10
11.08469140906
 20
1.574105202101
 30
0.0
 11
11.141841418796
 21
1.631255211837
 31
0.0
1001
ACAD
1000
TCW40_DEV_WIDTH
1002
{
1040
-3.0
1002
}
  0
LINE
  5
13D
100
AcDbEntity
  8
0
 62
           0
100
AcDbLine
 10
11.233308442924
 20
1.722722235965
 30
0.0
 11
11.27294415338
 21
1.762357946421
 31
0.0
1001
ACAD
1000
TCW40_DEV_WIDTH
1002
{
1040
-3.0
1002
}
  0
LINE
  5
13E
100
AcDbEntity
  8
0
 62
           0
100
AcDbLine
 10
11.144111214054
 20
1.633525007095
 30
0.0
 11
11.182256234797
 21
1.671670027838
 31
0.0
1001
ACAD
1000
TCW40_DEV_WIDTH
1002
{
1040
-3.0
1002
}
  0
LINE
  5
13F
100
AcDbEntity
  8
0
 62
           0
100
AcDbLine
 10
11.10236907859
 20
1.574105202101
 30
0.0
 11
11.144111214054
 21
1.615847337565
 31
0.0
1001
ACAD
1000
TCW40_DEV_WIDTH
1002
{
1040
-3.0
1002
}
  0
LINE
  5
140
100
AcDbEntity
  8
0
 62
           0
100
AcDbLine
 10
11.248245079298
 20
1.719981202809
 30
0.0
 11
11.284831888949
 21
1.75656801246
 31
0.0
1001
ACAD
1000
TCW40_DEV_WIDTH
1002
{
1040
-3.0
1002
}
  0
LINE
  5
141
100
AcDbEntity
  8
0
 62
           0
100
AcDbLine
 10
11.157249293067
 20
1.628985416578
 30
0.0
 11
11.169912092601
 21
1.641648216113
 31
0.0
1001
ACAD
1000
TCW40_DEV_WIDTH
1002
{
1040
-3.0
1002
}
  0
LINE
  5
142
100
AcDbEntity
  8
0
 62
           0
100
AcDbLine
 10
11.175542697893
 20
1.647278821404
 30
0.0
 11
11.199933904327
 21
1.671670027838
 31
0.0
1001
ACAD
1000
TCW40_DEV_WIDTH
1002
{
1040
-3.0
1002
}
  0
LINE
  5
143
100
AcDbEntity
  8
0
 62
           0
100
AcDbLine
 10
11.169912092601
 20
1.641648216113
 30
0.0
 11
11.175542697893
 21
1.647278821404
 31
0.0
1001
ACAD
1000
TCW40_DEV_WIDTH
1002
{
1040
-3.0
1002
}
  0
LINE
  5
144
100
AcDbEntity
  8
0
 62
           0
100
AcDbLine
 10
11.120046748119
 20
1.574105202101
 30
0.0
 11
11.144111214054
 21
1.598169668036
 31
0.0
1001
ACAD
1000
TCW40_DEV_WIDTH
1002
{
1040
-3.0
1002
}
  0
LINE
  5
145
100
AcDbEntity
  8
0
 62
           0
100
AcDbLine
 10
11.260132814867
 20
1.714191268848
 30
0.0
 11
11.296719624518
 21
1.7507780785
 31
0.0
1001
ACAD
1000
TCW40_DEV_WIDTH
1002
{
1040
-3.0
1002
}
  0
LINE
  5
146
100
AcDbEntity
  8
0
 62
           0
100
AcDbLine
 10
11.171714691542
 20
1.625773145524
 30
0.0
 11
11.180013618047
 21
1.634072072029
 31
0.0
1001
ACAD
1000
TCW40_DEV_WIDTH
1002
{
1040
-3.0
1002
}
  0
LINE
  5
147
100
AcDbEntity
  8
0
 62
           0
100
AcDbLine
 10
11.193220367422
 20
1.647278821404
 30
0.0
 11
11.217611573857
 21
1.671670027838
 31
0.0
1001
ACAD
1000
TCW40_DEV_WIDTH
1002
{
1040
-3.0
1002
}
  0
LINE
  5
148
100
AcDbEntity
  8
0
 62
           0
100
AcDbLine
 10
11.180013618047
 20
1.634072072029
 30
0.0
 11
11.193220367422
 21
1.647278821404
 31
0.0
1001
ACAD
1000
TCW40_DEV_WIDTH
1002
{
1040
-3.0
1002
}
  0
LINE
  5
149
100
AcDbEntity
  8
0
 62
           0
100
AcDbLine
 10
11.137724417649
 20
1.574105202101
 30
0.0
 11
11.144111214054
 21
1.580491998506
 31
0.0
1001
ACAD
1000
TCW40_DEV_WIDTH
1002
{
1040
-3.0
1002
}
  0
LINE
  5
14A
100
AcDbEntity
  8
0
 62
           0
100
AcDbLine
 10
11.268971649632
 20
1.705352434084
 30
0.0
 11
11.308462862689
 21
1.744843647141
 31
0.0
1001
ACAD
1000
TCW40_DEV_WIDTH
1002
{
1040
-3.0
1002
}
  0
LINE
  5
14B
100
AcDbEntity
  8
0
 62
           0
100
AcDbLine
 10
11.186506830518
 20
1.62288761497
 30
0.0
 11
11.190115143492
 21
1.626495927944
 31
0.0
1001
ACAD
1000
TCW40_DEV_WIDTH
1002
{
1040
-3.0
1002
}
  0
LINE
  5
14C
100
AcDbEntity
  8
0
 62
           0
100
AcDbLine
 10
11.210898036952
 20
1.647278821404
 30
0.0
 11
11.241387044995
 21
1.677767829447
 31
0.0
1001
ACAD
1000
TCW40_DEV_WIDTH
1002
{
1040
-3.0
1002
}
  0
LINE
  5
14D
100
AcDbEntity
  8
0
 62
           0
100
AcDbLine
 10
11.190115143492
 20
1.626495927944
 30
0.0
 11
11.210898036952
 21
1.647278821404
 31
0.0
1001
ACAD
1000
TCW40_DEV_WIDTH
1002
{
1040
-3.0
1002
}
  0
LINE
  5
14E
100
AcDbEntity
  8
0
 62
           0
100
AcDbLine
 10
11.200216668938
 20
1.61891978386
 30
0.0
 11
11.204184500047
 21
1.62288761497
 31
0.0
1001
ACAD
1000
TCW40_DEV_WIDTH
1002
{
1040
-3.0
1002
}
  0
LINE
  5
14F
100
AcDbEntity
  8
0
 62
           0
100
AcDbLine
 10
11.351436468746
 20
1.770139583668
 30
0.0
 11
11.356629540262
 21
1.775332655184
 31
0.0
1001
ACAD
1000
TCW40_DEV_WIDTH
1002
{
1040
-3.0
1002
}
  0
LINE
  5
150
100
AcDbEntity
  8
0
 62
           0
100
AcDbLine
 10
11.204184500047
 20
1.62288761497
 30
0.0
 11
11.228575706482
 21
1.647278821404
 31
0.0
1001
ACAD
1000
TCW40_DEV_WIDTH
1002
{
1040
-3.0
1002
}
  0
LINE
  5
151
100
AcDbEntity
  8
0
 62
           0
100
AcDbLine
 10
11.228575706482
 20
1.647278821404
 30
0.0
 11
11.317446194852
 21
1.736149309775
 31
0.0
1001
ACAD
1000
TCW40_DEV_WIDTH
1002
{
1040
-3.0
1002
}
  0
LINE
  5
152
100
AcDbEntity
  8
0
 62
           0
100
AcDbLine
 10
11.210318194383
 20
1.611343639776
 30
0.0
 11
11.221862169577
 21
1.62288761497
 31
0.0
1001
ACAD
1000
TCW40_DEV_WIDTH
1002
{
1040
-3.0
1002
}
  0
LINE
  5
153
100
AcDbEntity
  8
0
 62
           0
100
AcDbLine
 10
11.351436468746
 20
1.752461914138
 30
0.0
 11
11.374307209791
 21
1.775332655184
 31
0.0
1001
ACAD
1000
TCW40_DEV_WIDTH
1002
{
1040
-3.0
1002
}
  0
LINE
  5
154
100
AcDbEntity
  8
0
 62
           0
100
AcDbLine
 10
11.221862169577
 20
1.62288761497
 30
0.0
 11
11.239312849348
 21
1.64033829474
 31
0.0
1001
ACAD
1000
TCW40_DEV_WIDTH
1002
{
1040
-3.0
1002
}
  0
LINE
  5
155
100
AcDbEntity
  8
0
 62
           0
100
AcDbLine
 10
11.239312849348
 20
1.64033829474
 30
0.0
 11
11.326285029617
 21
1.72731047501
 31
0.0
1001
ACAD
1000
TCW40_DEV_WIDTH
1002
{
1040
-3.0
1002
}
  0
LINE
  5
156
100
AcDbEntity
  8
0
 62
           0
100
AcDbLine
 10
11.220419719829
 20
1.603767495692
 30
0.0
 11
11.245637640715
 21
1.628985416578
 31
0.0
1001
ACAD
1000
TCW40_DEV_WIDTH
1002
{
1040
-3.0
1002
}
  0
LINE
  5
157
100
AcDbEntity
  8
0
 62
           0
100
AcDbLine
 10
11.351436468746
 20
1.734784244609
 30
0.0
 11
11.391984879321
 21
1.775332655184
 31
0.0
1001
ACAD
1000
TCW40_DEV_WIDTH
1002
{
1040
-3.0
1002
}
  0
LINE
  5
158
100
AcDbEntity
  8
0
 62
           0
100
AcDbLine
 10
11.245637640715
 20
1.628985416578
 30
0.0
 11
11.249675621141
 21
1.633023397004
 31
0.0
1001
ACAD
1000
TCW40_DEV_WIDTH
1002
{
1040
-3.0
1002
}
  0
LINE
  5
159
100
AcDbEntity
  8
0
 62
           0
100
AcDbLine
 10
11.249675621141
 20
1.633023397004
 30
0.0
 11
11.33314306392
 21
1.716490839783
 31
0.0
1001
ACAD
1000
TCW40_DEV_WIDTH
1002
{
1040
-3.0
1002
}
  0
LINE
  5
15A
100
AcDbEntity
  8
0
 62
           0
100
AcDbLine
 10
11.230521245275
 20
1.596191351608
 30
0.0
 11
11.260038392934
 21
1.625708499267
 31
0.0
1001
ACAD
1000
TCW40_DEV_WIDTH
1002
{
1040
-3.0
1002
}
  0
LINE
  5
15B
100
AcDbEntity
  8
0
 62
           0
100
AcDbLine
 10
11.351436468746
 20
1.717106575079
 30
0.0
 11
11.409662548851
 21
1.775332655184
 31
0.0
1001
ACAD
1000
TCW40_DEV_WIDTH
1002
{
1040
-3.0
1002
}
  0
LINE
  5
15C
100
AcDbEntity
  8
0
 62
           0
100
AcDbLine
 10
11.263315310245
 20
1.628985416578
 30
0.0
 11
11.338323553535
 21
1.703993659868
 31
0.0
1001
ACAD
1000
TCW40_DEV_WIDTH
1002
{
1040
-3.0
1002
}
  0
LINE
  5
15D
100
AcDbEntity
  8
0
 62
           0
100
AcDbLine
 10
11.24062277072
 20
1.588615207524
 30
0.0
 11
11.270401164727
 21
1.618393601531
 31
0.0
1001
ACAD
1000
TCW40_DEV_WIDTH
1002
{
1040
-3.0
1002
}
  0
LINE
  5
15E
100
AcDbEntity
  8
0
 62
           0
100
AcDbLine
 10
11.351436468746
 20
1.699428905549
 30
0.0
 11
11.42734021838
 21
1.775332655184
 31
0.0
1001
ACAD
1000
TCW40_DEV_WIDTH
1002
{
1040
-3.0
1002
}
  0
LINE
  5
15F
100
AcDbEntity
  8
0
 62
           0
100
AcDbLine
 10
11.293188582992
 20
1.641181019795
 30
0.0
 11
11.339240865529
 21
1.687233302332
 31
0.0
1001
ACAD
1000
TCW40_DEV_WIDTH
1002
{
1040
-3.0
1002
}
  0
LINE
  5
160
100
AcDbEntity
  8
0
 62
           0
100
AcDbLine
 10
11.250724296166
 20
1.58103906344
 30
0.0
 11
11.280763936521
 21
1.611078703795
 31
0.0
1001
ACAD
1000
TCW40_DEV_WIDTH
1002
{
1040
-3.0
1002
}
  0
LINE
  5
161
100
AcDbEntity
  8
0
 62
           0
100
AcDbLine
 10
11.443533312672
 20
1.773848079946
 30
0.0
 11
11.44501788791
 21
1.775332655184
 31
0.0
1001
ACAD
1000
TCW40_DEV_WIDTH
1002
{
1040
-3.0
1002
}
  0
LINE
  5
162
100
AcDbEntity
  8
0
 62
           0
100
AcDbLine
 10
11.351436468746
 20
1.68175123602
 30
0.0
 11
11.430707889657
 21
1.761022656931
 31
0.0
1001
ACAD
1000
TCW40_DEV_WIDTH
1002
{
1040
-3.0
1002
}
  0
LINE
  5
163
100
AcDbEntity
  8
0
 62
           0
100
AcDbLine
 10
11.261468104357
 20
1.574105202101
 30
0.0
 11
11.291126708314
 21
1.603763806058
 31
0.0
1001
ACAD
1000
TCW40_DEV_WIDTH
1002
{
1040
-3.0
1002
}
  0
LINE
  5
164
100
AcDbEntity
  8
0
 62
           0
100
AcDbLine
 10
11.448799001468
 20
1.761436099213
 30
0.0
 11
11.46269555744
 21
1.775332655184
 31
0.0
1001
ACAD
1000
TCW40_DEV_WIDTH
1002
{
1040
-3.0
1002
}
  0
LINE
  5
165
100
AcDbEntity
  8
0
 62
           0
100
AcDbLine
 10
11.351436468746
 20
1.66407356649
 30
0.0
 11
11.430707889657
 21
1.743344987402
 31
0.0
1001
ACAD
1000
TCW40_DEV_WIDTH
1002
{
1040
-3.0
1002
}
  0
LINE
  5
166
100
AcDbEntity
  8
0
 62
           0
100
AcDbLine
 10
11.279145773886
 20
1.574105202101
 30
0.0
 11
11.301489480107
 21
1.596448908322
 31
0.0
1001
ACAD
1000
TCW40_DEV_WIDTH
1002
{
1040
-3.0
1002
}
  0
LINE
  5
167
100
AcDbEntity
  8
0
 62
           0
100
AcDbLine
 10
11.454064690264
 20
1.749024118479
 30
0.0
 11
11.480373226969
 21
1.775332655184
 31
0.0
1001
ACAD
1000
TCW40_DEV_WIDTH
1002
{
1040
-3.0
1002
}
  0
LINE
  5
168
100
AcDbEntity
  8
0
 62
           0
100
AcDbLine
 10
11.351436468746
 20
1.64639589696
 30
0.0
 11
11.430707889657
 21
1.725667317872
 31
0.0
1001
ACAD
1000
TCW40_DEV_WIDTH
1002
{
1040
-3.0
1002
}
  0
LINE
  5
169
100
AcDbEntity
  8
0
 62
           0
100
AcDbLine
 10
11.296823443416
 20
1.574105202101
 30
0.0
 11
11.3118522519
 21
1.589134010585
 31
0.0
1001
ACAD
1000
TCW40_DEV_WIDTH
1002
{
1040
-3.0
1002
}
  0
LINE
  5
16A
100
AcDbEntity
  8
0
 62
           0
100
AcDbLine
 10
11.45933037906
 20
1.736612137745
 30
0.0
 11
11.498050896499
 21
1.775332655184
 31
0.0
1001
ACAD
1000
TCW40_DEV_WIDTH
1002
{
1040
-3.0
1002
}
  0
LINE
  5
16B
100
AcDbEntity
  8
0
 62
           0
100
AcDbLine
 10
11.351436468746
 20
1.628718227431
 30
0.0
 11
11.430707889657
 21
1.707989648342
 31
0.0
1001
ACAD
1000
TCW40_DEV_WIDTH
1002
{
1040
-3.0
1002
}
  0
LINE
  5
16C
100
AcDbEntity
  8
0
 62
           0
100
AcDbLine
 10
11.314501112946
 20
1.574105202101
 30
0.0
 11
11.322215023694
 21
1.581819112849
 31
0.0
1001
ACAD
1000
TCW40_DEV_WIDTH
1002
{
1040
-3.0
1002
}
  0
LINE
  5
16D
100
AcDbEntity
  8
0
 62
           0
100
AcDbLine
 10
11.464596067857
 20
1.724200157012
 30
0.0
 11
11.511682793668
 21
1.771286882823
 31
0.0
1001
ACAD
1000
TCW40_DEV_WIDTH
1002
{
1040
-3.0
1002
}
  0
LINE
  5
16E
100
AcDbEntity
  8
0
 62
           0
100
AcDbLine
 10
11.351436468746
 20
1.611040557901
 30
0.0
 11
11.430707889657
 21
1.690311978813
 31
0.0
1001
ACAD
1000
TCW40_DEV_WIDTH
1002
{
1040
-3.0
1002
}
  0
LINE
  5
16F
100
AcDbEntity
  8
0
 62
           0
100
AcDbLine
 10
11.332178782475
 20
1.574105202101
 30
0.0
 11
11.332577795487
 21
1.574504215113
 31
0.0
1001
ACAD
1000
TCW40_DEV_WIDTH
1002
{
1040
-3.0
1002
}
  0
LINE
  5
170
100
AcDbEntity
  8
0
 62
           0
100
AcDbLine
 10
11.469861756653
 20
1.711788176278
 30
0.0
 11
11.516920621677
 21
1.758847041302
 31
0.0
1001
ACAD
1000
TCW40_DEV_WIDTH
1002
{
1040
-3.0
1002
}
  0
LINE
  5
171
100
AcDbEntity
  8
0
 62
           0
100
AcDbLine
 10
11.351436468746
 20
1.593362888371
 30
0.0
 11
11.430707889657
 21
1.672634309283
 31
0.0
1001
ACAD
1000
TCW40_DEV_WIDTH
1002
{
1040
-3.0
1002
}
  0
LINE
  5
172
100
AcDbEntity
  8
0
 62
           0
100
AcDbLine
 10
11.351436468746
 20
1.575685218842
 30
0.0
 11
11.430707889657
 21
1.654956639753
 31
0.0
1001
ACAD
1000
TCW40_DEV_WIDTH
1002
{
1040
-3.0
1002
}
  0
LINE
  5
173
100
AcDbEntity
  8
0
 62
           0
100
AcDbLine
 10
11.475127445449
 20
1.699376195545
 30
0.0
 11
11.522158449686
 21
1.746407199782
 31
0.0
1001
ACAD
1000
TCW40_DEV_WIDTH
1002
{
1040
-3.0
1002
}
  0
LINE
  5
174
100
AcDbEntity
  8
0
 62
           0
100
AcDbLine
 10
11.361436319926
 20
1.568007400492
 30
0.0
 11
11.430707889657
 21
1.637278970224
 31
0.0
1001
ACAD
1000
TCW40_DEV_WIDTH
1002
{
1040
-3.0
1002
}
  0
LINE
  5
175
100
AcDbEntity
  8
0
 62
           0
100
AcDbLine
 10
11.480393134245
 20
1.686964214811
 30
0.0
 11
11.527396277694
 21
1.733967358261
 31
0.0
1001
ACAD
1000
TCW40_DEV_WIDTH
1002
{
1040
-3.0
1002
}
  0
LINE
  5
176
100
AcDbEntity
  8
0
 62
           0
100
AcDbLine
 10
11.379113989456
 20
1.568007400492
 30
0.0
 11
11.430707889657
 21
1.619601300694
 31
0.0
1001
ACAD
1000
TCW40_DEV_WIDTH
1002
{
1040
-3.0
1002
}
  0
LINE
  5
177
100
AcDbEntity
  8
0
 62
           0
100
AcDbLine
 10
11.485658823041
 20
1.674552234077
 30
0.0
 11
11.532634105703
 21
1.72152751674
 31
0.0
1001
ACAD
1000
TCW40_DEV_WIDTH
1002
{
1040
-3.0
1002
}
  0
LINE
  5
178
100
AcDbEntity
  8
0
 62
           0
100
AcDbLine
 10
11.396791658985
 20
1.568007400492
 30
0.0
 11
11.430707889657
 21
1.601923631164
 31
0.0
1001
ACAD
1000
TCW40_DEV_WIDTH
1002
{
1040
-3.0
1002
}
  0
LINE
  5
179
100
AcDbEntity
  8
0
 62
           0
100
AcDbLine
 10
11.490924511837
 20
1.662140253344
 30
0.0
 11
11.537871933712
 21
1.709087675219
 31
0.0
1001
ACAD
1000
TCW40_DEV_WIDTH
1002
{
1040
-3.0
1002
}
  0
LINE
  5
17A
100
AcDbEntity
  8
0
 62
           0
100
AcDbLine
 10
11.414469328515
 20
1.568007400492
 30
0.0
 11
11.430707889657
 21
1.584245961635
 31
0.0
1001
ACAD
1000
TCW40_DEV_WIDTH
1002
{
1040
-3.0
1002
}
  0
LINE
  5
17B
100
AcDbEntity
  8
0
 62
           0
100
AcDbLine
 10
11.597180174924
 20
1.750718246901
 30
0.0
 11
11.621794583207
 21
1.775332655184
 31
0.0
1001
ACAD
1000
TCW40_DEV_WIDTH
1002
{
1040
-3.0
1002
}
  0
LINE
  5
17C
100
AcDbEntity
  8
0
 62
           0
100
AcDbLine
 10
11.496190200633
 20
1.64972827261
 30
0.0
 11
11.543109761721
 21
1.696647833698
 31
0.0
1001
ACAD
1000
TCW40_DEV_WIDTH
1002
{
1040
-3.0
1002
}
  0
LINE
  5
17D
100
AcDbEntity
  8
0
 62
           0
100
AcDbLine
 10
11.501455889429
 20
1.637316291877
 30
0.0
 11
11.54834758973
 21
1.684207992177
 31
0.0
1001
ACAD
1000
TCW40_DEV_WIDTH
1002
{
1040
-3.0
1002
}
  0
LINE
  5
17E
100
AcDbEntity
  8
0
 62
           0
100
AcDbLine
 10
11.584323687993
 20
1.720184090441
 30
0.0
 11
11.639472252736
 21
1.775332655184
 31
0.0
1001
ACAD
1000
TCW40_DEV_WIDTH
1002
{
1040
-3.0
1002
}
  0
LINE
  5
17F
100
AcDbEntity
  8
0
 62
           0
100
AcDbLine
 10
11.506721578225
 20
1.624904311143
 30
0.0
 11
11.553585417738
 21
1.671768150656
 31
0.0
1001
ACAD
1000
TCW40_DEV_WIDTH
1002
{
1040
-3.0
1002
}
  0
LINE
  5
180
100
AcDbEntity
  8
0
 62
           0
100
AcDbLine
 10
11.571467201062
 20
1.68964993398
 30
0.0
 11
11.657149922266
 21
1.775332655184
 31
0.0
1001
ACAD
1000
TCW40_DEV_WIDTH
1002
{
1040
-3.0
1002
}
  0
LINE
  5
181
100
AcDbEntity
  8
0
 62
           0
100
AcDbLine
 10
11.511987267021
 20
1.61249233041
 30
0.0
 11
11.67446695773
 21
1.774972021119
 31
0.0
1001
ACAD
1000
TCW40_DEV_WIDTH
1002
{
1040
-3.0
1002
}
  0
LINE
  5
182
100
AcDbEntity
  8
0
 62
           0
100
AcDbLine
 10
11.517252955817
 20
1.600080349676
 30
0.0
 11
11.661441306498
 21
1.744268700357
 31
0.0
1001
ACAD
1000
TCW40_DEV_WIDTH
1002
{
1040
-3.0
1002
}
  0
LINE
  5
183
100
AcDbEntity
  8
0
 62
           0
100
AcDbLine
 10
11.522518644613
 20
1.587668368942
 30
0.0
 11
11.648415655266
 21
1.713565379595
 31
0.0
1001
ACAD
1000
TCW40_DEV_WIDTH
1002
{
1040
-3.0
1002
}
  0
LINE
  5
184
100
AcDbEntity
  8
0
 62
           0
100
AcDbLine
 10
11.699011160435
 20
1.764160884764
 30
0.0
 11
11.710182930855
 21
1.775332655184
 31
0.0
1001
ACAD
1000
TCW40_DEV_WIDTH
1002
{
1040
-3.0
1002
}
  0
LINE
  5
185
100
AcDbEntity
  8
0
 62
           0
100
AcDbLine
 10
11.527784333409
 20
1.575256388209
 30
0.0
 11
11.635390004033
 21
1.682862058832
 31
0.0
1001
ACAD
1000
TCW40_DEV_WIDTH
1002
{
1040
-3.0
1002
}
  0
LINE
  5
186
100
AcDbEntity
  8
0
 62
           0
100
AcDbLine
 10
11.699011160435
 20
1.746483215234
 30
0.0
 11
11.727860600385
 21
1.775332655184
 31
0.0
1001
ACAD
1000
TCW40_DEV_WIDTH
1002
{
1040
-3.0
1002
}
  0
LINE
  5
187
100
AcDbEntity
  8
0
 62
           0
100
AcDbLine
 10
11.544310816831
 20
1.574105202101
 30
0.0
 11
11.622364352801
 21
1.65215873807
 31
0.0
1001
ACAD
1000
TCW40_DEV_WIDTH
1002
{
1040
-3.0
1002
}
  0
LINE
  5
188
100
AcDbEntity
  8
0
 62
           0
100
AcDbLine
 10
11.699011160435
 20
1.728805545704
 30
0.0
 11
11.745538269914
 21
1.775332655184
 31
0.0
1001
ACAD
1000
TCW40_DEV_WIDTH
1002
{
1040
-3.0
1002
}
  0
LINE
  5
189
100
AcDbEntity
  8
0
 62
           0
100
AcDbLine
 10
11.561988486361
 20
1.574105202101
 30
0.0
 11
11.609338701568
 21
1.621455417308
 31
0.0
1001
ACAD
1000
TCW40_DEV_WIDTH
1002
{
1040
-3.0
1002
}
  0
LINE
  5
18A
100
AcDbEntity
  8
0
 62
           0
100
AcDbLine
 10
11.699011160435
 20
1.711127876175
 30
0.0
 11
11.763215939444
 21
1.775332655184
 31
0.0
1001
ACAD
1000
TCW40_DEV_WIDTH
1002
{
1040
-3.0
1002
}
  0
LINE
  5
18B
100
AcDbEntity
  8
0
 62
           0
100
AcDbLine
 10
11.579666155891
 20
1.574105202101
 30
0.0
 11
11.596313050336
 21
1.590752096546
 31
0.0
1001
ACAD
1000
TCW40_DEV_WIDTH
1002
{
1040
-3.0
1002
}
  0
LINE
  5
18C
100
AcDbEntity
  8
0
 62
           0
100
AcDbLine
 10
11.699011160435
 20
1.693450206645
 30
0.0
 11
11.780893608974
 21
1.775332655184
 31
0.0
1001
ACAD
1000
TCW40_DEV_WIDTH
1002
{
1040
-3.0
1002
}
  0
LINE
  5
18D
100
AcDbEntity
  8
0
 62
           0
100
AcDbLine
 10
11.699011160435
 20
1.675772537115
 30
0.0
 11
11.798571278503
 21
1.775332655184
 31
0.0
1001
ACAD
1000
TCW40_DEV_WIDTH
1002
{
1040
-3.0
1002
}
  0
LINE
  5
18E
100
AcDbEntity
  8
0
 62
           0
100
AcDbLine
 10
11.699011160435
 20
1.658094867586
 30
0.0
 11
11.759989176521
 21
1.719072883672
 31
0.0
1001
ACAD
1000
TCW40_DEV_WIDTH
1002
{
1040
-3.0
1002
}
  0
LINE
  5
18F
100
AcDbEntity
  8
0
 62
           0
100
AcDbLine
 10
11.773564336773
 20
1.732648043924
 30
0.0
 11
11.816248948033
 21
1.775332655184
 31
0.0
1001
ACAD
1000
TCW40_DEV_WIDTH
1002
{
1040
-3.0
1002
}
  0
LINE
  5
190
100
AcDbEntity
  8
0
 62
           0
100
AcDbLine
 10
11.699011160435
 20
1.640417198056
 30
0.0
 11
11.759989176521
 21
1.701395214142
 31
0.0
1001
ACAD
1000
TCW40_DEV_WIDTH
1002
{
1040
-3.0
1002
}
  0
LINE
  5
191
100
AcDbEntity
  8
0
 62
           0
100
AcDbLine
 10
11.791242006303
 20
1.732648043924
 30
0.0
 11
11.833926617563
 21
1.775332655184
 31
0.0
1001
ACAD
1000
TCW40_DEV_WIDTH
1002
{
1040
-3.0
1002
}
  0
LINE
  5
192
100
AcDbEntity
  8
0
 62
           0
100
AcDbLine
 10
11.699011160435
 20
1.622739528526
 30
0.0
 11
11.772332866181
 21
1.696061234272
 31
0.0
1001
ACAD
1000
TCW40_DEV_WIDTH
1002
{
1040
-3.0
1002
}
  0
LINE
  5
193
100
AcDbEntity
  8
0
 62
           0
100
AcDbLine
 10
11.808919675832
 20
1.732648043924
 30
0.0
 11
11.851604287092
 21
1.775332655184
 31
0.0
1001
ACAD
1000
TCW40_DEV_WIDTH
1002
{
1040
-3.0
1002
}
  0
LINE
  5
194
100
AcDbEntity
  8
0
 62
           0
100
AcDbLine
 10
11.699011160435
 20
1.605061858997
 30
0.0
 11
11.79001053571
 21
1.696061234272
 31
0.0
1001
ACAD
1000
TCW40_DEV_WIDTH
1002
{
1040
-3.0
1002
}
  0
LINE
  5
195
100
AcDbEntity
  8
0
 62
           0
100
AcDbLine
 10
11.826597345362
 20
1.732648043924
 30
0.0
 11
11.869281956622
 21
1.775332655184
 31
0.0
1001
ACAD
1000
TCW40_DEV_WIDTH
1002
{
1040
-3.0
1002
}
  0
LINE
  5
196
100
AcDbEntity
  8
0
 62
           0
100
AcDbLine
 10
11.699011160435
 20
1.587384189467
 30
0.0
 11
11.759989176521
 21
1.648362205553
 31
0.0
1001
ACAD
1000
TCW40_DEV_WIDTH
1002
{
1040
-3.0
1002
}
  0
LINE
  5
197
100
AcDbEntity
  8
0
 62
           0
100
AcDbLine
 10
11.844275014892
 20
1.732648043924
 30
0.0
 11
11.886959626152
 21
1.775332655184
 31
0.0
1001
ACAD
1000
TCW40_DEV_WIDTH
1002
{
1040
-3.0
1002
}
  0
LINE
  5
198
100
AcDbEntity
  8
0
 62
           0
100
AcDbLine
 10
11.76500359398
 20
1.653376623012
 30
0.0
 11
11.80768820524
 21
1.696061234272
 31
0.0
1001
ACAD
1000
TCW40_DEV_WIDTH
1002
{
1040
-3.0
1002
}
  0
LINE
  5
199
100
AcDbEntity
  8
0
 62
           0
100
AcDbLine
 10
11.703409842598
 20
1.574105202101
 30
0.0
 11
11.759989176521
 21
1.630684536023
 31
0.0
1001
ACAD
1000
TCW40_DEV_WIDTH
1002
{
1040
-3.0
1002
}
  0
LINE
  5
19A
100
AcDbEntity
  8
0
 62
           0
100
AcDbLine
 10
11.861952684421
 20
1.732648043924
 30
0.0
 11
11.888043010301
 21
1.758738369803
 31
0.0
1001
ACAD
1000
TCW40_DEV_WIDTH
1002
{
1040
-3.0
1002
}
  0
LINE
  5
19B
100
AcDbEntity
  8
0
 62
           0
100
AcDbLine
 10
11.78268126351
 20
1.653376623012
 30
0.0
 11
11.82536587477
 21
1.696061234272
 31
0.0
1001
ACAD
1000
TCW40_DEV_WIDTH
1002
{
1040
-3.0
1002
}
  0
LINE
  5
19C
100
AcDbEntity
  8
0
 62
           0
100
AcDbLine
 10
11.721087512128
 20
1.574105202101
 30
0.0
 11
11.763772123388
 21
1.616789813361
 31
0.0
1001
ACAD
1000
TCW40_DEV_WIDTH
1002
{
1040
-3.0
1002
}
  0
LINE
  5
19D
100
AcDbEntity
  8
0
 62
           0
100
AcDbLine
 10
11.879630353951
 20
1.732648043924
 30
0.0
 11
11.888043010301
 21
1.741060700274
 31
0.0
1001
ACAD
1000
TCW40_DEV_WIDTH
1002
{
1040
-3.0
1002
}
  0
LINE
  5
19E
100
AcDbEntity
  8
0
 62
           0
100
AcDbLine
 10
11.800358933039
 20
1.653376623012
 30
0.0
 11
11.843043544299
 21
1.696061234272
 31
0.0
1001
ACAD
1000
TCW40_DEV_WIDTH
1002
{
1040
-3.0
1002
}
  0
LINE
  5
19F
100
AcDbEntity
  8
0
 62
           0
100
AcDbLine
 10
11.738765181658
 20
1.574105202101
 30
0.0
 11
11.781449792918
 21
1.616789813361
 31
0.0
1001
ACAD
1000
TCW40_DEV_WIDTH
1002
{
1040
-3.0
1002
}
  0
LINE
  5
1A0
100
AcDbEntity
  8
0
 62
           0
100
AcDbLine
 10
11.818036602569
 20
1.653376623012
 30
0.0
 11
11.860721213829
 21
1.696061234272
 31
0.0
1001
ACAD
1000
TCW40_DEV_WIDTH
1002
{
1040
-3.0
1002
}
  0
LINE
  5
1A1
100
AcDbEntity
  8
0
 62
           0
100
AcDbLine
 10
11.756442851187
 20
1.574105202101
 30
0.0
 11
11.799127462447
 21
1.616789813361
 31
0.0
1001
ACAD
1000
TCW40_DEV_WIDTH
1002
{
1040
-3.0
1002
}
  0
LINE
  5
1A2
100
AcDbEntity
  8
0
 62
           0
100
AcDbLine
 10
11.942923224778
 20
1.760585575692
 30
0.0
 11
11.945474701053
 21
1.763137051967
 31
0.0
1001
ACAD
1000
TCW40_DEV_WIDTH
1002
{
1040
-3.0
1002
}
  0
LINE
  5
1A3
100
AcDbEntity
  8
0
 62
           0
100
AcDbLine
 10
11.835714272099
 20
1.653376623012
 30
0.0
 11
11.878398883359
 21
1.696061234272
 31
0.0
1001
ACAD
1000
TCW40_DEV_WIDTH
1002
{
1040
-3.0
1002
}
  0
LINE
  5
1A4
100
AcDbEntity
  8
0
 62
           0
100
AcDbLine
 10
11.918532018344
 20
1.736194369257
 30
0.0
 11
11.939376899445
 21
1.757039250358
 31
0.0
1001
ACAD
1000
TCW40_DEV_WIDTH
1002
{
1040
-3.0
1002
}
  0
LINE
  5
1A5
100
AcDbEntity
  8
0
 62
           0
100
AcDbLine
 10
11.774120520717
 20
1.574105202101
 30
0.0
 11
11.816805131977
 21
1.616789813361
 31
0.0
1001
ACAD
1000
TCW40_DEV_WIDTH
1002
{
1040
-3.0
1002
}
  0
LINE
  5
1A6
100
AcDbEntity
  8
0
 62
           0
100
AcDbLine
 10
11.912434216735
 20
1.712418898119
 30
0.0
 11
11.969250172191
 21
1.769234853575
 31
0.0
1001
ACAD
1000
TCW40_DEV_WIDTH
1002
{
1040
-3.0
1002
}
  0
LINE
  5
1A7
100
AcDbEntity
  8
0
 62
           0
100
AcDbLine
 10
11.853391941628
 20
1.653376623012
 30
0.0
 11
11.888043010301
 21
1.688027691685
 31
0.0
1001
ACAD
1000
TCW40_DEV_WIDTH
1002
{
1040
-3.0
1002
}
  0
LINE
  5
1A8
100
AcDbEntity
  8
0
 62
           0
100
AcDbLine
 10
11.791798190247
 20
1.574105202101
 30
0.0
 11
11.834482801507
 21
1.616789813361
 31
0.0
1001
ACAD
1000
TCW40_DEV_WIDTH
1002
{
1040
-3.0
1002
}
  0
LINE
  5
1A9
100
AcDbEntity
  8
0
 62
           0
100
AcDbLine
 10
11.916143120381
 20
1.698450132235
 30
0.0
 11
11.99302564333
 21
1.775332655184
 31
0.0
1001
ACAD
1000
TCW40_DEV_WIDTH
1002
{
1040
-3.0
1002
}
  0
LINE
  5
1AA
100
AcDbEntity
  8
0
 62
           0
100
AcDbLine
 10
11.871069611158
 20
1.653376623012
 30
0.0
 11
11.888043010301
 21
1.670350022155
 31
0.0
1001
ACAD
1000
TCW40_DEV_WIDTH
1002
{
1040
-3.0
1002
}
  0
LINE
  5
1AB
100
AcDbEntity
  8
0
 62
           0
100
AcDbLine
 10
11.809475859776
 20
1.574105202101
 30
0.0
 11
11.852160471036
 21
1.616789813361
 31
0.0
1001
ACAD
1000
TCW40_DEV_WIDTH
1002
{
1040
-3.0
1002
}
  0
LINE
  5
1AC
100
AcDbEntity
  8
0
 62
           0
100
AcDbLine
 10
11.921933054341
 20
1.686562396666
 30
0.0
 11
12.010703312859
 21
1.775332655184
 31
0.0
1001
ACAD
1000
TCW40_DEV_WIDTH
1002
{
1040
-3.0
1002
}
  0
LINE
  5
1AD
100
AcDbEntity
  8
0
 62
           0
100
AcDbLine
 10
11.827153529306
 20
1.574105202101
 30
0.0
 11
11.869838140566
 21
1.616789813361
 31
0.0
1001
ACAD
1000
TCW40_DEV_WIDTH
1002
{
1040
-3.0
1002
}
  0
LINE
  5
1AE
100
AcDbEntity
  8
0
 62
           0
100
AcDbLine
 10
11.991794172737
 20
1.738745845533
 30
0.0
 11
12.028380982389
 21
1.775332655184
 31
0.0
1001
ACAD
1000
TCW40_DEV_WIDTH
1002
{
1040
-3.0
1002
}
  0
LINE
  5
1AF
100
AcDbEntity
  8
0
 62
           0
100
AcDbLine
 10
11.930771889106
 20
1.677723561901
 30
0.0
 11
11.973412232821
 21
1.720363905616
 31
0.0
1001
ACAD
1000
TCW40_DEV_WIDTH
1002
{
1040
-3.0
1002
}
  0
LINE
  5
1B0
100
AcDbEntity
  8
0
 62
           0
100
AcDbLine
 10
11.844831198836
 20
1.574105202101
 30
0.0
 11
11.887515810096
 21
1.616789813361
 31
0.0
1001
ACAD
1000
TCW40_DEV_WIDTH
1002
{
1040
-3.0
1002
}
  0
LINE
  5
1B1
100
AcDbEntity
  8
0
 62
           0
100
AcDbLine
 10
12.009471842267
 20
1.738745845533
 30
0.0
 11
12.046058651919
 21
1.775332655184
 31
0.0
1001
ACAD
1000
TCW40_DEV_WIDTH
1002
{
1040
-3.0
1002
}
  0
LINE
  5
1B2
100
AcDbEntity
  8
0
 62
           0
100
AcDbLine
 10
11.942396024573
 20
1.671670027838
 30
0.0
 11
11.979510034429
 21
1.708784037695
 31
0.0
1001
ACAD
1000
TCW40_DEV_WIDTH
1002
{
1040
-3.0
1002
}
  0
LINE
  5
1B3
100
AcDbEntity
  8
0
 62
           0
100
AcDbLine
 10
11.862508868365
 20
1.574105202101
 30
0.0
 11
11.888043010301
 21
1.599639344036
 31
0.0
1001
ACAD
1000
TCW40_DEV_WIDTH
1002
{
1040
-3.0
1002
}
  0
LINE
  5
1B4
100
AcDbEntity
  8
0
 62
           0
100
AcDbLine
 10
12.021623177939
 20
1.733219511675
 30
0.0
 11
12.063736321448
 21
1.775332655184
 31
0.0
1001
ACAD
1000
TCW40_DEV_WIDTH
1002
{
1040
-3.0
1002
}
  0
LINE
  5
1B5
100
AcDbEntity
  8
0
 62
           0
100
AcDbLine
 10
11.953975892494
 20
1.66557222623
 30
0.0
 11
11.991705637647
 21
1.703301971382
 31
0.0
1001
ACAD
1000
TCW40_DEV_WIDTH
1002
{
1040
-3.0
1002
}
  0
LINE
  5
1B6
100
AcDbEntity
  8
0
 62
           0
100
AcDbLine
 10
11.880186537895
 20
1.574105202101
 30
0.0
 11
11.888043010301
 21
1.581961674507
 31
0.0
1001
ACAD
1000
TCW40_DEV_WIDTH
1002
{
1040
-3.0
1002
}
  0
LINE
  5
1B7
100
AcDbEntity
  8
0
 62
           0
100
AcDbLine
 10
12.038729379718
 20
1.732648043924
 30
0.0
 11
12.081413990978
 21
1.775332655184
 31
0.0
1001
ACAD
1000
TCW40_DEV_WIDTH
1002
{
1040
-3.0
1002
}
  0
LINE
  5
1B8
100
AcDbEntity
  8
0
 62
           0
100
AcDbLine
 10
11.932650650201
 20
1.626569314407
 30
0.0
 11
11.942923224778
 21
1.636841888984
 31
0.0
1001
ACAD
1000
TCW40_DEV_WIDTH
1002
{
1040
-3.0
1002
}
  0
LINE
  5
1B9
100
AcDbEntity
  8
0
 62
           0
100
AcDbLine
 10
11.965555760415
 20
1.659474424621
 30
0.0
 11
12.008240371675
 21
1.702159035881
 31
0.0
1001
ACAD
1000
TCW40_DEV_WIDTH
1002
{
1040
-3.0
1002
}
  0
LINE
  5
1BA
100
AcDbEntity
  8
0
 62
           0
100
AcDbLine
 10
11.92557958239
 20
1.601820577066
 30
0.0
 11
11.955118827995
 21
1.631359822671
 31
0.0
1001
ACAD
1000
TCW40_DEV_WIDTH
1002
{
1040
-3.0
1002
}
  0
LINE
  5
1BB
100
AcDbEntity
  8
0
 62
           0
100
AcDbLine
 10
12.056407049248
 20
1.732648043924
 30
0.0
 11
12.092993858899
 21
1.769234853575
 31
0.0
1001
ACAD
1000
TCW40_DEV_WIDTH
1002
{
1040
-3.0
1002
}
  0
LINE
  5
1BC
100
AcDbEntity
  8
0
 62
           0
100
AcDbLine
 10
11.979510034429
 20
1.655751029106
 30
0.0
 11
12.025918041205
 21
1.702159035881
 31
0.0
1001
ACAD
1000
TCW40_DEV_WIDTH
1002
{
1040
-3.0
1002
}
  0
LINE
  5
1BD
100
AcDbEntity
  8
0
 62
           0
100
AcDbLine
 10
11.93383528178
 20
1.592398606927
 30
0.0
 11
11.970422091431
 21
1.628985416578
 31
0.0
1001
ACAD
1000
TCW40_DEV_WIDTH
1002
{
1040
-3.0
1002
}
  0
LINE
  5
1BE
100
AcDbEntity
  8
0
 62
           0
100
AcDbLine
 10
12.067986917169
 20
1.726550242315
 30
0.0
 11
12.110671528429
 21
1.769234853575
 31
0.0
1001
ACAD
1000
TCW40_DEV_WIDTH
1002
{
1040
-3.0
1002
}
  0
LINE
  5
1BF
100
AcDbEntity
  8
0
 62
           0
100
AcDbLine
 10
11.994813297866
 20
1.653376623012
 30
0.0
 11
12.043595710734
 21
1.702159035881
 31
0.0
1001
ACAD
1000
TCW40_DEV_WIDTH
1002
{
1040
-3.0
1002
}
  0
LINE
  5
1C0
100
AcDbEntity
  8
0
 62
           0
100
AcDbLine
 10
11.945415149701
 20
1.586300805318
 30
0.0
 11
11.982001959352
 21
1.62288761497
 31
0.0
1001
ACAD
1000
TCW40_DEV_WIDTH
1002
{
1040
-3.0
1002
}
  0
LINE
  5
1C1
100
AcDbEntity
  8
0
 62
           0
100
AcDbLine
 10
12.085664586698
 20
1.726550242315
 30
0.0
 11
12.124054334693
 21
1.76493999031
 31
0.0
1001
ACAD
1000
TCW40_DEV_WIDTH
1002
{
1040
-3.0
1002
}
  0
LINE
  5
1C2
100
AcDbEntity
  8
0
 62
           0
100
AcDbLine
 10
12.009999042472
 20
1.650884698089
 30
0.0
 11
12.060027417802
 21
1.70091307342
 31
0.0
1001
ACAD
1000
TCW40_DEV_WIDTH
1002
{
1040
-3.0
1002
}
  0
LINE
  5
1C3
100
AcDbEntity
  8
0
 62
           0
100
AcDbLine
 10
11.962154724417
 20
1.585362710505
 30
0.0
 11
11.997803439255
 21
1.621011425343
 31
0.0
1001
ACAD
1000
TCW40_DEV_WIDTH
1002
{
1040
-3.0
1002
}
  0
LINE
  5
1C4
100
AcDbEntity
  8
0
 62
           0
100
AcDbLine
 10
12.097244454619
 20
1.720452440707
 30
0.0
 11
12.139929065879
 21
1.763137051967
 31
0.0
1001
ACAD
1000
TCW40_DEV_WIDTH
1002
{
1040
-3.0
1002
}
  0
LINE
  5
1C5
100
AcDbEntity
  8
0
 62
           0
100
AcDbLine
 10
12.024070835316
 20
1.647278821404
 30
0.0
 11
12.072853248185
 21
1.696061234272
 31
0.0
1001
ACAD
1000
TCW40_DEV_WIDTH
1002
{
1040
-3.0
1002
}
  0
LINE
  5
1C6
100
AcDbEntity
  8
0
 62
           0
100
AcDbLine
 10
11.974672687152
 20
1.580203003709
 30
0.0
 11
12.011259496803
 21
1.616789813361
 31
0.0
1001
ACAD
1000
TCW40_DEV_WIDTH
1002
{
1040
-3.0
1002
}
  0
LINE
  5
1C7
100
AcDbEntity
  8
0
 62
           0
100
AcDbLine
 10
12.113661669818
 20
1.719191986376
 30
0.0
 11
12.151508933801
 21
1.757039250358
 31
0.0
1001
ACAD
1000
TCW40_DEV_WIDTH
1002
{
1040
-3.0
1002
}
  0
LINE
  5
1C8
100
AcDbEntity
  8
0
 62
           0
100
AcDbLine
 10
12.041748504846
 20
1.647278821404
 30
0.0
 11
12.084433116106
 21
1.689963432664
 31
0.0
1001
ACAD
1000
TCW40_DEV_WIDTH
1002
{
1040
-3.0
1002
}
  0
LINE
  5
1C9
100
AcDbEntity
  8
0
 62
           0
100
AcDbLine
 10
11.992350356681
 20
1.580203003709
 30
0.0
 11
12.028292447298
 21
1.616145094326
 31
0.0
1001
ACAD
1000
TCW40_DEV_WIDTH
1002
{
1040
-3.0
1002
}
  0
LINE
  5
1CA
100
AcDbEntity
  8
0
 62
           0
100
AcDbLine
 10
12.12650199207
 20
1.714354639098
 30
0.0
 11
12.163088801722
 21
1.75094144875
 31
0.0
1001
ACAD
1000
TCW40_DEV_WIDTH
1002
{
1040
-3.0
1002
}
  0
LINE
  5
1CB
100
AcDbEntity
  8
0
 62
           0
100
AcDbLine
 10
12.059426174376
 20
1.647278821404
 30
0.0
 11
12.102110785636
 21
1.689963432664
 31
0.0
1001
ACAD
1000
TCW40_DEV_WIDTH
1002
{
1040
-3.0
1002
}
  0
LINE
  5
1CC
100
AcDbEntity
  8
0
 62
           0
100
AcDbLine
 10
12.003930224602
 20
1.574105202101
 30
0.0
 11
12.040517034254
 21
1.610692011752
 31
0.0
1001
ACAD
1000
TCW40_DEV_WIDTH
1002
{
1040
-3.0
1002
}
  0
LINE
  5
1CD
100
AcDbEntity
  8
0
 62
           0
100
AcDbLine
 10
12.138081859991
 20
1.70825683749
 30
0.0
 11
12.164467021977
 21
1.734641999475
 31
0.0
1001
ACAD
1000
TCW40_DEV_WIDTH
1002
{
1040
-3.0
1002
}
  0
LINE
  5
1CE
100
AcDbEntity
  8
0
 62
           0
100
AcDbLine
 10
12.074040451232
 20
1.64421542873
 30
0.0
 11
12.113690653557
 21
1.683865631055
 31
0.0
1001
ACAD
1000
TCW40_DEV_WIDTH
1002
{
1040
-3.0
1002
}
  0
LINE
  5
1CF
100
AcDbEntity
  8
0
 62
           0
100
AcDbLine
 10
12.021607894132
 20
1.574105202101
 30
0.0
 11
12.058194703784
 21
1.610692011752
 31
0.0
1001
ACAD
1000
TCW40_DEV_WIDTH
1002
{
1040
-3.0
1002
}
  0
LINE
  5
1D0
100
AcDbEntity
  8
0
 62
           0
100
AcDbLine
 10
12.149955103691
 20
1.70245241166
 30
0.0
 11
12.158574465467
 21
1.711071773436
 31
0.0
1001
ACAD
1000
TCW40_DEV_WIDTH
1002
{
1040
-3.0
1002
}
  0
LINE
  5
1D1
100
AcDbEntity
  8
0
 62
           0
100
AcDbLine
 10
12.088683711827
 20
1.641181019795
 30
0.0
 11
12.131368323087
 21
1.683865631055
 31
0.0
1001
ACAD
1000
TCW40_DEV_WIDTH
1002
{
1040
-3.0
1002
}
  0
LINE
  5
1D2
100
AcDbEntity
  8
0
 62
           0
100
AcDbLine
 10
12.039285563662
 20
1.574105202101
 30
0.0
 11
12.075872373313
 21
1.610692011752
 31
0.0
1001
ACAD
1000
TCW40_DEV_WIDTH
1002
{
1040
-3.0
1002
}
  0
LINE
  5
1D3
100
AcDbEntity
  8
0
 62
           0
100
AcDbLine
 10
12.100263579748
 20
1.635083218187
 30
0.0
 11
12.142948191008
 21
1.677767829447
 31
0.0
1001
ACAD
1000
TCW40_DEV_WIDTH
1002
{
1040
-3.0
1002
}
  0
LINE
  5
1D4
100
AcDbEntity
  8
0
 62
           0
100
AcDbLine
 10
12.056963233191
 20
1.574105202101
 30
0.0
 11
12.093550042843
 21
1.610692011752
 31
0.0
1001
ACAD
1000
TCW40_DEV_WIDTH
1002
{
1040
-3.0
1002
}
  0
LINE
  5
1D5
100
AcDbEntity
  8
0
 62
           0
100
AcDbLine
 10
12.111843447669
 20
1.628985416578
 30
0.0
 11
12.154528058929
 21
1.671670027838
 31
0.0
1001
ACAD
1000
TCW40_DEV_WIDTH
1002
{
1040
-3.0
1002
}
  0
LINE
  5
1D6
100
AcDbEntity
  8
0
 62
           0
100
AcDbLine
 10
12.074640902721
 20
1.574105202101
 30
0.0
 11
12.164276004768
 21
1.663740304148
 31
0.0
1001
ACAD
1000
TCW40_DEV_WIDTH
1002
{
1040
-3.0
1002
}
  0
LINE
  5
1D7
100
AcDbEntity
  8
0
 62
           0
100
AcDbLine
 10
12.092318572251
 20
1.574105202101
 30
0.0
 11
12.174639685904
 21
1.656426315754
 31
0.0
1001
ACAD
1000
TCW40_DEV_WIDTH
1002
{
1040
-3.0
1002
}
  0
LINE
  5
1D8
100
AcDbEntity
  8
0
 62
           0
100
AcDbLine
 10
12.116094043389
 20
1.580203003709
 30
0.0
 11
12.180737487513
 21
1.644846447833
 31
0.0
1001
ACAD
1000
TCW40_DEV_WIDTH
1002
{
1040
-3.0
1002
}
  0
LINE
  5
1D9
100
AcDbEntity
  8
0
 62
           0
100
AcDbLine
 10
12.139869514527
 20
1.586300805318
 30
0.0
 11
12.180737487513
 21
1.627168778303
 31
0.0
1001
ACAD
1000
TCW40_DEV_WIDTH
1002
{
1040
-3.0
1002
}
  0
ENDBLK
  5
1DA
100
AcDbEntity
  8
0
100
AcDbBlockEnd
  0
BLOCK
  5
1DC
100
AcDbEntity
  8
0
100
AcDbBlockBegin
  2
Fuse
 70
           2
 10
0.0
 20
0.0
 30
0.0
  3
Fuse
  1

  0
ATTDEF
  5
1DE
100
AcDbEntity
  8
0
  6
Continuous
100
AcDbText
 10
0.0
 20
0.0
 30
0.0
 40
0.000080200195
  1

  7
_TCW_TXTSTY_1
100
AcDbAttributeDefinition
  3

  2
ESTCODE
 70
           9
  0
ARC
  5
1DF
100
AcDbEntity
  8
0
100
AcDbCircle
 10
0.275
 20
0.0
 30
0.0
 40
0.07500000298
100
AcDbArc
 50
0.0
 51
180.000008651422
1001
ACAD
1000
TCW40_DEV_WIDTH
1002
{
1040
-3.0
1002
}
  0
ARC
  5
1E0
100
AcDbEntity
  8
0
100
AcDbCircle
 10
0.125
 20
0.0
 30
0.0
 40
0.07500000298
100
AcDbArc
 50
180.0
 51
360.0
1001
ACAD
1000
TCW40_DEV_WIDTH
1002
{
1040
-3.0
1002
}
  0
LINE
  5
1E1
100
AcDbEntity
  8
0
100
AcDbLine
 10
0.0
 20
0.0
 30
0.0
 11
0.05
 21
0.0
 31
0.0
1001
ACAD
1000
TCW40_DEV_WIDTH
1002
{
1040
-3.0
1002
}
  0
LINE
  5
1E2
100
AcDbEntity
  8
0
100
AcDbLine
 10
0.35
 20
0.0
 30
0.0
 11
0.4
 21
0.0
 31
0.0
1001
ACAD
1000
TCW40_DEV_WIDTH
1002
{
1040
-3.0
1002
}
  0
ENDBLK
  5
1E3
100
AcDbEntity
  8
0
100
AcDbBlockEnd
  0
BLOCK
  5
1E5
100
AcDbEntity
  8
0
100
AcDbBlockBegin
  2
Lamp 1
 70
           2
 10
0.0
 20
0.0
 30
0.0
  3
Lamp 1
  1

  0
ATTDEF
  5
1E6
100
AcDbEntity
  8
0
  6
Continuous
100
AcDbText
 10
0.0
 20
0.0
 30
0.0
 40
0.000080200195
  1

  7
_TCW_TXTSTY_1
100
AcDbAttributeDefinition
  3

  2
ESTCODE
 70
           9
  0
CIRCLE
  5
1E7
100
AcDbEntity
  8
0
100
AcDbCircle
 10
0.2
 20
0.0
 30
0.0
 40
0.15000000596
  0
ARC
  5
1E8
100
AcDbEntity
  8
0
100
AcDbCircle
 10
0.141667
 20
0.008333
 30
0.0
 40
0.067185476422
100
AcDbArc
 50
-29.744900099515
 51
187.125002446391
1001
ACAD
1000
TCW40_DEV_WIDTH
1002
{
1040
-3.0
1002
}
  0
ARC
  5
1E9
100
AcDbEntity
  8
0
100
AcDbCircle
 10
0.258088
 20
0.009558
 30
0.0
 40
0.067591093481
100
AcDbArc
 50
-8.130099673792
 51
210.749998408061
1001
ACAD
1000
TCW40_DEV_WIDTH
1002
{
1040
-3.0
1002
}
  0
LINE
  5
1EA
100
AcDbEntity
  8
0
100
AcDbLine
 10
0.0
 20
0.0
 30
0.0
 11
0.075
 21
0.0
 31
0.0
1001
ACAD
1000
TCW40_DEV_WIDTH
1002
{
1040
-3.0
1002
}
  0
LINE
  5
1EB
100
AcDbEntity
  8
0
100
AcDbLine
 10
0.325
 20
0.0
 30
0.0
 11
0.4
 21
0.0
 31
0.0
1001
ACAD
1000
TCW40_DEV_WIDTH
1002
{
1040
-3.0
1002
}
  0
ENDBLK
  5
1EC
100
AcDbEntity
  8
0
100
AcDbBlockEnd
  0
BLOCK
  5
1EE
100
AcDbEntity
  8
0
100
AcDbBlockBegin
  2
Transformer
 70
           2
 10
0.0
 20
0.0
 30
0.0
  3
Transformer
  1

  0
ATTDEF
  5
1EF
100
AcDbEntity
  8
0
  6
Continuous
100
AcDbText
 10
0.0
 20
0.0
 30
0.0
 40
0.000102310177
  1

  7
_TCW_TXTSTY_1
100
AcDbAttributeDefinition
  3

  2
ESTCODE
 70
           9
  0
ARC
  5
1F0
100
AcDbEntity
  8
0
100
AcDbCircle
 10
0.229167365204
 20
0.249999990332
 30
0.0
 40
0.054166670889
100
AcDbArc
 50
67.380137181067
 51
292.619896969879
1001
ACAD
1000
TCW40_DEV_WIDTH
1002
{
1040
-3.0
1002
}
  0
ARC
  5
1F1
100
AcDbEntity
  8
0
100
AcDbCircle
 10
0.020833365204
 20
0.249999990332
 30
0.0
 40
0.054166670889
100
AcDbArc
 50
-112.619901978835
 51
112.619901978835
1001
ACAD
1000
TCW40_DEV_WIDTH
1002
{
1040
-3.0
1002
}
  0
ARC
  5
1F2
100
AcDbEntity
  8
0
100
AcDbCircle
 10
0.229167365204
 20
0.349999990332
 30
0.0
 40
0.054166670889
100
AcDbArc
 50
67.380137181067
 51
292.619896969879
1001
ACAD
1000
TCW40_DEV_WIDTH
1002
{
1040
-3.0
1002
}
  0
ARC
  5
1F3
100
AcDbEntity
  8
0
100
AcDbCircle
 10
0.020833365204
 20
0.349999990332
 30
0.0
 40
0.054166670889
100
AcDbArc
 50
-112.619901978835
 51
112.619901978835
1001
ACAD
1000
TCW40_DEV_WIDTH
1002
{
1040
-3.0
1002
}
  0
ARC
  5
1F4
100
AcDbEntity
  8
0
100
AcDbCircle
 10
0.229167365204
 20
0.049999990332
 30
0.0
 40
0.054166670889
100
AcDbArc
 50
67.380137181067
 51
292.619896969879
1001
ACAD
1000
TCW40_DEV_WIDTH
1002
{
1040
-3.0
1002
}
  0
ARC
  5
1F5
100
AcDbEntity
  8
0
100
AcDbCircle
 10
0.020833365204
 20
0.049999990332
 30
0.0
 40
0.054166670889
100
AcDbArc
 50
-112.619901978835
 51
112.619901978835
1001
ACAD
1000
TCW40_DEV_WIDTH
1002
{
1040
-3.0
1002
}
  0
ARC
  5
1F6
100
AcDbEntity
  8
0
100
AcDbCircle
 10
0.229167365204
 20
0.149999990332
 30
0.0
 40
0.054166670889
100
AcDbArc
 50
67.380137181067
 51
292.619896969879
1001
ACAD
1000
TCW40_DEV_WIDTH
1002
{
1040
-3.0
1002
}
  0
LINE
  5
1F7
100
AcDbEntity
  8
0
100
AcDbLine
 10
0.150000365204
 20
0.399999990332
 30
0.0
 11
0.150000365204
 21
-0.000000009668
 31
0.0
1001
ACAD
1000
TCW40_DEV_WIDTH
1002
{
1040
-3.0
1002
}
  0
LINE
  5
1F8
100
AcDbEntity
  8
0
100
AcDbLine
 10
0.100000365204
 20
-0.000000009668
 30
0.0
 11
0.100000365204
 21
0.399999990332
 31
0.0
1001
ACAD
1000
TCW40_DEV_WIDTH
1002
{
1040
-3.0
1002
}
  0
ARC
  5
1F9
100
AcDbEntity
  8
0
100
AcDbCircle
 10
0.020833365204
 20
0.149999990332
 30
0.0
 40
0.054166670889
100
AcDbArc
 50
-112.619901978835
 51
112.619901978835
1001
ACAD
1000
TCW40_DEV_WIDTH
1002
{
1040
-3.0
1002
}
  0
ENDBLK
  5
1FA
100
AcDbEntity
  8
0
100
AcDbBlockEnd
  0
BLOCK
  5
1FC
100
AcDbEntity
  8
0
100
AcDbBlockBegin
  2
3-Phase Delta
 70
           2
 10
0.0
 20
0.0
 30
0.0
  3
3-Phase Delta
  1

  0
ATTDEF
  5
1FD
100
AcDbEntity
  8
0
  6
Continuous
100
AcDbText
 10
0.0
 20
0.0
 30
0.0
 40
0.000080200195
  1

  7
_TCW_TXTSTY_1
100
AcDbAttributeDefinition
  3

  2
ESTCODE
 70
           9
  0
LINE
  5
1FE
100
AcDbEntity
  8
0
100
AcDbLine
 10
0.16218
 20
-0.109395
 30
0.0
 11
0.0
 21
0.2
 31
0.0
1001
ACAD
1000
TCW40_DEV_WIDTH
1002
{
1040
-3.0
1002
}
  0
LINE
  5
1FF
100
AcDbEntity
  8
0
100
AcDbLine
 10
-0.16219
 20
-0.109395
 30
0.0
 11
0.16218
 21
-0.109395
 31
0.0
1001
ACAD
1000
TCW40_DEV_WIDTH
1002
{
1040
-3.0
1002
}
  0
LINE
  5
200
100
AcDbEntity
  8
0
100
AcDbLine
 10
0.0
 20
0.2
 30
0.0
 11
-0.16219
 21
-0.109395
 31
0.0
1001
ACAD
1000
TCW40_DEV_WIDTH
1002
{
1040
-3.0
1002
}
  0
LINE
  5
201
100
AcDbEntity
  8
0
100
AcDbLine
 10
0.07492
 20
-0.185437
 30
0.0
 11
0.0
 21
-0.2
 31
0.0
1001
ACAD
1000
TCW40_DEV_WIDTH
1002
{
1040
-3.0
1002
}
  0
LINE
  5
202
100
AcDbEntity
  8
0
100
AcDbLine
 10
0.13893
 20
-0.143868
 30
0.0
 11
0.07492
 21
-0.185437
 31
0.0
1001
ACAD
1000
TCW40_DEV_WIDTH
1002
{
1040
-3.0
1002
}
  0
LINE
  5
203
100
AcDbEntity
  8
0
100
AcDbLine
 10
0.18543
 20
-0.074921
 30
0.0
 11
0.13893
 21
-0.143868
 31
0.0
1001
ACAD
1000
TCW40_DEV_WIDTH
1002
{
1040
-3.0
1002
}
  0
LINE
  5
204
100
AcDbEntity
  8
0
100
AcDbLine
 10
0.2
 20
-0.000001
 30
0.0
 11
0.18543
 21
-0.074921
 31
0.0
1001
ACAD
1000
TCW40_DEV_WIDTH
1002
{
1040
-3.0
1002
}
  0
LINE
  5
205
100
AcDbEntity
  8
0
100
AcDbLine
 10
0.07492
 20
0.185437
 30
0.0
 11
0.0
 21
0.2
 31
0.0
1001
ACAD
1000
TCW40_DEV_WIDTH
1002
{
1040
-3.0
1002
}
  0
LINE
  5
206
100
AcDbEntity
  8
0
100
AcDbLine
 10
0.13893
 20
0.143868
 30
0.0
 11
0.07492
 21
0.185437
 31
0.0
1001
ACAD
1000
TCW40_DEV_WIDTH
1002
{
1040
-3.0
1002
}
  0
LINE
  5
207
100
AcDbEntity
  8
0
100
AcDbLine
 10
0.18543
 20
0.074921
 30
0.0
 11
0.13893
 21
0.143868
 31
0.0
1001
ACAD
1000
TCW40_DEV_WIDTH
1002
{
1040
-3.0
1002
}
  0
LINE
  5
208
100
AcDbEntity
  8
0
100
AcDbLine
 10
0.2
 20
0.0
 30
0.0
 11
0.18543
 21
0.074921
 31
0.0
1001
ACAD
1000
TCW40_DEV_WIDTH
1002
{
1040
-3.0
1002
}
  0
LINE
  5
209
100
AcDbEntity
  8
0
100
AcDbLine
 10
-0.07492
 20
-0.185437
 30
0.0
 11
0.0
 21
-0.2
 31
0.0
1001
ACAD
1000
TCW40_DEV_WIDTH
1002
{
1040
-3.0
1002
}
  0
LINE
  5
20A
100
AcDbEntity
  8
0
100
AcDbLine
 10
-0.13893
 20
-0.143868
 30
0.0
 11
-0.07492
 21
-0.185437
 31
0.0
1001
ACAD
1000
TCW40_DEV_WIDTH
1002
{
1040
-3.0
1002
}
  0
LINE
  5
20B
100
AcDbEntity
  8
0
100
AcDbLine
 10
-0.18544
 20
-0.074921
 30
0.0
 11
-0.13893
 21
-0.143868
 31
0.0
1001
ACAD
1000
TCW40_DEV_WIDTH
1002
{
1040
-3.0
1002
}
  0
LINE
  5
20C
100
AcDbEntity
  8
0
100
AcDbLine
 10
-0.2
 20
-0.000001
 30
0.0
 11
-0.18544
 21
-0.074921
 31
0.0
1001
ACAD
1000
TCW40_DEV_WIDTH
1002
{
1040
-3.0
1002
}
  0
LINE
  5
20D
100
AcDbEntity
  8
0
100
AcDbLine
 10
-0.07492
 20
0.185437
 30
0.0
 11
0.0
 21
0.2
 31
0.0
1001
ACAD
1000
TCW40_DEV_WIDTH
1002
{
1040
-3.0
1002
}
  0
LINE
  5
20E
100
AcDbEntity
  8
0
100
AcDbLine
 10
-0.13893
 20
0.143868
 30
0.0
 11
-0.07492
 21
0.185437
 31
0.0
1001
ACAD
1000
TCW40_DEV_WIDTH
1002
{
1040
-3.0
1002
}
  0
LINE
  5
20F
100
AcDbEntity
  8
0
100
AcDbLine
 10
-0.18544
 20
0.074921
 30
0.0
 11
-0.13893
 21
0.143868
 31
0.0
1001
ACAD
1000
TCW40_DEV_WIDTH
1002
{
1040
-3.0
1002
}
  0
LINE
  5
210
100
AcDbEntity
  8
0
100
AcDbLine
 10
-0.2
 20
0.0
 30
0.0
 11
-0.18544
 21
0.074921
 31
0.0
1001
ACAD
1000
TCW40_DEV_WIDTH
1002
{
1040
-3.0
1002
}
  0
ENDBLK
  5
211
100
AcDbEntity
  8
0
100
AcDbBlockEnd
  0
BLOCK
  5
213
100
AcDbEntity
  8
0
100
AcDbBlockBegin
  2
Inductor
 70
           2
 10
0.0
 20
0.0
 30
0.0
  3
Inductor
  1

  0
ATTDEF
  5
214
100
AcDbEntity
  8
0
  6
Continuous
100
AcDbText
 10
0.0
 20
0.0
 30
0.0
 40
0.000080200195
  1

  7
_TCW_TXTSTY_1
100
AcDbAttributeDefinition
  3

  2
ESTCODE
 70
           9
  0
ARC
  5
215
100
AcDbEntity
  8
0
100
AcDbCircle
 10
0.2
 20
0.0375
 30
0.0
 40
0.0625
100
AcDbArc
 50
-36.869900724673
 51
216.869902545906
1001
ACAD
1000
TCW40_DEV_WIDTH
1002
{
1040
-3.0
1002
}
  0
ARC
  5
216
100
AcDbEntity
  8
0
100
AcDbCircle
 10
0.1
 20
0.0375
 30
0.0
 40
0.0625
100
AcDbArc
 50
-36.869900724673
 51
216.869902545906
1001
ACAD
1000
TCW40_DEV_WIDTH
1002
{
1040
-3.0
1002
}
  0
LINE
  5
217
100
AcDbEntity
  8
0
100
AcDbLine
 10
0.0
 20
0.0
 30
0.0
 11
0.05
 21
0.0
 31
0.0
1001
ACAD
1000
TCW40_DEV_WIDTH
1002
{
1040
-3.0
1002
}
  0
ARC
  5
218
100
AcDbEntity
  8
0
100
AcDbCircle
 10
0.3
 20
0.0375
 30
0.0
 40
0.0625
100
AcDbArc
 50
-36.869900724673
 51
216.869902545906
1001
ACAD
1000
TCW40_DEV_WIDTH
1002
{
1040
-3.0
1002
}
  0
LINE
  5
219
100
AcDbEntity
  8
0
100
AcDbLine
 10
0.35
 20
0.0
 30
0.0
 11
0.4
 21
0.0
 31
0.0
1001
ACAD
1000
TCW40_DEV_WIDTH
1002
{
1040
-3.0
1002
}
  0
ENDBLK
  5
21A
100
AcDbEntity
  8
0
100
AcDbBlockEnd
  0
BLOCK
  5
21C
100
AcDbEntity
  8
0
100
AcDbBlockBegin
  2
Resistor
 70
           2
 10
0.0
 20
0.0
 30
0.0
  3
Resistor
  1

  0
ATTDEF
  5
21D
100
AcDbEntity
  8
0
  6
Continuous
100
AcDbText
 10
0.0
 20
0.0
 30
0.0
 40
0.000080200195
  1

  7
_TCW_TXTSTY_1
100
AcDbAttributeDefinition
  3

  2
ESTCODE
 70
           9
  0
LWPOLYLINE
  5
21E
100
AcDbEntity
  8
0
100
AcDbPolyline
 90
       10
 70
           0
 10
0.0
 20
0.0
 10
0.05
 20
0.0
 10
0.075
 20
0.025
 10
0.125
 20
-0.025
 10
0.175
 20
0.025
 10
0.225
 20
-0.025
 10
0.275
 20
0.025
 10
0.325
 20
-0.025
 10
0.35
 20
0.0
 10
0.4
 20
0.0
1001
ACAD
1000
TCW40_DEV_WIDTH
1002
{
1040
-3.0
1002
}
  0
ENDBLK
  5
21F
100
AcDbEntity
  8
0
100
AcDbBlockEnd
  0
BLOCK
  5
221
100
AcDbEntity
  8
0
100
AcDbBlockBegin
  2
Capacitor
 70
           2
 10
0.0
 20
0.0
 30
0.0
  3
Capacitor
  1

  0
ATTDEF
  5
222
100
AcDbEntity
  8
0
  6
Continuous
100
AcDbText
 10
0.0
 20
0.0
 30
0.0
 40
0.000080200195
  1

  7
_TCW_TXTSTY_1
100
AcDbAttributeDefinition
  3

  2
ESTCODE
 70
           9
  0
LINE
  5
223
100
AcDbEntity
  8
0
100
AcDbLine
 10
0.15
 20
-0.1
 30
0.0
 11
0.15
 21
0.1
 31
0.0
1001
ACAD
1000
TCW40_DEV_WIDTH
1002
{
1040
-3.0
1002
}
  0
LINE
  5
224
100
AcDbEntity
  8
0
100
AcDbLine
 10
0.15
 20
0.0
 30
0.0
 11
0.0
 21
0.0
 31
0.0
1001
ACAD
1000
TCW40_DEV_WIDTH
1002
{
1040
-3.0
1002
}
  0
ARC
  5
225
100
AcDbEntity
  8
0
100
AcDbCircle
 10
0.4375
 20
0.0
 30
0.0
 40
0.21250000596
100
AcDbArc
 50
151.927504048475
 51
208.072495951525
1001
ACAD
1000
TCW40_DEV_WIDTH
1002
{
1040
-3.0
1002
}
  0
LINE
  5
226
100
AcDbEntity
  8
0
100
AcDbLine
 10
0.225
 20
0.0
 30
0.0
 11
0.4
 21
0.0
 31
0.0
1001
ACAD
1000
TCW40_DEV_WIDTH
1002
{
1040
-3.0
1002
}
  0
ENDBLK
  5
227
100
AcDbEntity
  8
0
100
AcDbBlockEnd
  0
BLOCK
  5
229
100
AcDbEntity
  8
0
100
AcDbBlockBegin
  2
Locking Switch Open
 70
           2
 10
0.0
 20
0.0
 30
0.0
  3
Locking Switch Open
  1

  0
ATTDEF
  5
22A
100
AcDbEntity
  8
0
  6
Continuous
100
AcDbText
 10
0.0
 20
0.0
 30
0.0
 40
0.000082214357
  1

  7
_TCW_TXTSTY_1
100
AcDbAttributeDefinition
  3

  2
ESTCODE
 70
           9
  0
ARC
  5
22B
100
AcDbEntity
  8
0
100
AcDbCircle
 10
0.35
 20
0.0
 30
0.0
 40
0.025000000373
100
AcDbArc
 50
90.0
 51
179.99989572593
1001
ACAD
1000
TCW40_DEV_WIDTH
1002
{
1040
-3.0
1002
}
  0
ARC
  5
22C
100
AcDbEntity
  8
0
100
AcDbCircle
 10
0.35
 20
0.0
 30
0.0
 40
0.025000000373
100
AcDbArc
 50
0.000126585896
 51
90.000002504478
1001
ACAD
1000
TCW40_DEV_WIDTH
1002
{
1040
-3.0
1002
}
  0
ARC
  5
22D
100
AcDbEntity
  8
0
100
AcDbCircle
 10
0.35
 20
0.0
 30
0.0
 40
0.025000000373
100
AcDbArc
 50
-179.99989572593
 51
-90.000002504478
1001
ACAD
1000
TCW40_DEV_WIDTH
1002
{
1040
-3.0
1002
}
  0
ARC
  5
22E
100
AcDbEntity
  8
0
100
AcDbCircle
 10
0.35
 20
0.0
 30
0.0
 40
0.025000000373
100
AcDbArc
 50
-90.0
 51
-0.000099999997
1001
ACAD
1000
TCW40_DEV_WIDTH
1002
{
1040
-3.0
1002
}
  0
ARC
  5
22F
100
AcDbEntity
  8
0
100
AcDbCircle
 10
0.0
 20
0.0
 30
0.0
 40
0.025000000373
100
AcDbArc
 50
90.0
 51
179.99989572593
1001
ACAD
1000
TCW40_DEV_WIDTH
1002
{
1040
-3.0
1002
}
  0
ARC
  5
230
100
AcDbEntity
  8
0
100
AcDbCircle
 10
0.0
 20
0.0
 30
0.0
 40
0.025000000373
100
AcDbArc
 50
0.000126585896
 51
90.000002504478
1001
ACAD
1000
TCW40_DEV_WIDTH
1002
{
1040
-3.0
1002
}
  0
ARC
  5
231
100
AcDbEntity
  8
0
100
AcDbCircle
 10
0.0
 20
0.0
 30
0.0
 40
0.025000000373
100
AcDbArc
 50
-179.99989572593
 51
-90.000002504478
1001
ACAD
1000
TCW40_DEV_WIDTH
1002
{
1040
-3.0
1002
}
  0
ARC
  5
232
100
AcDbEntity
  8
0
100
AcDbCircle
 10
0.0
 20
0.0
 30
0.0
 40
0.025000000373
100
AcDbArc
 50
-90.0
 51
-0.000099999997
1001
ACAD
1000
TCW40_DEV_WIDTH
1002
{
1040
-3.0
1002
}
  0
LINE
  5
233
100
AcDbEntity
  8
0
100
AcDbLine
 10
0.023056
 20
0.009223
 30
0.0
 11
0.375
 21
0.1
 31
0.0
1001
ACAD
1000
TCW40_DEV_WIDTH
1002
{
1040
-3.0
1002
}
  0
ENDBLK
  5
234
100
AcDbEntity
  8
0
100
AcDbBlockEnd
  0
BLOCK
  5
236
100
AcDbEntity
  8
0
100
AcDbBlockBegin
  2
Power Ground
 70
           2
 10
0.0
 20
0.0
 30
0.0
  3
Power Ground
  1

  0
ATTDEF
  5
237
100
AcDbEntity
  8
0
  6
Continuous
100
AcDbText
 10
0.0
 20
0.0
 30
0.0
 40
0.000042114255
  1

  7
_TCW_TXTSTY_1
100
AcDbAttributeDefinition
  3

  2
ESTCODE
 70
           9
  0
LINE
  5
238
100
AcDbEntity
  8
0
100
AcDbLine
 10
-0.05
 20
-0.1
 30
0.0
 11
0.05
 21
-0.1
 31
0.0
1001
ACAD
1000
TCW40_DEV_WIDTH
1002
{
1040
-3.0
1002
}
  0
LINE
  5
239
100
AcDbEntity
  8
0
100
AcDbLine
 10
0.075
 20
-0.05
 30
0.0
 11
-0.075
 21
-0.05
 31
0.0
1001
ACAD
1000
TCW40_DEV_WIDTH
1002
{
1040
-3.0
1002
}
  0
LINE
  5
23A
100
AcDbEntity
  8
0
100
AcDbLine
 10
-0.1
 20
0.0
 30
0.0
 11
0.1
 21
0.0
 31
0.0
1001
ACAD
1000
TCW40_DEV_WIDTH
1002
{
1040
-3.0
1002
}
  0
ENDBLK
  5
23B
100
AcDbEntity
  8
0
100
AcDbBlockEnd
  0
BLOCK
  5
23D
100
AcDbEntity
  8
0
100
AcDbBlockBegin
  2
A$C03040EC0
 70
           0
 10
0.0
 20
0.0
 30
0.0
  3
A$C03040EC0
  1

  0
INSERT
  5
23E
100
AcDbEntity
  8
0
100
AcDbBlockReference
  2
Resistor
 10
0.0
 20
0.024999997276
 30
0.0
  0
ENDBLK
  5
23F
100
AcDbEntity
  8
0
100
AcDbBlockEnd
  0
BLOCK
  5
241
100
AcDbEntity
  8
0
100
AcDbBlockBegin
  2
A$C6A19271A
 70
           0
 10
0.0
 20
0.0
 30
0.0
  3
A$C6A19271A
  1

  0
CIRCLE
  5
242
100
AcDbEntity
  8
0
100
AcDbCircle
 10
0.024999990254
 20
0.025000003034
 30
0.0
 40
0.025000000373
  0
ENDBLK
  5
243
100
AcDbEntity
  8
0
100
AcDbBlockEnd
  0
BLOCK
  5
245
100
AcDbEntity
  8
0
100
AcDbBlockBegin
  2
Ohm Symbol
 70
           2
 10
0.0
 20
0.0
 30
0.0
  3
Ohm Symbol
  1

  0
ATTDEF
  5
246
100
AcDbEntity
  8
0
  6
Continuous
100
AcDbText
 10
0.0
 20
0.0
 30
0.0
 40
0.000018539426
  1

  7
_TCW_TXTSTY_1
100
AcDbAttributeDefinition
  3

  2
ESTCODE
 70
           9
  0
LINE
  5
247
100
AcDbEntity
  8
0
100
AcDbLine
 10
0.05
 20
0.0
 30
0.0
 11
0.07
 21
0.0
 31
0.0
1001
ACAD
1000
TCW40_DEV_WIDTH
1002
{
1040
-3.0
1002
}
  0
LINE
  5
248
100
AcDbEntity
  8
0
100
AcDbLine
 10
0.0
 20
0.0
 30
0.0
 11
0.02
 21
0.0
 31
0.0
1001
ACAD
1000
TCW40_DEV_WIDTH
1002
{
1040
-3.0
1002
}
  0
ARC
  5
249
100
AcDbEntity
  8
0
100
AcDbCircle
 10
0.035
 20
0.033393
 30
0.0
 40
0.036607138813
100
AcDbArc
 50
-65.810498238095
 51
245.810500059328
1001
ACAD
1000
TCW40_DEV_WIDTH
1002
{
1040
-3.0
1002
}
  0
ENDBLK
  5
24A
100
AcDbEntity
  8
0
100
AcDbBlockEnd
  0
BLOCK
  5
24C
100
AcDbEntity
  8
0
100
AcDbBlockBegin
  2
Rheostat
 70
           2
 10
0.0
 20
0.0
 30
0.0
  3
Rheostat
  1

  0
ATTDEF
  5
24D
100
AcDbEntity
  8
0
  6
Continuous
100
AcDbText
 10
0.0
 20
0.0
 30
0.0
 40
0.000080200195
  1

  7
_TCW_TXTSTY_1
100
AcDbAttributeDefinition
  3

  2
ESTCODE
 70
           9
  0
LINE
  5
24E
100
AcDbEntity
  8
0
100
AcDbLine
 10
0.350001
 20
0.0
 30
0.0
 11
0.400002
 21
0.0
 31
0.0
1001
ACAD
1000
TCW40_DEV_WIDTH
1002
{
1040
-3.0
1002
}
  0
LINE
  5
24F
100
AcDbEntity
  8
0
100
AcDbLine
 10
0.350001
 20
0.0
 30
0.0
 11
0.325
 21
-0.025001
 31
0.0
1001
ACAD
1000
TCW40_DEV_WIDTH
1002
{
1040
-3.0
1002
}
  0
LINE
  5
250
100
AcDbEntity
  8
0
100
AcDbLine
 10
0.275001
 20
0.025
 30
0.0
 11
0.325
 21
-0.025001
 31
0.0
1001
ACAD
1000
TCW40_DEV_WIDTH
1002
{
1040
-3.0
1002
}
  0
LINE
  5
251
100
AcDbEntity
  8
0
100
AcDbLine
 10
0.2
 20
0.075
 30
0.0
 11
0.2
 21
0.15
 31
0.0
1001
ACAD
1000
TCW40_DEV_WIDTH
1002
{
1040
-3.0
1002
}
  0
LINE
  5
252
100
AcDbEntity
  8
0
100
AcDbLine
 10
0.175001
 20
0.075
 30
0.0
 11
0.225001
 21
0.075
 31
0.0
1001
ACAD
1000
TCW40_DEV_WIDTH
1002
{
1040
-3.0
1002
}
  0
LINE
  5
253
100
AcDbEntity
  8
0
100
AcDbLine
 10
0.175001
 20
0.025
 30
0.0
 11
0.225001
 21
-0.025001
 31
0.0
1001
ACAD
1000
TCW40_DEV_WIDTH
1002
{
1040
-3.0
1002
}
  0
LINE
  5
254
100
AcDbEntity
  8
0
100
AcDbLine
 10
0.125
 20
-0.025001
 30
0.0
 11
0.175001
 21
0.025
 31
0.0
1001
ACAD
1000
TCW40_DEV_WIDTH
1002
{
1040
-3.0
1002
}
  0
LINE
  5
255
100
AcDbEntity
  8
0
100
AcDbLine
 10
0.225001
 20
0.075
 30
0.0
 11
0.2
 21
0.0
 31
0.0
1001
ACAD
1000
TCW40_DEV_WIDTH
1002
{
1040
-3.0
1002
}
  0
LINE
  5
256
100
AcDbEntity
  8
0
100
AcDbLine
 10
0.2
 20
0.0
 30
0.0
 11
0.175001
 21
0.075
 31
0.0
1001
ACAD
1000
TCW40_DEV_WIDTH
1002
{
1040
-3.0
1002
}
  0
LINE
  5
257
100
AcDbEntity
  8
0
100
AcDbLine
 10
0.225001
 20
-0.025001
 30
0.0
 11
0.275001
 21
0.025
 31
0.0
1001
ACAD
1000
TCW40_DEV_WIDTH
1002
{
1040
-3.0
1002
}
  0
LINE
  5
258
100
AcDbEntity
  8
0
100
AcDbLine
 10
0.050001
 20
0.0
 30
0.0
 11
0.075
 21
0.025
 31
0.0
1001
ACAD
1000
TCW40_DEV_WIDTH
1002
{
1040
-3.0
1002
}
  0
LINE
  5
259
100
AcDbEntity
  8
0
100
AcDbLine
 10
0.0
 20
0.0
 30
0.0
 11
0.050001
 21
0.0
 31
0.0
1001
ACAD
1000
TCW40_DEV_WIDTH
1002
{
1040
-3.0
1002
}
  0
LINE
  5
25A
100
AcDbEntity
  8
0
100
AcDbLine
 10
0.075
 20
0.025
 30
0.0
 11
0.125
 21
-0.025001
 31
0.0
1001
ACAD
1000
TCW40_DEV_WIDTH
1002
{
1040
-3.0
1002
}
  0
ENDBLK
  5
25B
100
AcDbEntity
  8
0
100
AcDbBlockEnd
  0
BLOCK
  5
25D
100
AcDbEntity
  8
0
100
AcDbBlockBegin
  2
A$C08006EF5
 70
           0
 10
0.0
 20
0.0
 30
0.0
  3
A$C08006EF5
  1

  0
LWPOLYLINE
  5
25E
100
AcDbEntity
  8
0
100
AcDbPolyline
 90
        4
 70
           1
 10
1.199999993192
 20
1.474999996337
 10
-0.000000006808
 20
1.474999996337
 10
-0.000000006808
 20
0.174999996337
 10
1.199999993192
 20
0.174999996337
1001
ACAD
1000
TCW40_DEV_WIDTH
1002
{
1040
-3.0
1002
}
  0
LINE
  5
25F
100
AcDbEntity
  8
0
100
AcDbLine
 10
0.599999993192
 20
1.574999996337
 30
0.0
 11
0.599999993192
 21
0.874999996337
 31
0.0
1001
ACAD
1000
TCW40_DEV_WIDTH
1002
{
1040
-3.0
1002
}
  0
LINE
  5
260
100
AcDbEntity
  8
0
100
AcDbLine
 10
0.999999993192
 20
1.574999996337
 30
0.0
 11
0.999999993192
 21
0.874999996337
 31
0.0
1001
ACAD
1000
TCW40_DEV_WIDTH
1002
{
1040
-3.0
1002
}
  0
INSERT
  5
261
100
AcDbEntity
  8
0
100
AcDbBlockReference
  2
Rheostat
 10
0.599999993192
 20
1.174999996337
 30
0.0
  0
TEXT
  5
263
100
AcDbEntity
  8
0
  6
Continuous
100
AcDbText
 10
0.699999993192
 20
-0.025000003663
 30
0.0
 40
0.075
  1
L1
  7
_TCW_TXTSTY_2
100
AcDbText
1001
TCAD
1000
TCW40_TEXT
1002
{
1000
txt.shx
1070
           0
1070
        1025
1002
}
  0
TEXT
  5
264
100
AcDbEntity
  8
0
  6
Continuous
100
AcDbText
 10
0.677056417113
 20
1.009082394457
 30
0.0
 40
0.075
  1
15k
  7
_TCW_TXTSTY_2
100
AcDbText
1001
TCAD
1000
TCW40_TEXT
1002
{
1000
txt.shx
1070
           0
1070
        1025
1002
}
  0
LINE
  5
265
100
AcDbEntity
  8
0
100
AcDbLine
 10
0.599999993192
 20
0.474999996337
 30
0.0
 11
0.599999993192
 21
0.074999996337
 31
0.0
1001
ACAD
1000
TCW40_DEV_WIDTH
1002
{
1040
-3.0
1002
}
  0
LINE
  5
266
100
AcDbEntity
  8
0
100
AcDbLine
 10
0.199999993192
 20
0.474999996337
 30
0.0
 11
0.199999993192
 21
0.074999996337
 31
0.0
1001
ACAD
1000
TCW40_DEV_WIDTH
1002
{
1040
-3.0
1002
}
  0
TEXT
  5
267
100
AcDbEntity
  8
0
  6
Continuous
100
AcDbText
 10
0.299999993192
 20
-0.025000003663
 30
0.0
 40
0.075
  1
P2
  7
_TCW_TXTSTY_2
100
AcDbText
1001
TCAD
1000
TCW40_TEXT
1002
{
1000
txt.shx
1070
           0
1070
        1025
1002
}
  0
CIRCLE
  5
268
100
AcDbEntity
  8
0
100
AcDbCircle
 10
0.199999993192
 20
0.049999996337
 30
0.0
 40
0.025000000373
  0
CIRCLE
  5
269
100
AcDbEntity
  8
0
100
AcDbCircle
 10
0.599999993192
 20
0.049999996337
 30
0.0
 40
0.025000000373
  0
LINE
  5
26A
100
AcDbEntity
  8
0
100
AcDbLine
 10
0.199999993192
 20
1.174999996337
 30
0.0
 11
0.599999993192
 21
1.174999996337
 31
0.0
1001
ACAD
1000
TCW40_DEV_WIDTH
1002
{
1040
-3.0
1002
}
  0
LINE
  5
26B
100
AcDbEntity
  8
0
100
AcDbLine
 10
0.099999988126
 20
0.474999997623
 30
0.0
 11
0.175423403372
 21
0.854581642007
 31
0.0
1001
ACAD
1000
TCW40_DEV_WIDTH
1002
{
1040
-3.0
1002
}
  0
CIRCLE
  5
26C
100
AcDbEntity
  8
0
100
AcDbCircle
 10
0.199999988126
 20
0.499999997623
 30
0.0
 40
0.025000000373
  0
LINE
  5
26D
100
AcDbEntity
  8
0
100
AcDbLine
 10
0.199999993192
 20
0.874999996337
 30
0.0
 11
0.199999993192
 21
1.174999996337
 31
0.0
1001
ACAD
1000
TCW40_DEV_WIDTH
1002
{
1040
-3.0
1002
}
  0
CIRCLE
  5
26E
100
AcDbEntity
  8
0
100
AcDbCircle
 10
0.199999988126
 20
0.849999995819
 30
0.0
 40
0.025000000373
  0
LINE
  5
26F
100
AcDbEntity
  8
0
100
AcDbLine
 10
0.499999988126
 20
0.474999997623
 30
0.0
 11
0.575423403372
 21
0.854581642007
 31
0.0
1001
ACAD
1000
TCW40_DEV_WIDTH
1002
{
1040
-3.0
1002
}
  0
CIRCLE
  5
270
100
AcDbEntity
  8
0
100
AcDbCircle
 10
0.599999988126
 20
0.499999997623
 30
0.0
 40
0.025000000373
  0
CIRCLE
  5
271
100
AcDbEntity
  8
0
100
AcDbCircle
 10
0.599999988126
 20
0.849999995819
 30
0.0
 40
0.025000000373
  0
LINE
  5
272
100
AcDbEntity
  8
0
100
AcDbLine
 10
0.999999993192
 20
0.474999996337
 30
0.0
 11
0.999999993192
 21
0.074999996337
 31
0.0
1001
ACAD
1000
TCW40_DEV_WIDTH
1002
{
1040
-3.0
1002
}
  0
CIRCLE
  5
273
100
AcDbEntity
  8
0
100
AcDbCircle
 10
0.999999993192
 20
0.049999996337
 30
0.0
 40
0.025000000373
  0
TEXT
  5
274
100
AcDbEntity
  8
0
  6
Continuous
100
AcDbText
 10
1.099999993192
 20
-0.025000003663
 30
0.0
 40
0.075
  1
L2
  7
_TCW_TXTSTY_2
100
AcDbText
1001
TCAD
1000
TCW40_TEXT
1002
{
1000
txt.shx
1070
           0
1070
        1025
1002
}
  0
LINE
  5
275
100
AcDbEntity
  8
0
100
AcDbLine
 10
0.899999996723
 20
0.474999996337
 30
0.0
 11
0.975423411968
 21
0.854581640721
 31
0.0
1001
ACAD
1000
TCW40_DEV_WIDTH
1002
{
1040
-3.0
1002
}
  0
CIRCLE
  5
276
100
AcDbEntity
  8
0
100
AcDbCircle
 10
0.999999996723
 20
0.499999996337
 30
0.0
 40
0.025000000373
  0
CIRCLE
  5
277
100
AcDbEntity
  8
0
100
AcDbCircle
 10
0.999999996723
 20
0.849999994533
 30
0.0
 40
0.025000000373
  0
INSERT
  5
278
100
AcDbEntity
  8
0
100
AcDbBlockReference
  2
Ohm Symbol
 10
0.874965595097
 20
1.035514288424
 30
0.0
  0
TEXT
  5
279
100
AcDbEntity
  8
0
  6
Continuous
100
AcDbText
 10
0.699999993192
 20
1.574999996337
 30
0.0
 40
0.075
  1
H1
  7
_TCW_TXTSTY_2
100
AcDbText
1001
TCAD
1000
TCW40_TEXT
1002
{
1000
txt.shx
1070
           0
1070
        1025
1002
}
  0
CIRCLE
  5
27A
100
AcDbEntity
  8
0
100
AcDbCircle
 10
0.599999993192
 20
1.599999996337
 30
0.0
 40
0.025000000373
  0
CIRCLE
  5
27B
100
AcDbEntity
  8
0
100
AcDbCircle
 10
0.999999993192
 20
1.599999996337
 30
0.0
 40
0.025000000373
  0
TEXT
  5
27C
100
AcDbEntity
  8
0
  6
Continuous
100
AcDbText
 10
1.099999993192
 20
1.574999996337
 30
0.0
 40
0.075
  1
H2
  7
_TCW_TXTSTY_2
100
AcDbText
1001
TCAD
1000
TCW40_TEXT
1002
{
1000
txt.shx
1070
           0
1070
        1025
1002
}
  0
ENDBLK
  5
27D
100
AcDbEntity
  8
0
100
AcDbBlockEnd
  0
BLOCK
  5
27F
100
AcDbEntity
  8
0
100
AcDbBlockBegin
  2
A$C26A43B7E
 70
           0
 10
0.0
 20
0.0
 30
0.0
  3
A$C26A43B7E
  1

  0
LINE
  5
280
100
AcDbEntity
  8
0
100
AcDbLine
 10
0.09999998706
 20
-0.000000005112
 30
0.0
 11
0.100000001573
 21
0.099999993245
 31
0.0
1001
ACAD
1000
TCW40_DEV_WIDTH
1002
{
1040
-3.0
1002
}
  0
LINE
  5
281
100
AcDbEntity
  8
0
100
AcDbLine
 10
0.49999998706
 20
-0.000000005112
 30
0.0
 11
0.500000001573
 21
0.099999993245
 31
0.0
1001
ACAD
1000
TCW40_DEV_WIDTH
1002
{
1040
-3.0
1002
}
  0
ARC
  5
282
100
AcDbEntity
  8
0
100
AcDbCircle
 10
0.500000001573
 20
0.199999993245
 30
0.0
 40
0.10000000149
100
AcDbArc
 50
90.0
 51
269.999997495522
1001
ACAD
1000
TCW40_DEV_WIDTH
1002
{
1040
-3.0
1002
}
  0
ARC
  5
283
100
AcDbEntity
  8
0
100
AcDbCircle
 10
0.100000001573
 20
0.199999993245
 30
0.0
 40
0.10000000149
100
AcDbArc
 50
90.0
 51
269.999997495522
1001
ACAD
1000
TCW40_DEV_WIDTH
1002
{
1040
-3.0
1002
}
  0
ENDBLK
  5
284
100
AcDbEntity
  8
0
100
AcDbBlockEnd
  0
BLOCK
  5
286
100
AcDbEntity
  8
0
100
AcDbBlockBegin
  2
A$C06E97278
 70
           0
 10
0.0
 20
0.0
 30
0.0
  3
A$C06E97278
  1

  0
LINE
  5
287
100
AcDbEntity
  8
0
100
AcDbLine
 10
0.100000001735
 20
0.700000000871
 30
0.0
 11
0.100000001735
 21
0.799999998358
 31
0.0
1001
ACAD
1000
TCW40_DEV_WIDTH
1002
{
1040
-3.0
1002
}
  0
LINE
  5
288
100
AcDbEntity
  8
0
100
AcDbLine
 10
0.100000014513
 20
-0.000000001642
 30
0.0
 11
0.100000014513
 21
0.199999998358
 31
0.0
1001
ACAD
1000
TCW40_DEV_WIDTH
1002
{
1040
-3.0
1002
}
  0
LINE
  5
289
100
AcDbEntity
  8
0
100
AcDbLine
 10
0.100000024216
 20
0.399999999615
 30
0.0
 11
0.100000024216
 21
0.499999999615
 31
0.0
1001
ACAD
1000
TCW40_DEV_WIDTH
1002
{
1040
-3.0
1002
}
  0
ARC
  5
28A
100
AcDbEntity
  8
0
100
AcDbCircle
 10
0.100000014513
 20
0.299999998358
 30
0.0
 40
0.10000000149
100
AcDbArc
 50
90.0
 51
269.999997495522
1001
ACAD
1000
TCW40_DEV_WIDTH
1002
{
1040
-3.0
1002
}
  0
ARC
  5
28B
100
AcDbEntity
  8
0
100
AcDbCircle
 10
0.100000024216
 20
0.599999999615
 30
0.0
 40
0.10000000149
100
AcDbArc
 50
90.0
 51
269.999997495522
1001
ACAD
1000
TCW40_DEV_WIDTH
1002
{
1040
-3.0
1002
}
  0
ARC
  5
28C
100
AcDbEntity
  8
0
100
AcDbCircle
 10
0.100000011438
 20
1.199999999615
 30
0.0
 40
0.10000000149
100
AcDbArc
 50
90.0
 51
269.999997495522
1001
ACAD
1000
TCW40_DEV_WIDTH
1002
{
1040
-3.0
1002
}
  0
ARC
  5
28D
100
AcDbEntity
  8
0
100
AcDbCircle
 10
0.100000001735
 20
0.899999998358
 30
0.0
 40
0.10000000149
100
AcDbArc
 50
90.0
 51
269.999997495522
1001
ACAD
1000
TCW40_DEV_WIDTH
1002
{
1040
-3.0
1002
}
  0
LINE
  5
28E
100
AcDbEntity
  8
0
100
AcDbLine
 10
0.100000011438
 20
0.999999999615
 30
0.0
 11
0.100000011438
 21
1.099999999615
 31
0.0
1001
ACAD
1000
TCW40_DEV_WIDTH
1002
{
1040
-3.0
1002
}
  0
ENDBLK
  5
28F
100
AcDbEntity
  8
0
100
AcDbBlockEnd
  0
BLOCK
  5
291
100
AcDbEntity
  8
0
100
AcDbBlockBegin
  2
A$C3881095A
 70
           0
 10
0.0
 20
0.0
 30
0.0
  3
A$C3881095A
  1

  0
LWPOLYLINE
  5
292
100
AcDbEntity
  8
0
100
AcDbPolyline
 90
        4
 70
           1
 10
0.000000001627
 20
1.800000004483
 10
1.200000001627
 20
1.800000004483
 10
1.200000001627
 20
0.000000004483
 10
0.000000001627
 20
0.000000004483
1001
ACAD
1000
TCW40_DEV_WIDTH
1002
{
1040
-3.0
1002
}
  0
LINE
  5
293
100
AcDbEntity
  8
0
100
AcDbLine
 10
0.400000001627
 20
1.800000004483
 30
0.0
 11
0.400000001627
 21
3.000000004483
 31
0.0
1001
ACAD
1000
TCW40_DEV_WIDTH
1002
{
1040
-3.0
1002
}
  0
LINE
  5
294
100
AcDbEntity
  8
0
100
AcDbLine
 10
0.800000001627
 20
3.000000004483
 30
0.0
 11
0.800000001627
 21
1.800000004483
 31
0.0
1001
ACAD
1000
TCW40_DEV_WIDTH
1002
{
1040
-3.0
1002
}
  0
TEXT
  5
295
100
AcDbEntity
  8
0
  6
Continuous
100
AcDbText
 10
0.100000001627
 20
1.300000004483
 30
0.0
 40
0.075
  1
1
  7
_TCW_TXTSTY_2
100
AcDbText
1001
TCAD
1000
TCW40_TEXT
1002
{
1000
txt.shx
1070
           0
1070
        1025
1002
}
  0
ENDBLK
  5
296
100
AcDbEntity
  8
0
100
AcDbBlockEnd
  0
BLOCK
  5
298
100
AcDbEntity
  8
0
100
AcDbBlockBegin
  2
A$C7C7A5DC8
 70
           0
 10
0.0
 20
0.0
 30
0.0
  3
A$C7C7A5DC8
  1

  0
TEXT
  5
299
100
AcDbEntity
  8
0
  6
Continuous
100
AcDbText
 10
0.0
 20
-0.024999997923
 30
0.0
 40
0.075
  1
3
  7
_TCW_TXTSTY_2
100
AcDbText
1001
TCAD
1000
TCW40_TEXT
1002
{
1000
txt.shx
1070
           0
1070
        1025
1002
}
  0
ENDBLK
  5
29A
100
AcDbEntity
  8
0
100
AcDbBlockEnd
  0
BLOCK
  5
29C
100
AcDbEntity
  8
0
100
AcDbBlockBegin
  2
A$C4FB532C2
 70
           0
 10
0.0
 20
0.0
 30
0.0
  3
A$C4FB532C2
  1

  0
LINE
  5
29D
100
AcDbEntity
  8
0
100
AcDbLine
 10
-0.000000011067
 20
0.899999998243
 30
0.0
 11
7.899999988933
 21
0.899999998243
 31
0.0
1001
ACAD
1000
TCW40_DEV_WIDTH
1002
{
1040
-3.0
1002
}
  0
LINE
  5
29E
100
AcDbEntity
  8
0
100
AcDbLine
 10
0.399999988933
 20
0.599999998243
 30
0.0
 11
7.899999988933
 21
0.599999998243
 31
0.0
1001
ACAD
1000
TCW40_DEV_WIDTH
1002
{
1040
-3.0
1002
}
  0
LINE
  5
29F
100
AcDbEntity
  8
0
100
AcDbLine
 10
3.399999988933
 20
0.299999998243
 30
0.0
 11
7.899999988933
 21
0.299999998243
 31
0.0
1001
ACAD
1000
TCW40_DEV_WIDTH
1002
{
1040
-3.0
1002
}
  0
LINE
  5
2A0
100
AcDbEntity
  8
0
100
AcDbLine
 10
6.399999988933
 20
-0.000000001757
 30
0.0
 11
7.899999988933
 21
-0.000000001757
 31
0.0
1001
ACAD
1000
TCW40_DEV_WIDTH
1002
{
1040
-3.0
1002
}
  0
CIRCLE
  5
2A1
100
AcDbEntity
  8
0
100
AcDbCircle
 10
8.840536342616
 20
1.083146054612
 30
0.0
 40
0.025000000373
  0
ENDBLK
  5
2A2
100
AcDbEntity
  8
0
100
AcDbBlockEnd
  0
BLOCK
  5
2A4
100
AcDbEntity
  8
0
100
AcDbBlockBegin
  2
A$C581B394E
 70
           0
 10
0.0
 20
0.0
 30
0.0
  3
A$C581B394E
  1

  0
TEXT
  5
2A5
100
AcDbEntity
  8
0
  6
Continuous
100
AcDbText
 10
0.0
 20
-0.025000002877
 30
0.0
 40
0.075
  1
1
  7
_TCW_TXTSTY_2
100
AcDbText
1001
TCAD
1000
TCW40_TEXT
1002
{
1000
txt.shx
1070
           0
1070
        1025
1002
}
  0
TEXT
  5
2A6
100
AcDbEntity
  8
0
  6
Continuous
100
AcDbText
 10
0.191746627716
 20
-0.025000002877
 30
0.0
 40
0.075
  1
2
  7
_TCW_TXTSTY_2
100
AcDbText
1001
TCAD
1000
TCW40_TEXT
1002
{
1000
txt.shx
1070
           0
1070
        1025
1002
}
  0
TEXT
  5
2A7
100
AcDbEntity
  8
0
  6
Continuous
100
AcDbText
 10
0.399640324072
 20
-0.025000002877
 30
0.0
 40
0.075
  1
3
  7
_TCW_TXTSTY_2
100
AcDbText
1001
TCAD
1000
TCW40_TEXT
1002
{
1000
txt.shx
1070
           0
1070
        1025
1002
}
  0
TEXT
  5
2A8
100
AcDbEntity
  8
0
  6
Continuous
100
AcDbText
 10
0.595423724549
 20
-0.025000002877
 30
0.0
 40
0.075
  1
4
  7
_TCW_TXTSTY_2
100
AcDbText
1001
TCAD
1000
TCW40_TEXT
1002
{
1000
txt.shx
1070
           0
1070
        1025
1002
}
  0
ENDBLK
  5
2A9
100
AcDbEntity
  8
0
100
AcDbBlockEnd
  0
BLOCK
  5
2AB
100
AcDbEntity
  8
0
100
AcDbBlockBegin
  2
A$C25FD3304
 70
           0
 10
0.0
 20
0.0
 30
0.0
  3
A$C25FD3304
  1

  0
TEXT
  5
2AC
100
AcDbEntity
  8
0
  6
Continuous
100
AcDbText
 10
0.0
 20
-0.025000005448
 30
0.0
 40
0.075
  1
10
  7
_TCW_TXTSTY_2
100
AcDbText
1001
TCAD
1000
TCW40_TEXT
1002
{
1000
txt.shx
1070
           0
1070
        1025
1002
}
  0
ENDBLK
  5
2AD
100
AcDbEntity
  8
0
100
AcDbBlockEnd
  0
BLOCK
  5
2AF
100
AcDbEntity
  8
0
100
AcDbBlockBegin
  2
A$C79987CD6
 70
           0
 10
0.0
 20
0.0
 30
0.0
  3
A$C79987CD6
  1

  0
TEXT
  5
2B0
100
AcDbEntity
  8
0
  6
Continuous
100
AcDbText
 10
0.0
 20
-0.025000005448
 30
0.0
 40
0.075
  1
10
  7
_TCW_TXTSTY_2
100
AcDbText
1001
TCAD
1000
TCW40_TEXT
1002
{
1000
txt.shx
1070
           0
1070
        1025
1002
}
  0
ENDBLK
  5
2B1
100
AcDbEntity
  8
0
100
AcDbBlockEnd
  0
BLOCK
  5
2B3
100
AcDbEntity
  8
0
100
AcDbBlockBegin
  2
A$C16C43627
 70
           0
 10
0.0
 20
0.0
 30
0.0
  3
A$C16C43627
  1

  0
LINE
  5
2B4
100
AcDbEntity
  8
0
100
AcDbLine
 10
0.049999989811
 20
0.249999990322
 30
0.0
 11
0.049999989811
 21
-0.000000009678
 31
0.0
1001
ACAD
1000
TCW40_DEV_WIDTH
1002
{
1040
-3.0
1002
}
  0
ARC
  5
2B5
100
AcDbEntity
  8
0
100
AcDbCircle
 10
0.049999989811
 20
0.299999990322
 30
0.0
 40
0.050000000745
100
AcDbArc
 50
90.0
 51
269.999997495522
1001
ACAD
1000
TCW40_DEV_WIDTH
1002
{
1040
-3.0
1002
}
  0
ENDBLK
  5
2B6
100
AcDbEntity
  8
0
100
AcDbBlockEnd
  0
BLOCK
  5
2B8
100
AcDbEntity
  8
0
100
AcDbBlockBegin
  2
A$C4FC73B81
 70
           0
 10
0.0
 20
0.0
 30
0.0
  3
A$C4FC73B81
  1

  0
ARC
  5
2B9
100
AcDbEntity
  8
0
100
AcDbCircle
 10
0.049999989811
 20
0.049999991069
 30
0.0
 40
0.050000000745
100
AcDbArc
 50
90.0
 51
269.999997495522
1001
ACAD
1000
TCW40_DEV_WIDTH
1002
{
1040
-3.0
1002
}
  0
ENDBLK
  5
2BA
100
AcDbEntity
  8
0
100
AcDbBlockEnd
  0
BLOCK
  5
2BC
100
AcDbEntity
  8
0
100
AcDbBlockBegin
  2
A$C2EB3516B
 70
           0
 10
0.0
 20
0.0
 30
0.0
  3
A$C2EB3516B
  1

  0
LINE
  5
2BD
100
AcDbEntity
  8
0
100
AcDbLine
 10
0.050000001218
 20
0.10000000892
 30
0.0
 11
0.050000001218
 21
0.30000000892
 31
0.0
1001
ACAD
1000
TCW40_DEV_WIDTH
1002
{
1040
-3.0
1002
}
  0
ARC
  5
2BE
100
AcDbEntity
  8
0
100
AcDbCircle
 10
0.050000002038
 20
0.05000000892
 30
0.0
 40
0.050000000745
100
AcDbArc
 50
90.0
 51
269.999997495522
1001
ACAD
1000
TCW40_DEV_WIDTH
1002
{
1040
-3.0
1002
}
  0
ENDBLK
  5
2BF
100
AcDbEntity
  8
0
100
AcDbBlockEnd
  0
BLOCK
  5
2C1
100
AcDbEntity
  8
0
100
AcDbBlockBegin
  2
A$C40435073
 70
           0
 10
0.0
 20
0.0
 30
0.0
  3
A$C40435073
  1

  0
LINE
  5
2C2
100
AcDbEntity
  8
0
100
AcDbLine
 10
5.27500000286
 20
0.400000008386
 30
0.0
 11
6.12500000286
 21
0.400000008386
 31
0.0
1001
ACAD
1000
TCW40_DEV_WIDTH
1002
{
1040
-3.0
1002
}
  0
LINE
  5
2C3
100
AcDbEntity
  8
0
100
AcDbLine
 10
5.27500000286
 20
0.000000008386
 30
0.0
 11
7.02500000286
 21
0.000000008386
 31
0.0
1001
ACAD
1000
TCW40_DEV_WIDTH
1002
{
1040
-3.0
1002
}
  0
INSERT
  5
2C4
100
AcDbEntity
  8
0
100
AcDbBlockReference
  2
Fuse
 10
0.07500000286
 20
4.400000008386
 30
0.0
 50
-90.0
  0
ENDBLK
  5
2C5
100
AcDbEntity
  8
0
100
AcDbBlockEnd
  0
BLOCK
  5
2C7
100
AcDbEntity
  8
0
100
AcDbBlockBegin
  2
Thermal Overload Switch
 70
           2
 10
0.0
 20
0.0
 30
0.0
  3
Thermal Overload Switch
  1

  0
ATTDEF
  5
2C8
100
AcDbEntity
  8
0
  6
Continuous
100
AcDbText
 10
0.0
 20
0.0
 30
0.0
 40
0.000120117188
  1

  7
_TCW_TXTSTY_1
100
AcDbAttributeDefinition
  3

  2
ESTCODE
 70
           9
  0
LINE
  5
2C9
100
AcDbEntity
  8
0
100
AcDbLine
 10
0.450001
 20
0.0
 30
0.0
 11
0.6
 21
0.0
 31
0.0
1001
ACAD
1000
TCW40_DEV_WIDTH
1002
{
1040
-3.0
1002
}
  0
ARC
  5
2CA
100
AcDbEntity
  8
0
100
AcDbCircle
 10
0.375
 20
0.0
 30
0.0
 40
0.07500000298
100
AcDbArc
 50
0.0
 51
269.999997495522
1001
ACAD
1000
TCW40_DEV_WIDTH
1002
{
1040
-3.0
1002
}
  0
LINE
  5
2CB
100
AcDbEntity
  8
0
100
AcDbLine
 10
0.150001
 20
0.0
 30
0.0
 11
0.0
 21
0.0
 31
0.0
1001
ACAD
1000
TCW40_DEV_WIDTH
1002
{
1040
-3.0
1002
}
  0
ARC
  5
2CC
100
AcDbEntity
  8
0
100
AcDbCircle
 10
0.225
 20
0.0
 30
0.0
 40
0.07500000298
100
AcDbArc
 50
180.0
 51
449.999961523343
1001
ACAD
1000
TCW40_DEV_WIDTH
1002
{
1040
-3.0
1002
}
  0
ENDBLK
  5
2CD
100
AcDbEntity
  8
0
100
AcDbBlockEnd
  0
BLOCK
  5
2CF
100
AcDbEntity
  8
0
100
AcDbBlockBegin
  2
Momentary Switch NO
 70
           2
 10
0.0
 20
0.0
 30
0.0
  3
Momentary Switch NO
  1

  0
ATTDEF
  5
2D0
100
AcDbEntity
  8
0
  6
Continuous
100
AcDbText
 10
0.0
 20
0.0
 30
0.0
 40
0.000060058589
  1

  7
_TCW_TXTSTY_1
100
AcDbAttributeDefinition
  3

  2
ESTCODE
 70
           9
  0
CIRCLE
  5
2D1
100
AcDbEntity
  8
0
100
AcDbCircle
 10
0.25
 20
0.0
 30
0.0
 40
0.025000000373
  0
CIRCLE
  5
2D2
100
AcDbEntity
  8
0
100
AcDbCircle
 10
0.0
 20
0.0
 30
0.0
 40
0.025000000373
  0
LINE
  5
2D3
100
AcDbEntity
  8
0
100
AcDbLine
 10
-0.025
 20
-0.075
 30
0.0
 11
0.275
 21
-0.075
 31
0.0
1001
ACAD
1000
TCW40_DEV_WIDTH
1002
{
1040
-3.0
1002
}
  0
LINE
  5
2D4
100
AcDbEntity
  8
0
100
AcDbLine
 10
0.125
 20
-0.075
 30
0.0
 11
0.125
 21
0.025
 31
0.0
1001
ACAD
1000
TCW40_DEV_WIDTH
1002
{
1040
-3.0
1002
}
  0
ENDBLK
  5
2D5
100
AcDbEntity
  8
0
100
AcDbBlockEnd
  0
BLOCK
  5
2D7
100
AcDbEntity
  8
0
100
AcDbBlockBegin
  2
Block_2
 70
           2
 10
0.0
 20
0.0
 30
0.0
  3
Block_2
  1

  0
ATTDEF
  5
2D8
100
AcDbEntity
  8
0
  6
Continuous
100
AcDbText
 10
0.0
 20
0.0
 30
0.0
 40
0.000042114255
  1

  7
_TCW_TXTSTY_1
100
AcDbAttributeDefinition
  3

  2
ESTCODE
 70
           9
  0
LINE
  5
2D9
100
AcDbEntity
  8
0
100
AcDbLine
 10
-0.05
 20
-0.1
 30
0.0
 11
0.05
 21
-0.1
 31
0.0
1001
ACAD
1000
TCW40_DEV_WIDTH
1002
{
1040
-3.0
1002
}
  0
LINE
  5
2DA
100
AcDbEntity
  8
0
100
AcDbLine
 10
0.075
 20
-0.05
 30
0.0
 11
-0.075
 21
-0.05
 31
0.0
1001
ACAD
1000
TCW40_DEV_WIDTH
1002
{
1040
-3.0
1002
}
  0
LINE
  5
2DB
100
AcDbEntity
  8
0
100
AcDbLine
 10
-0.1
 20
0.0
 30
0.0
 11
0.1
 21
0.0
 31
0.0
1001
ACAD
1000
TCW40_DEV_WIDTH
1002
{
1040
-3.0
1002
}
  0
ENDBLK
  5
2DC
100
AcDbEntity
  8
0
100
AcDbBlockEnd
  0
BLOCK
  5
34C
100
AcDbEntity
  8
0
100
AcDbBlockBegin
  2
*D31
 70
           1
 10
0.0
 20
0.0
 30
0.0
  3
*D31
  1

  0
LINE
  5
34D
100
AcDbEntity
  8
0
  6
Continuous
 62
           7
100
AcDbLine
 10
0.108869726674
 20
5.847734062261
 30
0.0
 11
-4.176734057149
 21
5.847734062261
 31
0.0
1001
ACAD
1000
TCW40_DEV_WIDTH
1002
{
1040
-3.0
1002
}
1001
TCAD
1000
TCW_ATTRIBUTE
1002
{
1000
1.19
1002
}
  0
LINE
  5
34E
100
AcDbEntity
  8
0
  6
Continuous
 62
           7
100
AcDbLine
 10
-2.597104741094
 20
7.037732816577
 30
0.0
 11
-4.176734057149
 21
7.037732816577
 31
0.0
1001
ACAD
1000
TCW40_DEV_WIDTH
1002
{
1040
-3.0
1002
}
1001
TCAD
1000
TCW_ATTRIBUTE
1002
{
1000
1.19
1002
}
  0
LWPOLYLINE
  5
34F
100
AcDbEntity
  8
0
  6
Continuous
 62
           7
100
AcDbPolyline
 90
        2
 70
           0
 10
-3.976734057149
 20
5.247734062261
 10
-3.976734057149
 20
5.547734062261
1001
ACAD
1000
TCW40_DEV_WIDTH
1002
{
1040
-3.0
1002
}
1001
TCAD
1000
TCW_ATTRIBUTE
1002
{
1000
1.19
1002
}
  0
LWPOLYLINE
  5
350
100
AcDbEntity
  8
0
  6
Continuous
 62
           7
100
AcDbPolyline
 90
        2
 70
           0
 10
-3.976734057149
 20
5.847734062261
 40
0.0
 41
0.0
 10
-3.976734057149
 20
7.037732816577
 40
0.0
 41
0.0
1001
ACAD
1000
TCW40_DEV_WIDTH
1002
{
1040
-3.0
1002
}
1001
TCAD
1000
TCW_ATTRIBUTE
1002
{
1000
1.19
1002
}
  0
LWPOLYLINE
  5
351
100
AcDbEntity
  8
0
  6
Continuous
 62
           7
100
AcDbPolyline
 90
        3
 70
           0
 10
-3.976734057149
 20
9.800041819224
 10
-3.976734057149
 20
9.168887332707
 10
-3.976734057149
 20
7.337732816577
1001
ACAD
1000
TCW40_DEV_WIDTH
1002
{
1040
-3.0
1002
}
1001
TCAD
1000
TCW_ATTRIBUTE
1002
{
1000
1.19
1002
}
  0
LWPOLYLINE
  5
353
102
{ACAD_REACTORS
330
352
102
}
100
AcDbEntity
  8
0
  6
Continuous
 62
           7
100
AcDbPolyline
 90
        4
 70
           0
 10
-3.976734057149
 20
7.037732816577
 10
-3.937734057149
 20
7.337732816577
 10
-4.015734057149
 20
7.337732816577
 10
-3.976734057149
 20
7.037732816577
1001
ACAD
1000
TCW40_DEV_WIDTH
1002
{
1040
-3.0
1002
}
1001
TCAD
1000
TCW_ATTRIBUTE
1002
{
1000
1.19
1002
}
  0
HATCH
  5
352
100
AcDbEntity
  8
0
  6
Continuous
 62
           7
100
AcDbHatch
 10
0.0
 20
0.0
 30
0.0
210
0.0
220
0.0
230
1.0
  2
SOLID
 70
           1
 71
           1
 91
        1
 92
        3
 72
           0
 73
           1
 93
        3
 10
-3.9767340571492298
 20
7.0377328165774697
 10
-3.9377340571492296
 20
7.3377328165774696
 10
-4.0157340571492295
 20
7.3377328165774696
 97
        1
330
353
 75
           0
 76
           0
 98
        0
1001
TCAD
1000
TCW_ATTRIBUTE
1002
{
1000
1.19
1002
}
  0
LWPOLYLINE
  5
355
102
{ACAD_REACTORS
330
354
102
}
100
AcDbEntity
  8
0
  6
Continuous
 62
           7
100
AcDbPolyline
 90
        4
 70
           0
 10
-3.976734057149
 20
5.847734062261
 10
-4.015734057149
 20
5.547734062261
 10
-3.937734057149
 20
5.547734062261
 10
-3.976734057149
 20
5.847734062261
1001
ACAD
1000
TCW40_DEV_WIDTH
1002
{
1040
-3.0
1002
}
1001
TCAD
1000
TCW_ATTRIBUTE
1002
{
1000
1.19
1002
}
  0
HATCH
  5
354
100
AcDbEntity
  8
0
  6
Continuous
 62
           7
100
AcDbHatch
 10
0.0
 20
0.0
 30
0.0
210
0.0
220
0.0
230
1.0
  2
SOLID
 70
           1
 71
           1
 91
        1
 92
        3
 72
           0
 73
           1
 93
        3
 10
-3.9767340571492298
 20
5.8477340622611305
 10
-4.0157340571492295
 20
5.5477340622611306
 10
-3.9377340571492296
 20
5.5477340622611306
 97
        1
330
355
 75
           0
 76
           0
 98
        0
1001
TCAD
1000
TCW_ATTRIBUTE
1002
{
1000
1.19
1002
}
  0
MTEXT
  5
356
100
AcDbEntity
  8
0
  6
Continuous
 62
           7
100
AcDbMText
 10
-4.470384042939
 20
8.868887332707
 30
0.0
 40
0.500005143689
 41
0.0
 71
           5
 72
           1
  1
\A1;1.19
 11
0.0
 21
1.0
 31
0.0
 73
           1
 44
1.0
1001
TCAD
1000
TCW_REFPOINT
1002
{
1010
-4.470384042939
1020
8.868887332707
1030
0.0
1002
}
1000
TCW_ATTRIBUTE
1002
{
1000
1.19
1002
}
  0
ENDBLK
  5
357
100
AcDbEntity
  8
0
100
AcDbBlockEnd
  0
BLOCK
  5
35A
100
AcDbEntity
  8
0
100
AcDbBlockBegin
  2
*D32
 70
           1
 10
0.0
 20
0.0
 30
0.0
  3
*D32
  1

  0
LINE
  5
35B
100
AcDbEntity
  8
0
  6
Continuous
 62
           7
100
AcDbLine
 10
15.902983443376
 20
7.0242304749
 30
0.0
 11
17.774063629567
 21
7.0242304749
 31
0.0
1001
ACAD
1000
TCW40_DEV_WIDTH
1002
{
1040
-3.0
1002
}
1001
TCAD
1000
TCW_ATTRIBUTE
1002
{
1000
0.16
1002
}
  0
LINE
  5
35C
100
AcDbEntity
  8
0
  6
Continuous
 62
           7
100
AcDbLine
 10
14.922557911576
 20
6.867362389812
 30
0.0
 11
17.774063629567
 21
6.867362389812
 31
0.0
1001
ACAD
1000
TCW40_DEV_WIDTH
1002
{
1040
-3.0
1002
}
1001
TCAD
1000
TCW_ATTRIBUTE
1002
{
1000
0.16
1002
}
  0
LWPOLYLINE
  5
35D
100
AcDbEntity
  8
0
  6
Continuous
 62
           7
100
AcDbPolyline
 90
        2
 70
           0
 10
17.574063629567
 20
7.3242304749
 10
17.574063629567
 20
7.0242304749
1001
ACAD
1000
TCW40_DEV_WIDTH
1002
{
1040
-3.0
1002
}
1001
TCAD
1000
TCW_ATTRIBUTE
1002
{
1000
0.16
1002
}
  0
LWPOLYLINE
  5
35E
100
AcDbEntity
  8
0
  6
Continuous
 62
           7
100
AcDbPolyline
 90
        2
 70
           0
 10
17.574063629567
 20
7.0242304749
 40
0.0
 41
0.0
 10
17.574063629567
 20
6.867362389812
 40
0.0
 41
0.0
1001
ACAD
1000
TCW40_DEV_WIDTH
1002
{
1040
-3.0
1002
}
1001
TCAD
1000
TCW_ATTRIBUTE
1002
{
1000
0.16
1002
}
  0
LWPOLYLINE
  5
35F
100
AcDbEntity
  8
0
  6
Continuous
 62
           7
100
AcDbPolyline
 90
        3
 70
           0
 10
17.574063629567
 20
4.105053387166
 10
17.574063629567
 20
4.736207873683
 10
17.574063629567
 20
6.567362389812
1001
ACAD
1000
TCW40_DEV_WIDTH
1002
{
1040
-3.0
1002
}
1001
TCAD
1000
TCW_ATTRIBUTE
1002
{
1000
0.16
1002
}
  0
LWPOLYLINE
  5
361
102
{ACAD_REACTORS
330
360
102
}
100
AcDbEntity
  8
0
  6
Continuous
 62
           7
100
AcDbPolyline
 90
        4
 70
           0
 10
17.574063629567
 20
6.867362389812
 10
17.535063629567
 20
6.567362389812
 10
17.613063629567
 20
6.567362389812
 10
17.574063629567
 20
6.867362389812
1001
ACAD
1000
TCW40_DEV_WIDTH
1002
{
1040
-3.0
1002
}
1001
TCAD
1000
TCW_ATTRIBUTE
1002
{
1000
0.16
1002
}
  0
HATCH
  5
360
100
AcDbEntity
  8
0
  6
Continuous
 62
           7
100
AcDbHatch
 10
0.0
 20
0.0
 30
0.0
210
0.0
220
0.0
230
1.0
  2
SOLID
 70
           1
 71
           1
 91
        1
 92
        3
 72
           0
 73
           1
 93
        3
 10
17.574063629566805
 20
6.8673623898123521
 10
17.535063629566803
 20
6.5673623898123523
 10
17.613063629566806
 20
6.5673623898123523
 97
        1
330
361
 75
           0
 76
           0
 98
        0
1001
TCAD
1000
TCW_ATTRIBUTE
1002
{
1000
0.16
1002
}
  0
LINE
  5
362
100
AcDbEntity
  8
0
  6
Continuous
 62
           7
100
AcDbLine
 10
17.574063629567
 20
7.0242304749
 30
0.0
 11
17.574063629567
 21
7.0242304749
 31
0.0
1001
ACAD
1000
TCW40_DEV_WIDTH
1002
{
1040
-3.0
1002
}
1001
TCAD
1000
TCW_ATTRIBUTE
1002
{
1000
0.16
1002
}
  0
MTEXT
  5
363
100
AcDbEntity
  8
0
  6
Continuous
 62
           7
100
AcDbMText
 10
17.080413643777
 20
5.036207873683
 30
0.0
 40
0.500005143689
 41
0.0
 71
           5
 72
           1
  1
\A1;0.16
 11
0.0
 21
1.0
 31
0.0
 73
           1
 44
1.0
1001
TCAD
1000
TCW_REFPOINT
1002
{
1010
17.080413643777
1020
5.036207873683
1030
0.0
1002
}
1000
TCW_ATTRIBUTE
1002
{
1000
0.16
1002
}
  0
ENDBLK
  5
364
100
AcDbEntity
  8
0
100
AcDbBlockEnd
  0
BLOCK
  5
366
100
AcDbEntity
  8
0
100
AcDbBlockBegin
  2
_NONE
 70
           0
 10
0.0
 20
0.0
 30
0.0
  3
_NONE
  1

  0
CIRCLE
  5
367
100
AcDbEntity
  8
0
  6
ByBlock
 62
           0
100
AcDbCircle
 10
0.0
 20
0.0
 30
0.0
 40
0.25
  0
ENDBLK
  5
368
100
AcDbEntity
  8
0
100
AcDbBlockEnd
  0
BLOCK
  5
36B
100
AcDbEntity
  8
0
100
AcDbBlockBegin
  2
*D34
 70
           1
 10
0.0
 20
0.0
 30
0.0
  3
*D34
  1

  0
LINE
  5
36C
100
AcDbEntity
  8
0
  6
Continuous
 62
           7
100
AcDbLine
 10
10.408685571656
 20
6.667362389812
 30
0.0
 11
10.408685571656
 21
3.05976890517
 31
0.0
1001
ACAD
1000
TCW40_DEV_WIDTH
1002
{
1040
-3.0
1002
}
1001
TCAD
1000
TCW_ATTRIBUTE
1002
{
1000
%%c4.331^M^J%%c4.329
1002
}
  0
LINE
  5
36D
100
AcDbEntity
  8
0
  6
Continuous
 62
           7
100
AcDbLine
 10
14.722557911576
 20
6.667362389812
 30
0.0
 11
14.722557911576
 21
3.05976890517
 31
0.0
1001
ACAD
1000
TCW40_DEV_WIDTH
1002
{
1040
-3.0
1002
}
1001
TCAD
1000
TCW_ATTRIBUTE
1002
{
1000
%%c4.331^M^J%%c4.329
1002
}
  0
LWPOLYLINE
  5
36E
100
AcDbEntity
  8
0
  6
Continuous
 62
           7
100
AcDbPolyline
 90
        4
 70
           0
 10
10.708685571656
 20
3.25976890517
 10
10.708685571656
 20
3.25976890517
 10
10.708685571656
 20
3.25976890517
 10
12.565621741616
 20
3.25976890517
1001
ACAD
1000
TCW40_DEV_WIDTH
1002
{
1040
-3.0
1002
}
1001
TCAD
1000
TCW_ATTRIBUTE
1002
{
1000
%%c4.331^M^J%%c4.329
1002
}
  0
LWPOLYLINE
  5
36F
100
AcDbEntity
  8
0
  6
Continuous
 62
           7
100
AcDbPolyline
 90
        4
 70
           0
 10
14.422557911576
 20
3.25976890517
 10
14.422557911576
 20
3.25976890517
 10
14.422557911576
 20
3.25976890517
 10
12.565621741616
 20
3.25976890517
1001
ACAD
1000
TCW40_DEV_WIDTH
1002
{
1040
-3.0
1002
}
1001
TCAD
1000
TCW_ATTRIBUTE
1002
{
1000
%%c4.331^M^J%%c4.329
1002
}
  0
LWPOLYLINE
  5
371
102
{ACAD_REACTORS
330
370
102
}
100
AcDbEntity
  8
0
  6
Continuous
 62
           7
100
AcDbPolyline
 90
        4
 70
           0
 10
10.408685571656
 20
3.25976890517
 10
10.708685571656
 20
3.22076890517
 10
10.708685571656
 20
3.29876890517
 10
10.408685571656
 20
3.25976890517
1001
ACAD
1000
TCW40_DEV_WIDTH
1002
{
1040
-3.0
1002
}
1001
TCAD
1000
TCW_ATTRIBUTE
1002
{
1000
%%c4.331^M^J%%c4.329
1002
}
  0
HATCH
  5
370
100
AcDbEntity
  8
0
  6
Continuous
 62
           7
100
AcDbHatch
 10
0.0
 20
0.0
 30
0.0
210
0.0
220
0.0
230
1.0
  2
SOLID
 70
           1
 71
           1
 91
        1
 92
        3
 72
           0
 73
           1
 93
        3
 10
10.408685571656271
 20
3.2597689051704495
 10
10.708685571656272
 20
3.2207689051704493
 10
10.708685571656272
 20
3.2987689051704496
 97
        1
330
371
 75
           0
 76
           0
 98
        0
1001
TCAD
1000
TCW_ATTRIBUTE
1002
{
1000
%%c4.331^M^J%%c4.329
1002
}
  0
LWPOLYLINE
  5
373
102
{ACAD_REACTORS
330
372
102
}
100
AcDbEntity
  8
0
  6
Continuous
 62
           7
100
AcDbPolyline
 90
        4
 70
           0
 10
14.722557911576
 20
3.25976890517
 10
14.422557911576
 20
3.29876890517
 10
14.422557911576
 20
3.22076890517
 10
14.722557911576
 20
3.25976890517
1001
ACAD
1000
TCW40_DEV_WIDTH
1002
{
1040
-3.0
1002
}
1001
TCAD
1000
TCW_ATTRIBUTE
1002
{
1000
%%c4.331^M^J%%c4.329
1002
}
  0
HATCH
  5
372
100
AcDbEntity
  8
0
  6
Continuous
 62
           7
100
AcDbHatch
 10
0.0
 20
0.0
 30
0.0
210
0.0
220
0.0
230
1.0
  2
SOLID
 70
           1
 71
           1
 91
        1
 92
        3
 72
           0
 73
           1
 93
        3
 10
14.722557911576217
 20
3.2597689051704495
 10
14.422557911576217
 20
3.2987689051704496
 10
14.422557911576217
 20
3.2207689051704493
 97
        1
330
373
 75
           0
 76
           0
 98
        0
1001
TCAD
1000
TCW_ATTRIBUTE
1002
{
1000
%%c4.331^M^J%%c4.329
1002
}
  0
MTEXT
  5
374
100
AcDbEntity
  8
0
  6
Continuous
 62
           7
100
AcDbMText
 10
12.566855097141
 20
4.230923803183
 30
0.0
 40
0.500005143689
 41
0.0
 71
           5
 72
           1
  1
\A1;%%c4.331\P%%c4.329
 73
           1
 44
1.0
1001
TCAD
1000
TCW_REFPOINT
1002
{
1010
12.566855097141
1020
4.230923803183
1030
0.0
1002
}
1000
TCW_ATTRIBUTE
1002
{
1000
%%c4.331^M^J%%c4.329
1002
}
  0
ENDBLK
  5
375
100
AcDbEntity
  8
0
100
AcDbBlockEnd
  0
BLOCK
  5
378
100
AcDbEntity
  8
0
100
AcDbBlockBegin
  2
*D35
 70
           1
 10
0.0
 20
0.0
 30
0.0
  3
*D35
  1

  0
LINE
  5
379
100
AcDbEntity
  8
0
  6
Continuous
 62
           7
100
AcDbLine
 10
9.428260039856
 20
6.8242304749
 30
0.0
 11
9.428260039856
 21
1.81146789393
 31
0.0
1001
ACAD
1000
TCW40_DEV_WIDTH
1002
{
1040
-3.0
1002
}
1001
TCAD
1000
TCW_ATTRIBUTE
1002
{
1000
%%c6.30
1002
}
  0
LINE
  5
37A
100
AcDbEntity
  8
0
  6
Continuous
 62
           7
100
AcDbLine
 10
15.702983443376
 20
6.8242304749
 30
0.0
 11
15.702983443376
 21
1.81146789393
 31
0.0
1001
ACAD
1000
TCW40_DEV_WIDTH
1002
{
1040
-3.0
1002
}
1001
TCAD
1000
TCW_ATTRIBUTE
1002
{
1000
%%c6.30
1002
}
  0
LWPOLYLINE
  5
37B
100
AcDbEntity
  8
0
  6
Continuous
 62
           7
100
AcDbPolyline
 90
        4
 70
           0
 10
9.728260039856
 20
2.01146789393
 10
9.728260039856
 20
2.01146789393
 10
9.728260039856
 20
2.01146789393
 10
12.565621741616
 20
2.01146789393
1001
ACAD
1000
TCW40_DEV_WIDTH
1002
{
1040
-3.0
1002
}
1001
TCAD
1000
TCW_ATTRIBUTE
1002
{
1000
%%c6.30
1002
}
  0
LWPOLYLINE
  5
37C
100
AcDbEntity
  8
0
  6
Continuous
 62
           7
100
AcDbPolyline
 90
        4
 70
           0
 10
15.402983443376
 20
2.01146789393
 10
15.402983443376
 20
2.01146789393
 10
15.402983443376
 20
2.01146789393
 10
12.565621741616
 20
2.01146789393
1001
ACAD
1000
TCW40_DEV_WIDTH
1002
{
1040
-3.0
1002
}
1001
TCAD
1000
TCW_ATTRIBUTE
1002
{
1000
%%c6.30
1002
}
  0
LWPOLYLINE
  5
37E
102
{ACAD_REACTORS
330
37D
102
}
100
AcDbEntity
  8
0
  6
Continuous
 62
           7
100
AcDbPolyline
 90
        4
 70
           0
 10
9.428260039856
 20
2.01146789393
 10
9.728260039856
 20
1.97246789393
 10
9.728260039856
 20
2.05046789393
 10
9.428260039856
 20
2.01146789393
1001
ACAD
1000
TCW40_DEV_WIDTH
1002
{
1040
-3.0
1002
}
1001
TCAD
1000
TCW_ATTRIBUTE
1002
{
1000
%%c6.30
1002
}
  0
HATCH
  5
37D
100
AcDbEntity
  8
0
  6
Continuous
 62
           7
100
AcDbHatch
 10
0.0
 20
0.0
 30
0.0
210
0.0
220
0.0
230
1.0
  2
SOLID
 70
           1
 71
           1
 91
        1
 92
        3
 72
           0
 73
           1
 93
        3
 10
9.4282600398562337
 20
2.0114678939301864
 10
9.7282600398562344
 20
1.9724678939301865
 10
9.7282600398562344
 20
2.0504678939301866
 97
        1
330
37E
 75
           0
 76
           0
 98
        0
1001
TCAD
1000
TCW_ATTRIBUTE
1002
{
1000
%%c6.30
1002
}
  0
LWPOLYLINE
  5
380
102
{ACAD_REACTORS
330
37F
102
}
100
AcDbEntity
  8
0
  6
Continuous
 62
           7
100
AcDbPolyline
 90
        4
 70
           0
 10
15.702983443376
 20
2.01146789393
 10
15.402983443376
 20
2.05046789393
 10
15.402983443376
 20
1.97246789393
 10
15.702983443376
 20
2.01146789393
1001
ACAD
1000
TCW40_DEV_WIDTH
1002
{
1040
-3.0
1002
}
1001
TCAD
1000
TCW_ATTRIBUTE
1002
{
1000
%%c6.30
1002
}
  0
HATCH
  5
37F
100
AcDbEntity
  8
0
  6
Continuous
 62
           7
100
AcDbHatch
 10
0.0
 20
0.0
 30
0.0
210
0.0
220
0.0
230
1.0
  2
SOLID
 70
           1
 71
           1
 91
        1
 92
        3
 72
           0
 73
           1
 93
        3
 10
15.702983443376255
 20
2.0114678939301864
 10
15.402983443376254
 20
2.0504678939301866
 10
15.402983443376254
 20
1.9724678939301865
 97
        1
330
380
 75
           0
 76
           0
 98
        0
1001
TCAD
1000
TCW_ATTRIBUTE
1002
{
1000
%%c6.30
1002
}
  0
MTEXT
  5
381
100
AcDbEntity
  8
0
  6
Continuous
 62
           7
100
AcDbMText
 10
12.565621741616
 20
2.50511787972
 30
0.0
 40
0.500005143689
 41
0.0
 71
           5
 72
           1
  1
\A1;%%c6.30
 73
           1
 44
1.0
1001
TCAD
1000
TCW_REFPOINT
1002
{
1010
12.565621741616
1020
2.50511787972
1030
0.0
1002
}
1000
TCW_ATTRIBUTE
1002
{
1000
%%c6.30
1002
}
  0
ENDBLK
  5
382
100
AcDbEntity
  8
0
100
AcDbBlockEnd
  0
BLOCK
  5
385
100
AcDbEntity
  8
0
100
AcDbBlockBegin
  2
*D36
 70
           1
 10
0.0
 20
0.0
 30
0.0
  3
*D36
  1

  0
MTEXT
  5
386
100
AcDbEntity
  8
0
  6
Continuous
 62
           7
100
AcDbMText
 10
16.560028881175
 20
-6.799607877247
 30
0.0
 40
0.500005143689
 41
0.0
 71
           5
 72
           1
  1
\A1;%%c5.12
 73
           1
 44
1.0
1001
TCAD
1000
TCW_REFPOINT
1002
{
1010
16.560028881175
1020
-6.799607877247
1030
0.0
1002
}
1000
TCW_ATTRIBUTE
1002
{
1000
%%c5.12
1002
}
  0
LWPOLYLINE
  5
387
100
AcDbEntity
  8
0
  6
Continuous
 62
           7
100
AcDbPolyline
 90
        4
 70
           0
 10
10.96600676067
 20
-2.902596902084
 10
12.57234685519
 20
-4.492410550028
 10
12.57234685519
 20
-4.492410550028
 10
14.178686949711
 20
-6.082224197972
1001
ACAD
1000
TCW40_DEV_WIDTH
1002
{
1040
-3.0
1002
}
1001
TCAD
1000
TCW_ATTRIBUTE
1002
{
1000
%%c5.12
1002
}
  0
LWPOLYLINE
  5
388
100
AcDbEntity
  8
0
  6
Continuous
 62
           7
100
AcDbPolyline
 90
        4
 70
           0
 10
14.391913011009
 20
-6.293256533843
 40
0.0
 41
0.0
 10
14.605139072308
 20
-6.504288869713
 40
0.0
 41
0.0
 10
15.402309563924
 20
-7.293257863037
 40
0.0
 41
0.0
 10
17.627748198427
 20
-7.293257863037
 40
0.0
 41
0.0
1001
ACAD
1000
TCW40_DEV_WIDTH
1002
{
1040
-3.0
1002
}
1001
TCAD
1000
TCW_ATTRIBUTE
1002
{
1000
%%c5.12
1002
}
  0
LWPOLYLINE
  5
38A
102
{ACAD_REACTORS
330
389
102
}
100
AcDbEntity
  8
0
  6
Continuous
 62
           7
100
AcDbPolyline
 90
        4
 70
           0
 10
10.752780699372
 20
-2.691564566213
 10
10.938572557007
 20
-2.930316290053
 10
10.993440964333
 20
-2.874877514115
 10
10.752780699372
 20
-2.691564566213
1001
ACAD
1000
TCW40_DEV_WIDTH
1002
{
1040
-3.0
1002
}
1001
TCAD
1000
TCW_ATTRIBUTE
1002
{
1000
%%c5.12
1002
}
  0
HATCH
  5
389
100
AcDbEntity
  8
0
  6
Continuous
 62
           7
100
AcDbHatch
 10
0.0
 20
0.0
 30
0.0
210
0.0
220
0.0
230
1.0
  2
SOLID
 70
           1
 71
           1
 91
        1
 92
        3
 72
           0
 73
           1
 93
        3
 10
10.752780699371502
 20
-2.6915645662129366
 10
10.938572557006799
 20
-2.9303162900526307
 10
10.99344096433323
 20
-2.8748775141150174
 97
        1
330
38A
 75
           0
 76
           0
 98
        0
1001
TCAD
1000
TCW_ATTRIBUTE
1002
{
1000
%%c5.12
1002
}
  0
LWPOLYLINE
  5
38C
102
{ACAD_REACTORS
330
38B
102
}
100
AcDbEntity
  8
0
  6
Continuous
 62
           7
100
AcDbPolyline
 90
        4
 70
           0
 10
14.391913011009
 20
-6.293256533843
 10
14.206121153374
 20
-6.054504810003
 10
14.151252746048
 20
-6.10994358594
 10
14.391913011009
 20
-6.293256533843
1001
ACAD
1000
TCW40_DEV_WIDTH
1002
{
1040
-3.0
1002
}
1001
TCAD
1000
TCW_ATTRIBUTE
1002
{
1000
%%c5.12
1002
}
  0
HATCH
  5
38B
100
AcDbEntity
  8
0
  6
Continuous
 62
           7
100
AcDbHatch
 10
0.0
 20
0.0
 30
0.0
210
0.0
220
0.0
230
1.0
  2
SOLID
 70
           1
 71
           1
 91
        1
 92
        3
 72
           0
 73
           1
 93
        3
 10
14.391913011009361
 20
-6.2932565338425688
 10
14.206121153374065
 20
-6.0545048100028742
 10
14.151252746047634
 20
-6.1099435859404876
 97
        1
330
38C
 75
           0
 76
           0
 98
        0
1001
TCAD
1000
TCW_ATTRIBUTE
1002
{
1000
%%c5.12
1002
}
  0
ENDBLK
  5
38D
100
AcDbEntity
  8
0
100
AcDbBlockEnd
  0
BLOCK
  5
39B
100
AcDbEntity
  8
0
100
AcDbBlockBegin
  2
*D37
 70
           1
 10
0.0
 20
0.0
 30
0.0
  3
*D37
  1

  0
LINE
  5
39C
100
AcDbEntity
  8
1
  6
Continuous
 62
           7
100
AcDbLine
 10
15.902983443376
 20
7.0242304749
 30
0.0
 11
17.754064105532
 21
7.0242304749
 31
0.0
1001
ACAD
1000
TCW40_DEV_WIDTH
1002
{
1040
-3.0
1002
}
  0
LINE
  5
39D
100
AcDbEntity
  8
1
  6
Continuous
 62
           7
100
AcDbLine
 10
15.902983443376
 20
7.573268772708
 30
0.0
 11
17.754064105532
 21
7.573268772708
 31
0.0
1001
ACAD
1000
TCW40_DEV_WIDTH
1002
{
1040
-3.0
1002
}
  0
LWPOLYLINE
  5
39E
100
AcDbEntity
  8
1
  6
Continuous
 62
           7
100
AcDbPolyline
 90
        2
 70
           0
 10
17.574064105532
 20
6.7242304749
 10
17.574064105532
 20
7.0242304749
1001
ACAD
1000
TCW40_DEV_WIDTH
1002
{
1040
-3.0
1002
}
  0
LWPOLYLINE
  5
39F
100
AcDbEntity
  8
1
  6
Continuous
 62
           7
100
AcDbPolyline
 90
        2
 70
           0
 10
17.574064105532
 20
7.0242304749
 40
0.0
 41
0.0
 10
17.574064105532
 20
7.573268772708
 40
0.0
 41
0.0
1001
ACAD
1000
TCW40_DEV_WIDTH
1002
{
1040
-3.0
1002
}
  0
LWPOLYLINE
  5
3A0
100
AcDbEntity
  8
1
  6
Continuous
 62
           7
100
AcDbPolyline
 90
        3
 70
           0
 10
17.574064105532
 20
10.335577775355
 10
17.574064105532
 20
9.704423288837
 10
17.574064105532
 20
7.873268772708
1001
ACAD
1000
TCW40_DEV_WIDTH
1002
{
1040
-3.0
1002
}
  0
LWPOLYLINE
  5
3A2
102
{ACAD_REACTORS
330
3A1
102
}
100
AcDbEntity
  8
1
  6
Continuous
 62
           7
100
AcDbPolyline
 90
        4
 70
           0
 10
17.574064105532
 20
7.573268772708
 10
17.613064105532
 20
7.873268772708
 10
17.535064105532
 20
7.873268772708
 10
17.574064105532
 20
7.573268772708
1001
ACAD
1000
TCW40_DEV_WIDTH
1002
{
1040
-3.0
1002
}
  0
HATCH
  5
3A1
100
AcDbEntity
  8
1
  6
Continuous
 62
           7
100
AcDbHatch
 10
0.0
 20
0.0
 30
0.0
210
0.0
220
0.0
230
1.0
  2
SOLID
 70
           1
 71
           1
 91
        1
 92
        3
 72
           0
 73
           1
 93
        3
 10
17.574064105532177
 20
7.5732687727083023
 10
17.613064105532178
 20
7.8732687727083022
 10
17.535064105532175
 20
7.8732687727083022
 97
        1
330
3A2
 75
           0
 76
           0
 98
        0
  0
LINE
  5
3A3
100
AcDbEntity
  8
1
  6
Continuous
 62
           7
100
AcDbLine
 10
17.574064105532
 20
7.0242304749
 30
0.0
 11
17.574064105532
 21
7.0242304749
 31
0.0
1001
ACAD
1000
TCW40_DEV_WIDTH
1002
{
1040
-3.0
1002
}
  0
MTEXT
  5
3A4
100
AcDbEntity
  8
1
  6
Continuous
 62
           7
100
AcDbMText
 10
17.080414119742
 20
9.404423288837
 30
0.0
 40
0.500005143689
 41
0.0
 71
           5
 72
           1
  1
\A1;0.55
 11
0.0
 21
1.0
 31
0.0
 73
           1
 44
1.0
1001
TCAD
1000
TCW_REFPOINT
1002
{
1010
17.080414119742
1020
9.404423288837
1030
0.0
1002
}
  0
ENDBLK
  5
3A5
100
AcDbEntity
  8
0
100
AcDbBlockEnd
  0
BLOCK
  5
3A8
100
AcDbEntity
  8
0
100
AcDbBlockBegin
  2
*D38
 70
           1
 10
0.0
 20
0.0
 30
0.0
  3
*D38
  1

  0
LINE
  5
3A9
100
AcDbEntity
  8
0
  6
Continuous
 62
           7
100
AcDbLine
 10
11.836191954444
 20
5.834230218001
 30
0.0
 11
7.009212460639
 21
5.834230218001
 31
0.0
1001
ACAD
1000
TCW40_DEV_WIDTH
1002
{
1040
-3.0
1002
}
1001
TCAD
1000
TCW_ATTRIBUTE
1002
{
1000
8.36
1002
}
  0
LINE
  5
3AA
100
AcDbEntity
  8
0
  6
Continuous
 62
           7
100
AcDbLine
 10
11.908422568069
 20
14.194231722182
 30
0.0
 11
7.009212460639
 21
14.194231722182
 31
0.0
1001
ACAD
1000
TCW40_DEV_WIDTH
1002
{
1040
-3.0
1002
}
1001
TCAD
1000
TCW_ATTRIBUTE
1002
{
1000
8.36
1002
}
  0
LWPOLYLINE
  5
3AB
100
AcDbEntity
  8
0
  6
Continuous
 62
           7
100
AcDbPolyline
 90
        4
 70
           0
 10
7.209212460639
 20
6.134230218001
 10
7.209212460639
 20
6.134230218001
 10
7.209212460639
 20
6.134230218001
 10
7.209212460639
 20
10.014230970091
1001
ACAD
1000
TCW40_DEV_WIDTH
1002
{
1040
-3.0
1002
}
1001
TCAD
1000
TCW_ATTRIBUTE
1002
{
1000
8.36
1002
}
  0
LWPOLYLINE
  5
3AC
100
AcDbEntity
  8
0
  6
Continuous
 62
           7
100
AcDbPolyline
 90
        4
 70
           0
 10
7.209212460639
 20
13.894231722182
 10
7.209212460639
 20
13.894231722182
 10
7.209212460639
 20
13.894231722182
 10
7.209212460639
 20
10.014230970091
1001
ACAD
1000
TCW40_DEV_WIDTH
1002
{
1040
-3.0
1002
}
1001
TCAD
1000
TCW_ATTRIBUTE
1002
{
1000
8.36
1002
}
  0
LWPOLYLINE
  5
3AE
102
{ACAD_REACTORS
330
3AD
102
}
100
AcDbEntity
  8
0
  6
Continuous
 62
           7
100
AcDbPolyline
 90
        4
 70
           0
 10
7.209212460639
 20
5.834230218001
 10
7.248212460639
 20
6.134230218001
 10
7.170212460639
 20
6.134230218001
 10
7.209212460639
 20
5.834230218001
1001
ACAD
1000
TCW40_DEV_WIDTH
1002
{
1040
-3.0
1002
}
1001
TCAD
1000
TCW_ATTRIBUTE
1002
{
1000
8.36
1002
}
  0
HATCH
  5
3AD
100
AcDbEntity
  8
0
  6
Continuous
 62
           7
100
AcDbHatch
 10
0.0
 20
0.0
 30
0.0
210
0.0
220
0.0
230
1.0
  2
SOLID
 70
           1
 71
           1
 91
        1
 92
        3
 72
           0
 73
           1
 93
        3
 10
7.2092124606387218
 20
5.8342302180005401
 10
7.2482124606387215
 20
6.1342302180005399
 10
7.1702124606387221
 20
6.1342302180005399
 97
        1
330
3AE
 75
           0
 76
           0
 98
        0
1001
TCAD
1000
TCW_ATTRIBUTE
1002
{
1000
8.36
1002
}
  0
LWPOLYLINE
  5
3B0
102
{ACAD_REACTORS
330
3AF
102
}
100
AcDbEntity
  8
0
  6
Continuous
 62
           7
100
AcDbPolyline
 90
        4
 70
           0
 10
7.209212460639
 20
14.194231722182
 10
7.170212460639
 20
13.894231722182
 10
7.248212460639
 20
13.894231722182
 10
7.209212460639
 20
14.194231722182
1001
ACAD
1000
TCW40_DEV_WIDTH
1002
{
1040
-3.0
1002
}
1001
TCAD
1000
TCW_ATTRIBUTE
1002
{
1000
8.36
1002
}
  0
HATCH
  5
3AF
100
AcDbEntity
  8
0
  6
Continuous
 62
           7
100
AcDbHatch
 10
0.0
 20
0.0
 30
0.0
210
0.0
220
0.0
230
1.0
  2
SOLID
 70
           1
 71
           1
 91
        1
 92
        3
 72
           0
 73
           1
 93
        3
 10
7.2092124606387218
 20
14.194231722181797
 10
7.1702124606387221
 20
13.894231722181797
 10
7.2482124606387215
 20
13.894231722181797
 97
        1
330
3B0
 75
           0
 76
           0
 98
        0
1001
TCAD
1000
TCW_ATTRIBUTE
1002
{
1000
8.36
1002
}
  0
MTEXT
  5
3B1
100
AcDbEntity
  8
0
  6
Continuous
 62
           7
100
AcDbMText
 10
6.715562474848
 20
10.014230970091
 30
0.0
 40
0.500005143689
 41
0.0
 71
           5
 72
           1
  1
\A1;8.36
 11
0.0
 21
1.0
 31
0.0
 73
           1
 44
1.0
1001
TCAD
1000
TCW_REFPOINT
1002
{
1010
6.715562474848
1020
10.014230970091
1030
0.0
1002
}
1000
TCW_ATTRIBUTE
1002
{
1000
8.36
1002
}
  0
ENDBLK
  5
3B2
100
AcDbEntity
  8
0
100
AcDbBlockEnd
  0
BLOCK
  5
3DC
100
AcDbEntity
  8
0
100
AcDbBlockBegin
  2
*D39
 70
           1
 10
0.0
 20
0.0
 30
0.0
  3
*D39
  1

  0
LWPOLYLINE
  5
3DD
100
AcDbEntity
  8
1
  6
Continuous
 62
           7
100
AcDbPolyline
 90
        2
 70
           0
 10
0.083606536841
 20
13.004350443775
 10
-3.154135508793
 20
13.004350443775
1001
ACAD
1000
TCW40_DEV_WIDTH
1002
{
1040
-3.0
1002
}
  0
LWPOLYLINE
  5
3DE
100
AcDbEntity
  8
1
  6
Continuous
 62
           7
100
AcDbPolyline
 90
        2
 70
           0
 10
0.164972202654
 20
14.19422924601
 10
-3.154135508793
 20
14.19422924601
1001
ACAD
1000
TCW40_DEV_WIDTH
1002
{
1040
-3.0
1002
}
  0
LWPOLYLINE
  5
3DF
100
AcDbEntity
  8
1
  6
Continuous
 62
           7
100
AcDbPolyline
 90
        2
 70
           0
 10
-3.064135508793
 20
12.404350443775
 10
-3.064135508793
 20
12.704350443775
1001
ACAD
1000
TCW40_DEV_WIDTH
1002
{
1040
-3.0
1002
}
  0
LWPOLYLINE
  5
3E0
100
AcDbEntity
  8
1
  6
Continuous
 62
           7
100
AcDbPolyline
 90
        2
 70
           0
 10
-3.064135508793
 20
13.004350443775
 40
0.0
 41
0.0
 10
-3.064135508793
 20
13.599289844893
 40
0.0
 41
0.0
1001
ACAD
1000
TCW40_DEV_WIDTH
1002
{
1040
-3.0
1002
}
  0
LWPOLYLINE
  5
3E1
100
AcDbEntity
  8
1
  6
Continuous
 62
           7
100
AcDbPolyline
 90
        2
 70
           0
 10
-3.064135508793
 20
14.79422924601
 10
-3.064135508793
 20
14.49422924601
1001
ACAD
1000
TCW40_DEV_WIDTH
1002
{
1040
-3.0
1002
}
  0
LWPOLYLINE
  5
3E2
100
AcDbEntity
  8
1
  6
Continuous
 62
           7
100
AcDbPolyline
 90
        2
 70
           0
 10
-3.064135508793
 20
14.19422924601
 40
0.0
 41
0.0
 10
-3.064135508793
 20
13.599289844893
 40
0.0
 41
0.0
1001
ACAD
1000
TCW40_DEV_WIDTH
1002
{
1040
-3.0
1002
}
  0
LWPOLYLINE
  5
3E4
102
{ACAD_REACTORS
330
3E3
102
}
100
AcDbEntity
  8
1
  6
Continuous
 62
           7
100
AcDbPolyline
 90
        4
 70
           0
 10
-3.064135508793
 20
14.19422924601
 10
-3.025135508793
 20
14.49422924601
 10
-3.103135508793
 20
14.49422924601
 10
-3.064135508793
 20
14.19422924601
1001
ACAD
1000
TCW40_DEV_WIDTH
1002
{
1040
-3.0
1002
}
  0
HATCH
  5
3E3
100
AcDbEntity
  8
1
  6
Continuous
 62
           7
100
AcDbHatch
 10
0.0
 20
0.0
 30
0.0
210
0.0
220
0.0
230
1.0
  2
SOLID
 70
           1
 71
           1
 91
        1
 92
        3
 72
           0
 73
           1
 93
        3
 10
-3.0641355087933073
 20
14.194229246009861
 10
-3.0251355087933072
 20
14.494229246009862
 10
-3.1031355087933075
 20
14.494229246009862
 97
        1
330
3E4
 75
           0
 76
           0
 98
        0
  0
LWPOLYLINE
  5
3E6
102
{ACAD_REACTORS
330
3E5
102
}
100
AcDbEntity
  8
1
  6
Continuous
 62
           7
100
AcDbPolyline
 90
        4
 70
           0
 10
-3.064135508793
 20
13.004350443775
 10
-3.103135508793
 20
12.704350443775
 10
-3.025135508793
 20
12.704350443775
 10
-3.064135508793
 20
13.004350443775
1001
ACAD
1000
TCW40_DEV_WIDTH
1002
{
1040
-3.0
1002
}
  0
HATCH
  5
3E5
100
AcDbEntity
  8
1
  6
Continuous
 62
           7
100
AcDbHatch
 10
0.0
 20
0.0
 30
0.0
210
0.0
220
0.0
230
1.0
  2
SOLID
 70
           1
 71
           1
 91
        1
 92
        3
 72
           0
 73
           1
 93
        3
 10
-3.0641355087933073
 20
13.004350443775461
 10
-3.1031355087933075
 20
12.704350443775461
 10
-3.0251355087933072
 20
12.704350443775461
 97
        1
330
3E6
 75
           0
 76
           0
 98
        0
  0
MTEXT
  5
3E7
100
AcDbEntity
  8
1
  6
Continuous
 62
           7
100
AcDbMText
 10
-3.557785494584
 20
13.569802184317
 30
0.0
 40
0.500005143689
 41
0.0
 71
           5
 72
           1
  1
\A1;1.19
 11
0.0
 21
1.0
 31
0.0
 73
           1
 44
1.0
1001
TCAD
1000
TCW_REFPOINT
1002
{
1010
-3.557785494584
1020
13.569802184317
1030
0.0
1002
}
  0
ENDBLK
  5
3E8
100
AcDbEntity
  8
0
100
AcDbBlockEnd
  0
BLOCK
  5
41C
100
AcDbEntity
  8
0
100
AcDbBlockBegin
  2
*D40
 70
           1
 10
0.0
 20
0.0
 30
0.0
  3
*D40
  1

  0
LINE
  5
41D
100
AcDbEntity
  8
1
  6
Continuous
 62
           7
100
AcDbLine
 10
-19.355820329962
 20
-3.632982932555
 30
0.0
 11
-19.355820329962
 21
-6.247967967627
 31
0.0
1001
ACAD
1000
TCW40_DEV_WIDTH
1002
{
1040
-3.0
1002
}
1001
TCAD
1000
TCW_ATTRIBUTE
1002
{
1000
%%c0.875^M^J%%c0.874
1002
}
  0
LINE
  5
41E
100
AcDbEntity
  8
1
  6
Continuous
 62
           7
100
AcDbLine
 10
-16.835820349035
 20
-3.632982932555
 30
0.0
 11
-16.835820349035
 21
-6.247967967627
 31
0.0
1001
ACAD
1000
TCW40_DEV_WIDTH
1002
{
1040
-3.0
1002
}
1001
TCAD
1000
TCW_ATTRIBUTE
1002
{
1000
%%c0.875^M^J%%c0.874
1002
}
  0
LWPOLYLINE
  5
41F
100
AcDbEntity
  8
1
  6
Continuous
 62
           7
100
AcDbPolyline
 90
        2
 70
           0
 10
-20.055820329962
 20
-6.047967967627
 10
-19.705820329962
 20
-6.047967967627
1001
ACAD
1000
TCW40_DEV_WIDTH
1002
{
1040
-3.0
1002
}
1001
TCAD
1000
TCW_ATTRIBUTE
1002
{
1000
%%c0.875^M^J%%c0.874
1002
}
  0
LWPOLYLINE
  5
420
100
AcDbEntity
  8
1
  6
Continuous
 62
           7
100
AcDbPolyline
 90
        2
 70
           0
 10
-19.355820329962
 20
-6.047967967627
 40
0.0
 41
0.0
 10
-16.835820349035
 20
-6.047967967627
 40
0.0
 41
0.0
1001
ACAD
1000
TCW40_DEV_WIDTH
1002
{
1040
-3.0
1002
}
1001
TCAD
1000
TCW_ATTRIBUTE
1002
{
1000
%%c0.875^M^J%%c0.874
1002
}
  0
LWPOLYLINE
  5
421
100
AcDbEntity
  8
1
  6
Continuous
 62
           7
100
AcDbPolyline
 90
        3
 70
           0
 10
-13.237979235854
 20
-6.047967967627
 10
-14.292666767964
 20
-6.047967967627
 10
-16.485820349035
 20
-6.047967967627
1001
ACAD
1000
TCW40_DEV_WIDTH
1002
{
1040
-3.0
1002
}
1001
TCAD
1000
TCW_ATTRIBUTE
1002
{
1000
%%c0.875^M^J%%c0.874
1002
}
  0
LWPOLYLINE
  5
423
102
{ACAD_REACTORS
330
422
102
}
100
AcDbEntity
  8
1
  6
Continuous
 62
           7
100
AcDbPolyline
 90
        4
 70
           0
 10
-16.835820349035
 20
-6.047967967627
 10
-16.485820349035
 20
-6.093467967627
 10
-16.485820349035
 20
-6.002467967627
 10
-16.835820349035
 20
-6.047967967627
1001
ACAD
1000
TCW40_DEV_WIDTH
1002
{
1040
-3.0
1002
}
1001
TCAD
1000
TCW_ATTRIBUTE
1002
{
1000
%%c0.875^M^J%%c0.874
1002
}
  0
HATCH
  5
422
100
AcDbEntity
  8
1
  6
Continuous
 62
           7
100
AcDbHatch
 10
0.0
 20
0.0
 30
0.0
210
0.0
220
0.0
230
1.0
  2
SOLID
 70
           1
 71
           1
 91
        1
 92
        3
 72
           0
 73
           1
 93
        3
 10
-16.835820349035345
 20
-6.0479679676266791
 10
-16.485820349035343
 20
-6.093467967626677
 10
-16.485820349035343
 20
-6.0024679676266777
 97
        1
330
423
 75
           0
 76
           0
 98
        0
1001
TCAD
1000
TCW_ATTRIBUTE
1002
{
1000
%%c0.875^M^J%%c0.874
1002
}
  0
LWPOLYLINE
  5
425
102
{ACAD_REACTORS
330
424
102
}
100
AcDbEntity
  8
1
  6
Continuous
 62
           7
100
AcDbPolyline
 90
        4
 70
           0
 10
-19.355820329962
 20
-6.047967967627
 10
-19.705820329962
 20
-6.002467967627
 10
-19.705820329962
 20
-6.093467967627
 10
-19.355820329962
 20
-6.047967967627
1001
ACAD
1000
TCW40_DEV_WIDTH
1002
{
1040
-3.0
1002
}
1001
TCAD
1000
TCW_ATTRIBUTE
1002
{
1000
%%c0.875^M^J%%c0.874
1002
}
  0
HATCH
  5
424
100
AcDbEntity
  8
1
  6
Continuous
 62
           7
100
AcDbHatch
 10
0.0
 20
0.0
 30
0.0
210
0.0
220
0.0
230
1.0
  2
SOLID
 70
           1
 71
           1
 91
        1
 92
        3
 72
           0
 73
           1
 93
        3
 10
-19.355820329961858
 20
-6.0479679676266898
 10
-19.70582032996186
 20
-6.0024679676266919
 10
-19.70582032996186
 20
-6.0934679676266912
 97
        1
330
425
 75
           0
 76
           0
 98
        0
1001
TCAD
1000
TCW_ATTRIBUTE
1002
{
1000
%%c0.875^M^J%%c0.874
1002
}
  0
MTEXT
  5
426
100
AcDbEntity
  8
1
  6
Continuous
 62
           7
100
AcDbMText
 10
-14.642666767964
 20
-5.066822112608
 30
0.0
 40
0.500000012305
 41
0.0
 71
           5
 72
           1
  1
\A1;%%c0.875\P%%c0.874
 73
           1
 44
1.0
1001
TCAD
1000
TCW_REFPOINT
1002
{
1010
-14.642666767964
1020
-5.066822112608
1030
0.0
1002
}
1000
TCW_ATTRIBUTE
1002
{
1000
%%c0.875^M^J%%c0.874
1002
}
  0
ENDBLK
  5
427
100
AcDbEntity
  8
0
100
AcDbBlockEnd
  0
BLOCK
  5
42A
100
AcDbEntity
  8
0
100
AcDbBlockBegin
  2
*D41
 70
           1
 10
0.0
 20
0.0
 30
0.0
  3
*D41
  1

  0
LINE
  5
42B
100
AcDbEntity
  8
1
  6
Continuous
 62
           7
100
AcDbLine
 10
-19.206577493841
 20
8.534389886498
 30
0.0
 11
-19.206577493841
 21
6.168854144981
 31
0.0
1001
ACAD
1000
TCW40_DEV_WIDTH
1002
{
1040
-3.0
1002
}
1001
TCAD
1000
TCW_ATTRIBUTE
1002
{
1000
%%c0.750^M^J%%c0.749
1002
}
  0
LINE
  5
42C
100
AcDbEntity
  8
1
  6
Continuous
 62
           7
100
AcDbLine
 10
-17.444077446157
 20
8.534389886498
 30
0.0
 11
-17.444077446157
 21
6.168854144981
 31
0.0
1001
ACAD
1000
TCW40_DEV_WIDTH
1002
{
1040
-3.0
1002
}
1001
TCAD
1000
TCW_ATTRIBUTE
1002
{
1000
%%c0.750^M^J%%c0.749
1002
}
  0
LWPOLYLINE
  5
42D
100
AcDbEntity
  8
1
  6
Continuous
 62
           7
100
AcDbPolyline
 90
        2
 70
           0
 10
-19.906577493841
 20
6.368854144981
 10
-19.556577493841
 20
6.368854144981
1001
ACAD
1000
TCW40_DEV_WIDTH
1002
{
1040
-3.0
1002
}
1001
TCAD
1000
TCW_ATTRIBUTE
1002
{
1000
%%c0.750^M^J%%c0.749
1002
}
  0
LWPOLYLINE
  5
42E
100
AcDbEntity
  8
1
  6
Continuous
 62
           7
100
AcDbPolyline
 90
        2
 70
           0
 10
-19.206577493841
 20
6.368854144981
 40
0.0
 41
0.0
 10
-17.444077446157
 20
6.368854144981
 40
0.0
 41
0.0
1001
ACAD
1000
TCW40_DEV_WIDTH
1002
{
1040
-3.0
1002
}
1001
TCAD
1000
TCW_ATTRIBUTE
1002
{
1000
%%c0.750^M^J%%c0.749
1002
}
  0
LWPOLYLINE
  5
42F
100
AcDbEntity
  8
1
  6
Continuous
 62
           7
100
AcDbPolyline
 90
        3
 70
           0
 10
-13.64531246789
 20
6.368854144981
 10
-14.7
 20
6.368854144981
 10
-17.094077446157
 20
6.368854144981
1001
ACAD
1000
TCW40_DEV_WIDTH
1002
{
1040
-3.0
1002
}
1001
TCAD
1000
TCW_ATTRIBUTE
1002
{
1000
%%c0.750^M^J%%c0.749
1002
}
  0
LWPOLYLINE
  5
431
102
{ACAD_REACTORS
330
430
102
}
100
AcDbEntity
  8
1
  6
Continuous
 62
           7
100
AcDbPolyline
 90
        4
 70
           0
 10
-17.444077446157
 20
6.368854144981
 10
-17.094077446157
 20
6.323354144981
 10
-17.094077446157
 20
6.414354144981
 10
-17.444077446157
 20
6.368854144981
1001
ACAD
1000
TCW40_DEV_WIDTH
1002
{
1040
-3.0
1002
}
1001
TCAD
1000
TCW_ATTRIBUTE
1002
{
1000
%%c0.750^M^J%%c0.749
1002
}
  0
HATCH
  5
430
100
AcDbEntity
  8
1
  6
Continuous
 62
           7
100
AcDbHatch
 10
0.0
 20
0.0
 30
0.0
210
0.0
220
0.0
230
1.0
  2
SOLID
 70
           1
 71
           1
 91
        1
 92
        3
 72
           0
 73
           1
 93
        3
 10
-17.444077446157422
 20
6.3688541449808307
 10
-17.094077446157421
 20
6.323354144980831
 10
-17.094077446157421
 20
6.4143541449808303
 97
        1
330
431
 75
           0
 76
           0
 98
        0
1001
TCAD
1000
TCW_ATTRIBUTE
1002
{
1000
%%c0.750^M^J%%c0.749
1002
}
  0
LWPOLYLINE
  5
433
102
{ACAD_REACTORS
330
432
102
}
100
AcDbEntity
  8
1
  6
Continuous
 62
           7
100
AcDbPolyline
 90
        4
 70
           0
 10
-19.206577493841
 20
6.368854144981
 10
-19.556577493841
 20
6.414354144981
 10
-19.556577493841
 20
6.323354144981
 10
-19.206577493841
 20
6.368854144981
1001
ACAD
1000
TCW40_DEV_WIDTH
1002
{
1040
-3.0
1002
}
1001
TCAD
1000
TCW_ATTRIBUTE
1002
{
1000
%%c0.750^M^J%%c0.749
1002
}
  0
HATCH
  5
432
100
AcDbEntity
  8
1
  6
Continuous
 62
           7
100
AcDbHatch
 10
0.0
 20
0.0
 30
0.0
210
0.0
220
0.0
230
1.0
  2
SOLID
 70
           1
 71
           1
 91
        1
 92
        3
 72
           0
 73
           1
 93
        3
 10
-19.20657749384101
 20
6.3688541449808307
 10
-19.556577493841012
 20
6.4143541449808303
 10
-19.556577493841012
 20
6.323354144980831
 97
        1
330
433
 75
           0
 76
           0
 98
        0
1001
TCAD
1000
TCW_ATTRIBUTE
1002
{
1000
%%c0.750^M^J%%c0.749
1002
}
  0
MTEXT
  5
434
100
AcDbEntity
  8
1
  6
Continuous
 62
           7
100
AcDbMText
 10
-15.05
 20
7.35
 30
0.0
 40
0.500000012305
 41
0.0
 71
           5
 72
           1
  1
\A1;%%c0.750\P%%c0.749
 73
           1
 44
1.0
1001
TCAD
1000
TCW_REFPOINT
1002
{
1010
-15.05
1020
7.35
1030
0.0
1002
}
1000
TCW_ATTRIBUTE
1002
{
1000
%%c0.750^M^J%%c0.749
1002
}
  0
ENDBLK
  5
435
100
AcDbEntity
  8
0
100
AcDbBlockEnd
  0
ENDSEC
  0
SECTION
  2
ENTITIES
  0
VIEWPORT
  5
4CB
100
AcDbEntity
 67
           1
  8
0
100
AcDbViewport
 10
5.09983411542
 20
3.968749894964
 30
0.0
 40
10.179900489068
 41
7.932027869795
 68
           1
 69
           1
 12
5.09983411542
 22
3.968749894964
 13
0.0
 23
0.0
 14
0.5
 24
0.5
 15
0.5
 25
0.5
 16
0.0
 26
0.0
 36
1.0
 17
0.0
 27
0.0
 37
0.0
 42
50.0
 43
0.0
 44
0.0
 45
7.932027869795
 50
0.0
 51
0.0
 72
         100
 90
    32800
340
0
  1

281
           0
 71
           0
 74
           1
110
0.0
120
0.0
130
0.0
111
1.0
121
0.0
131
0.0
112
0.0
122
1.0
132
0.0
345
0
346
0
 79
           0
146
0.0
  0
VIEWPORT
  5
4CC
100
AcDbEntity
 67
           1
  8
0
  6
Continuous
100
AcDbViewport
 10
5.09983411542
 20
3.968749894964
 30
0.0
 40
10.179900489068
 41
7.932027869795
 68
           2
 69
           2
 12
149.5830477535
 22
39.027970727698
 13
0.0
 23
0.0
 14
0.5
 24
0.5
 15
0.5
 25
0.5
 16
0.0
 26
0.0
 36
1.0
 17
0.0
 27
0.0
 37
0.0
 42
98.040483136436
 43
0.0
 44
0.0
 45
94.793879834024
 50
0.0
 51
0.0
 72
         100
341
2F
341
30
341
31
341
32
341
33
341
34
 90
    32800
340
0
  1

281
           0
 71
           0
 74
           1
110
0.0
120
0.0
130
0.0
111
1.0
121
0.0
131
0.0
112
0.0
122
1.0
132
0.0
345
0
346
0
 79
           0
146
0.0
  0
POINT
  5
2DD
100
AcDbEntity
  8
DEFPOINTS-0
  6
Continuous
 62
           7
100
AcDbPoint
 10
10.408685571656
 20
6.867362389812
 30
-0.0
1001
TCAD
1000
TC25ExternalObject
1002
{
1000
TCW30POINT
1000

1070
           0
1071
        0
1040
1.0
1040
0.0
1000
Continuous
1000
DEFPOINTS-0
1071
        1
1071
      242
1010
10.408685571656
1020
6.867362389812
1030
-0.0
1070
           3
1071
-2147483645
1070
           0
1000
$POINTSIZE
1070
           5
1040
1.739812524713
1000
$POINTTYPE
1070
          18
1070
           5
1000
ExplodeScale
1070
           5
1040
1.0
1002
}
  0
POINT
  5
2DE
100
AcDbEntity
  8
DEFPOINTS-0
  6
Continuous
 62
           7
100
AcDbPoint
 10
14.722557911576
 20
6.867362389812
 30
-0.0
1001
TCAD
1000
TC25ExternalObject
1002
{
1000
TCW30POINT
1000

1070
           0
1071
        0
1040
1.0
1040
0.0
1000
Continuous
1000
DEFPOINTS-0
1071
        1
1071
      242
1010
14.722557911576
1020
6.867362389812
1030
-0.0
1070
           3
1071
-2147483645
1070
           0
1000
$POINTSIZE
1070
           5
1040
1.739812524713
1000
$POINTTYPE
1070
          18
1070
           5
1000
ExplodeScale
1070
           5
1040
1.0
1002
}
  0
POINT
  5
2DF
100
AcDbEntity
  8
DETAIL-0
  6
Continuous
 62
           7
100
AcDbPoint
 10
12.57234685519
 20
-4.492410550028
 30
-0.0
1001
TCAD
1000
TC25ExternalObject
1002
{
1000
TCW30POINT
1000

1070
           0
1071
        0
1040
1.0
1040
0.0
1000
Continuous
1000
DETAIL-0
1071
        1
1071
      242
1010
12.57234685519
1020
-4.492410550028
1030
-0.0
1070
           3
1071
-2147483645
1070
           0
1000
$POINTSIZE
1070
           5
1040
1.739812524713
1000
$POINTTYPE
1070
          18
1070
           5
1000
ExplodeScale
1070
           5
1040
1.0
1002
}
  0
POINT
  5
2E0
100
AcDbEntity
  8
DETAIL-0
  6
Continuous
 62
           7
100
AcDbPoint
 10
12.57234685519
 20
-1.355048848268
 30
-0.0
1001
TCAD
1000
TC25ExternalObject
1002
{
1000
TCW30POINT
1000

1070
           0
1071
        0
1040
1.0
1040
0.0
1000
Continuous
1000
DETAIL-0
1071
        1
1071
      242
1010
12.57234685519
1020
-1.355048848268
1030
-0.0
1070
           3
1071
-2147483645
1070
           0
1000
$POINTSIZE
1070
           5
1040
1.739812524713
1000
$POINTTYPE
1070
          18
1070
           5
1000
ExplodeScale
1070
           5
1040
1.0
1002
}
  0
LINE
  5
2E1
100
AcDbEntity
  8
DETAIL-1
  6
CENTER
 62
           7
100
AcDbLine
 10
12.57234685519
 20
-8.218027766439
 30
0.0
 11
12.57234685519
 21
-0.849852909336
 31
0.0
1001
ACAD
1000
TCW40_DEV_WIDTH
1002
{
1040
-3.0
1002
}
  0
LINE
  5
2E2
100
AcDbEntity
  8
DETAIL-1
  6
CENTER
 62
           7
100
AcDbLine
 10
8.84672983435
 20
-4.492410550028
 30
0.0
 11
16.29796387603
 21
-4.492410550028
 31
0.0
1001
ACAD
1000
TCW40_DEV_WIDTH
1002
{
1040
-3.0
1002
}
  0
LINE
  5
2E3
100
AcDbEntity
  8
DETAIL-0
  6
Continuous
 62
           7
100
AcDbLine
 10
12.042917068018
 20
-4.374759486212
 30
0.0
 11
12.27821919565
 21
-4.374759486212
 31
0.0
1001
ACAD
1000
TCW40_DEV_WIDTH
1002
{
1040
-3.0
1002
}
  0
LINE
  5
2E4
100
AcDbEntity
  8
DETAIL-0
  6
Continuous
 62
           7
100
AcDbLine
 10
12.042917068018
 20
-4.610061613844
 30
0.0
 11
12.27821919565
 21
-4.610061613844
 31
0.0
1001
ACAD
1000
TCW40_DEV_WIDTH
1002
{
1040
-3.0
1002
}
  0
LINE
  5
2E5
100
AcDbEntity
  8
DETAIL-0
  6
Continuous
 62
           7
100
AcDbLine
 10
12.27821919565
 20
-4.610061613844
 30
0.0
 11
12.27821919565
 21
-4.374759486212
 31
0.0
1001
ACAD
1000
TCW40_DEV_WIDTH
1002
{
1040
-3.0
1002
}
  0
LINE
  5
2E6
100
AcDbEntity
  8
DETAIL-0
  6
Continuous
 62
           7
100
AcDbLine
 10
12.042917068018
 20
-4.610061613844
 30
0.0
 11
12.042917068018
 21
-4.374759486212
 31
0.0
1001
ACAD
1000
TCW40_DEV_WIDTH
1002
{
1040
-3.0
1002
}
  0
CIRCLE
  5
2E7
100
AcDbEntity
  8
DETAIL-0
  6
Continuous
 62
           7
100
AcDbCircle
 10
12.57234685519
 20
-4.492410550028
 30
0.0
 40
3.137361764908
1001
ACAD
1000
TCW40_DEV_WIDTH
1002
{
1040
-3.0
1002
}
  0
ARC
  5
2E8
100
AcDbEntity
  8
DETAIL-0
  6
Continuous
 62
           7
100
AcDbCircle
 10
12.57234685519
 20
-4.492410550028
 30
0.0
 40
0.431387245655
100
AcDbArc
 50
-164.172995041554
 51
164.172995041554
1001
ACAD
1000
TCW40_DEV_WIDTH
1002
{
1040
-3.0
1002
}
  0
CIRCLE
  5
2E9
100
AcDbEntity
  8
DETAIL-0
  6
Continuous
 62
           7
100
AcDbCircle
 10
12.57234685519
 20
-4.492410550028
 30
0.0
 40
2.156936168671
1001
ACAD
1000
TCW40_DEV_WIDTH
1002
{
1040
-3.0
1002
}
  0
CIRCLE
  5
2EA
100
AcDbEntity
  8
DETAIL-0
  6
Continuous
 62
           7
100
AcDbCircle
 10
12.57234685519
 20
-4.492410550028
 30
0.0
 40
1.960851073265
1001
ACAD
1000
TCW40_DEV_WIDTH
1002
{
1040
-3.0
1002
}
  0
CIRCLE
  5
2EB
100
AcDbEntity
  8
DETAIL-0
  6
Continuous
 62
           7
100
AcDbCircle
 10
12.57234685519
 20
-1.943304167348
 30
0.0
 40
0.235302120447
1001
ACAD
1000
TCW40_DEV_WIDTH
1002
{
1040
-3.0
1002
}
  0
CIRCLE
  5
2EC
100
AcDbEntity
  8
DETAIL-0
  6
Continuous
 62
           7
100
AcDbCircle
 10
10.02324047251
 20
-4.492410550028
 30
0.0
 40
0.235302120447
1001
ACAD
1000
TCW40_DEV_WIDTH
1002
{
1040
-3.0
1002
}
  0
ARC
  5
2ED
100
AcDbEntity
  8
DETAIL-1
  6
Continuous
 62
           7
100
AcDbCircle
 10
12.57234685519
 20
-4.492410550028
 30
0.0
 40
2.549106359482
100
AcDbArc
 50
171.150101580614
 51
188.849898419386
1001
ACAD
1000
TCW40_DEV_WIDTH
1002
{
1040
-3.0
1002
}
  0
CIRCLE
  5
2EE
100
AcDbEntity
  8
DETAIL-0
  6
Continuous
 62
           7
100
AcDbCircle
 10
12.57234685519
 20
-7.041516932708
 30
0.0
 40
0.235302120447
1001
ACAD
1000
TCW40_DEV_WIDTH
1002
{
1040
-3.0
1002
}
  0
CIRCLE
  5
2EF
100
AcDbEntity
  8
DETAIL-0
  6
Continuous
 62
           7
100
AcDbCircle
 10
15.12145323787
 20
-4.492410550028
 30
0.0
 40
0.235302120447
1001
ACAD
1000
TCW40_DEV_WIDTH
1002
{
1040
-3.0
1002
}
  0
ARC
  5
2F0
100
AcDbEntity
  8
DETAIL-1
  6
Continuous
 62
           7
100
AcDbCircle
 10
12.57234685519
 20
-4.492410550028
 30
0.0
 40
2.549106359482
100
AcDbArc
 50
-8.849999904764
 51
8.849999904764
1001
ACAD
1000
TCW40_DEV_WIDTH
1002
{
1040
-3.0
1002
}
  0
POINT
  5
2F1
100
AcDbEntity
  8
DEFPOINTS-0
  6
Continuous
 62
           7
100
AcDbPoint
 10
12.036191954444
 20
5.84771983674
 30
-0.0
1001
TCAD
1000
TC25ExternalObject
1002
{
1000
TCW30POINT
1000

1070
           0
1071
        0
1040
1.0
1040
0.0
1000
Continuous
1000
DEFPOINTS-0
1071
        1
1071
      242
1010
12.036191954444
1020
5.84771983674
1030
-0.0
1070
           3
1071
-2147483645
1070
           0
1000
$POINTSIZE
1070
           5
1040
1.739812524713
1000
$POINTTYPE
1070
          18
1070
           5
1000
ExplodeScale
1070
           5
1040
1.0
1002
}
  0
POINT
  5
2F2
100
AcDbEntity
  8
DETAIL-0
  6
Continuous
 62
           7
100
AcDbPoint
 10
12.565621741616
 20
5.84771983674
 30
-0.0
1001
TCAD
1000
TC25ExternalObject
1002
{
1000
TCW30POINT
1000

1070
           0
1071
        0
1040
1.0
1040
0.0
1000
Continuous
1000
DETAIL-0
1071
        1
1071
      242
1010
12.565621741616
1020
5.84771983674
1030
-0.0
1070
           3
1071
-2147483645
1070
           0
1000
$POINTSIZE
1070
           5
1040
1.739812524713
1000
$POINTTYPE
1070
          18
1070
           5
1000
ExplodeScale
1070
           5
1040
1.0
1002
}
  0
LINE
  5
2F3
100
AcDbEntity
  8
DETAIL-0
  6
Continuous
 62
           7
100
AcDbLine
 10
9.669721410764
 20
9.872731570408
 30
0.0
 11
15.461521719841
 21
9.872731570408
 31
0.0
1001
ACAD
1000
TCW40_DEV_WIDTH
1002
{
1040
-3.0
1002
}
  0
LINE
  5
2F4
100
AcDbEntity
  8
DETAIL-0
  6
Continuous
 62
           7
100
AcDbLine
 10
9.428260039856
 20
7.0242304749
 30
0.0
 11
11.061054559819
 21
7.0242304749
 31
0.0
1001
ACAD
1000
TCW40_DEV_WIDTH
1002
{
1040
-3.0
1002
}
  0
LINE
  5
2F5
100
AcDbEntity
  8
DETAIL-0
  6
Continuous
 62
           7
100
AcDbLine
 10
9.428260039856
 20
7.0242304749
 30
0.0
 11
9.428260039856
 21
7.573268772708
 31
0.0
1001
ACAD
1000
TCW40_DEV_WIDTH
1002
{
1040
-3.0
1002
}
  0
LINE
  5
2F6
100
AcDbEntity
  8
DETAIL-0
  6
Continuous
 62
           7
100
AcDbLine
 10
15.702983443376
 20
7.0242304749
 30
0.0
 11
15.702983443376
 21
7.573268772708
 31
0.0
1001
ACAD
1000
TCW40_DEV_WIDTH
1002
{
1040
-3.0
1002
}
  0
LINE
  5
2F7
100
AcDbEntity
  8
DETAIL-0
  6
Continuous
 62
           7
100
AcDbLine
 10
9.428260039856
 20
7.573268772708
 30
0.0
 11
15.702983443376
 21
7.573268772708
 31
0.0
1001
ACAD
1000
TCW40_DEV_WIDTH
1002
{
1040
-3.0
1002
}
  0
LINE
  5
2F8
100
AcDbEntity
  8
DETAIL-0
  6
Continuous
 62
           7
100
AcDbLine
 10
9.722387699396
 20
9.455685793764
 30
0.0
 11
9.722387699396
 21
9.872731570408
 31
0.0
1001
ACAD
1000
TCW40_DEV_WIDTH
1002
{
1040
-3.0
1002
}
  0
LINE
  5
2F9
100
AcDbEntity
  8
DETAIL-0
  6
Continuous
 62
           7
100
AcDbLine
 10
15.408855783836
 20
9.455685793764
 30
0.0
 11
15.408855783836
 21
9.872731570408
 31
0.0
1001
ACAD
1000
TCW40_DEV_WIDTH
1002
{
1040
-3.0
1002
}
  0
LINE
  5
2FA
100
AcDbEntity
  8
DETAIL-0
  6
Continuous
 62
           7
100
AcDbLine
 10
13.597335293836
 20
7.769353879068
 30
0.0
 11
13.597335293836
 21
9.259600687404
 31
0.0
1001
ACAD
1000
TCW40_DEV_WIDTH
1002
{
1040
-3.0
1002
}
  0
LINE
  5
2FB
100
AcDbEntity
  8
DETAIL-0
  6
Continuous
 62
           7
100
AcDbLine
 10
11.533908189397
 20
7.769353879068
 30
0.0
 11
11.533908189397
 21
9.259600687404
 31
0.0
1001
ACAD
1000
TCW40_DEV_WIDTH
1002
{
1040
-3.0
1002
}
  0
LINE
  5
2FC
100
AcDbEntity
  8
DETAIL-0
  6
Continuous
 62
           7
100
AcDbLine
 10
14.457011617139
 20
9.455685793764
 30
0.0
 11
14.606691222228
 21
7.573268772708
 31
0.0
1001
ACAD
1000
TCW40_DEV_WIDTH
1002
{
1040
-3.0
1002
}
  0
LINE
  5
2FD
100
AcDbEntity
  8
DETAIL-0
  6
Continuous
 62
           7
100
AcDbLine
 10
14.820655368586
 20
7.573268772708
 30
0.0
 11
14.655288954988
 21
9.455685793764
 31
0.0
1001
ACAD
1000
TCW40_DEV_WIDTH
1002
{
1040
-3.0
1002
}
  0
LINE
  5
2FE
100
AcDbEntity
  8
DETAIL-0
  6
Continuous
 62
           7
100
AcDbLine
 10
10.674231866093
 20
9.455685793764
 30
0.0
 11
10.674231866093
 21
8.671345368324
 31
0.0
1001
ACAD
1000
TCW40_DEV_WIDTH
1002
{
1040
-3.0
1002
}
  0
LINE
  5
2FF
100
AcDbEntity
  8
DETAIL-0
  6
Continuous
 62
           7
100
AcDbLine
 10
10.310584192944
 20
7.573268772708
 30
0.0
 11
10.455510695055
 21
8.535579962383
 31
0.0
1001
ACAD
1000
TCW40_DEV_WIDTH
1002
{
1040
-3.0
1002
}
  0
LINE
  5
300
100
AcDbEntity
  8
DETAIL-0
  6
Continuous
 62
           7
100
AcDbLine
 10
10.524552261004
 20
7.573268772708
 30
0.0
 11
10.674231866093
 21
8.671341446622
 31
0.0
1001
ACAD
1000
TCW40_DEV_WIDTH
1002
{
1040
-3.0
1002
}
  0
LINE
  5
301
100
AcDbEntity
  8
DETAIL-0
  6
Continuous
 62
           7
100
AcDbLine
 10
12.036191954444
 20
5.834230218001
 30
0.0
 11
12.997008975608
 21
5.834230218001
 31
0.0
1001
ACAD
1000
TCW40_DEV_WIDTH
1002
{
1040
-3.0
1002
}
  0
LINE
  5
302
100
AcDbEntity
  8
DETAIL-0
  6
Continuous
 62
           7
100
AcDbLine
 10
12.134234507624
 20
5.834230218001
 30
0.0
 11
12.134234507624
 21
7.0242304749
 31
0.0
1001
ACAD
1000
TCW40_DEV_WIDTH
1002
{
1040
-3.0
1002
}
  0
LINE
  5
303
100
AcDbEntity
  8
DETAIL-0
  6
Continuous
 62
           7
100
AcDbLine
 10
12.997008975608
 20
5.834230218001
 30
0.0
 11
12.997008975608
 21
7.0242304749
 31
0.0
1001
ACAD
1000
TCW40_DEV_WIDTH
1002
{
1040
-3.0
1002
}
  0
LINE
  5
304
100
AcDbEntity
  8
DETAIL-0
  6
Continuous
 62
           7
100
AcDbLine
 10
10.408685571656
 20
6.867362389812
 30
0.0
 11
10.934770146914
 21
6.867362389812
 31
0.0
1001
ACAD
1000
TCW40_DEV_WIDTH
1002
{
1040
-3.0
1002
}
  0
LINE
  5
305
100
AcDbEntity
  8
DETAIL-0
  6
Continuous
 62
           7
100
AcDbLine
 10
10.408685571656
 20
6.867362389812
 30
0.0
 11
10.408685571656
 21
7.0242304749
 31
0.0
1001
ACAD
1000
TCW40_DEV_WIDTH
1002
{
1040
-3.0
1002
}
  0
LINE
  5
306
100
AcDbEntity
  8
DETAIL-0
  6
Continuous
 62
           7
100
AcDbLine
 10
14.722557911576
 20
6.867362389812
 30
0.0
 11
14.722557911576
 21
7.0242304749
 31
0.0
1001
ACAD
1000
TCW40_DEV_WIDTH
1002
{
1040
-3.0
1002
}
  0
LINE
  5
307
100
AcDbEntity
  8
DETAIL-0
  6
Continuous
 62
           7
100
AcDbLine
 10
13.687059916804
 20
6.867362389812
 30
0.0
 11
14.722557911576
 21
6.867362389812
 31
0.0
1001
ACAD
1000
TCW40_DEV_WIDTH
1002
{
1040
-3.0
1002
}
  0
LINE
  5
308
100
AcDbEntity
  8
DETAIL-0
  6
Continuous
 62
           7
100
AcDbLine
 10
11.977366422536
 20
7.0242304749
 30
0.0
 11
13.153877060696
 21
7.0242304749
 31
0.0
1001
ACAD
1000
TCW40_DEV_WIDTH
1002
{
1040
-3.0
1002
}
  0
LINE
  5
309
100
AcDbEntity
  8
DETAIL-0
  6
Continuous
 62
           7
100
AcDbLine
 10
13.52268218371
 20
7.0242304749
 30
0.0
 11
15.702983443376
 21
7.0242304749
 31
0.0
1001
ACAD
1000
TCW40_DEV_WIDTH
1002
{
1040
-3.0
1002
}
  0
LINE
  5
30A
100
AcDbEntity
  8
DETAIL-0
  6
Continuous
 62
           7
100
AcDbLine
 10
13.153877060696
 20
7.0242304749
 30
0.0
 11
13.153877060696
 21
7.10566361753
 31
0.0
1001
ACAD
1000
TCW40_DEV_WIDTH
1002
{
1040
-3.0
1002
}
  0
LINE
  5
30B
100
AcDbEntity
  8
DETAIL-0
  6
Continuous
 62
           7
100
AcDbLine
 10
11.977366422536
 20
7.0242304749
 30
0.0
 11
11.977366422536
 21
7.115762139146
 31
0.0
1001
ACAD
1000
TCW40_DEV_WIDTH
1002
{
1040
-3.0
1002
}
  0
LINE
  5
30C
100
AcDbEntity
  8
DETAIL-0
  6
Continuous
 62
           7
100
AcDbLine
 10
12.036191954444
 20
5.834230218001
 30
0.0
 11
12.036191954444
 21
6.82814536854
 31
0.0
1001
ACAD
1000
TCW40_DEV_WIDTH
1002
{
1040
-3.0
1002
}
  0
LINE
  5
30D
100
AcDbEntity
  8
DETAIL-0
  6
Continuous
 62
           7
100
AcDbLine
 10
12.036191954444
 20
6.82814536854
 30
0.0
 11
12.134234507624
 21
6.82814536854
 31
0.0
1001
ACAD
1000
TCW40_DEV_WIDTH
1002
{
1040
-3.0
1002
}
  0
LINE
  5
30E
100
AcDbEntity
  8
DETAIL-0
  6
Continuous
 62
           7
100
AcDbLine
 10
9.899170187886
 20
9.259600687404
 30
0.0
 11
9.899170187886
 21
9.455685793764
 31
0.0
1001
ACAD
1000
TCW40_DEV_WIDTH
1002
{
1040
-3.0
1002
}
  0
LINE
  5
30F
100
AcDbEntity
  8
DETAIL-0
  6
Continuous
 62
           7
100
AcDbLine
 10
9.722387699396
 20
9.455685793764
 30
0.0
 11
9.899170187886
 21
9.455685793764
 31
0.0
1001
ACAD
1000
TCW40_DEV_WIDTH
1002
{
1040
-3.0
1002
}
  0
LINE
  5
310
100
AcDbEntity
  8
DETAIL-0
  6
Continuous
 62
           7
100
AcDbLine
 10
10.674231866093
 20
9.455685793764
 30
0.0
 11
15.408855783836
 21
9.455685793764
 31
0.0
1001
ACAD
1000
TCW40_DEV_WIDTH
1002
{
1040
-3.0
1002
}
  0
LINE
  5
311
100
AcDbEntity
  8
DETAIL-0
  6
Continuous
 62
           7
100
AcDbLine
 10
10.401716706976
 20
8.622010355564
 30
0.0
 11
10.207255185297
 21
8.683839911302
 31
0.0
1001
ACAD
1000
TCW40_DEV_WIDTH
1002
{
1040
-3.0
1002
}
  0
ARC
  5
312
100
AcDbEntity
  8
DETAIL-0
  6
Continuous
 62
           7
100
AcDbCircle
 10
10.377951192085
 20
8.54726271302
 30
0.0
 40
0.078434042633
100
AcDbArc
 50
-8.564000247422
 51
72.360997991785
1001
ACAD
1000
TCW40_DEV_WIDTH
1002
{
1040
-3.0
1002
}
  0
ARC
  5
313
100
AcDbEntity
  8
DETAIL-0
  6
Continuous
 62
           7
100
AcDbCircle
 10
13.793420400196
 20
9.259600687404
 30
0.0
 40
0.196085110307
100
AcDbArc
 50
90.0
 51
180.000008651422
1001
ACAD
1000
TCW40_DEV_WIDTH
1002
{
1040
-3.0
1002
}
  0
ARC
  5
314
100
AcDbEntity
  8
DETAIL-0
  6
Continuous
 62
           7
100
AcDbCircle
 10
11.337823083037
 20
9.259600687404
 30
0.0
 40
0.196085110307
100
AcDbArc
 50
0.0
 51
90.000002504478
1001
ACAD
1000
TCW40_DEV_WIDTH
1002
{
1040
-3.0
1002
}
  0
ARC
  5
315
100
AcDbEntity
  8
DETAIL-0
  6
Continuous
 62
           7
100
AcDbCircle
 10
11.337823083037
 20
7.769353879068
 30
0.0
 40
0.196085110307
100
AcDbArc
 50
-90.0
 51
0.0
1001
ACAD
1000
TCW40_DEV_WIDTH
1002
{
1040
-3.0
1002
}
  0
ARC
  5
316
100
AcDbEntity
  8
DETAIL-0
  6
Continuous
 62
           7
100
AcDbCircle
 10
13.793420400196
 20
7.769353879068
 30
0.0
 40
0.196085110307
100
AcDbArc
 50
180.0
 51
269.999997495522
1001
ACAD
1000
TCW40_DEV_WIDTH
1002
{
1040
-3.0
1002
}
  0
LWPOLYLINE
  5
317
100
AcDbEntity
  8
DETAIL-0
  6
Continuous
 62
           7
100
AcDbPolyline
 90
        7
 70
           0
 10
10.934772539152
 20
6.867375331429
 10
11.115407668595
 20
7.09174257702
 10
11.562395433649
 20
7.142826668929
 10
12.149866412303
 20
7.104511639146
 10
13.018303818159
 20
7.117284622974
 10
13.465295504915
 20
7.078969593192
 10
13.687023562625
 20
6.867471060178
1001
ACAD
1000
TCW40_DEV_WIDTH
1002
{
1040
-3.0
1002
}
  0
POINT
  5
318
100
AcDbEntity
  8
DEFPOINTS-0
  6
Continuous
 62
           7
100
AcDbPoint
 10
12.036191954444
 20
5.84771983674
 30
-0.0
1001
TCAD
1000
TC25ExternalObject
1002
{
1000
TCW30POINT
1000

1070
           0
1071
        0
1040
1.0
1040
0.0
1000
Continuous
1000
DEFPOINTS-0
1071
        1
1071
      242
1010
12.036191954444
1020
5.84771983674
1030
-0.0
1070
           3
1071
-2147483645
1070
           0
1000
$POINTSIZE
1070
           5
1040
1.739812524713
1000
$POINTTYPE
1070
          18
1070
           5
1000
ExplodeScale
1070
           5
1040
1.0
1002
}
  0
POINT
  5
319
100
AcDbEntity
  8
DEFPOINTS-0
  6
Continuous
 62
           7
100
AcDbPoint
 10
11.977366422536
 20
7.0242304749
 30
-0.0
1001
TCAD
1000
TC25ExternalObject
1002
{
1000
TCW30POINT
1000

1070
           0
1071
        0
1040
1.0
1040
0.0
1000
Continuous
1000
DEFPOINTS-0
1071
        1
1071
      242
1010
11.977366422536
1020
7.0242304749
1030
-0.0
1070
           3
1071
-2147483645
1070
           0
1000
$POINTSIZE
1070
           5
1040
1.739812524713
1000
$POINTTYPE
1070
          18
1070
           5
1000
ExplodeScale
1070
           5
1040
1.0
1002
}
  0
POINT
  5
31A
100
AcDbEntity
  8
DETAIL-0
  6
Continuous
 62
           7
100
AcDbPoint
 10
0.740256960666
 20
5.861222178417
 30
-0.0
1001
TCAD
1000
TC25ExternalObject
1002
{
1000
TCW30POINT
1000

1070
           0
1071
        0
1040
1.0
1040
0.0
1000
Continuous
1000
DETAIL-0
1071
        1
1071
      242
1010
0.740256960666
1020
5.861222178417
1030
-0.0
1070
           3
1071
-2147483645
1070
           0
1000
$POINTSIZE
1070
           5
1040
1.739812524713
1000
$POINTTYPE
1070
          18
1070
           5
1000
ExplodeScale
1070
           5
1040
1.0
1002
}
  0
LINE
  5
31B
100
AcDbEntity
  8
DETAIL-0
  6
Continuous
 62
           7
100
AcDbLine
 10
-2.155644769698
 20
9.886232980525
 30
0.0
 11
3.636155230302
 21
9.886232980525
 31
0.0
1001
ACAD
1000
TCW40_DEV_WIDTH
1002
{
1040
-3.0
1002
}
  0
LINE
  5
31C
100
AcDbEntity
  8
DETAIL-0
  6
Continuous
 62
           7
100
AcDbLine
 10
-2.397104741094
 20
7.037732816577
 30
0.0
 11
-0.654731703001
 21
7.037732816577
 31
0.0
1001
ACAD
1000
TCW40_DEV_WIDTH
1002
{
1040
-3.0
1002
}
  0
LINE
  5
31D
100
AcDbEntity
  8
DETAIL-0
  6
Continuous
 62
           7
100
AcDbLine
 10
-2.397104741094
 20
7.037732816577
 30
0.0
 11
-2.397104741094
 21
7.586771114385
 31
0.0
1001
ACAD
1000
TCW40_DEV_WIDTH
1002
{
1040
-3.0
1002
}
  0
LINE
  5
31E
100
AcDbEntity
  8
DETAIL-0
  6
Continuous
 62
           7
100
AcDbLine
 10
3.877618662426
 20
7.037732816577
 30
0.0
 11
3.877618662426
 21
7.586771114385
 31
0.0
1001
ACAD
1000
TCW40_DEV_WIDTH
1002
{
1040
-3.0
1002
}
  0
LINE
  5
31F
100
AcDbEntity
  8
DETAIL-0
  6
Continuous
 62
           7
100
AcDbLine
 10
-2.397104741094
 20
7.586771114385
 30
0.0
 11
3.877618662426
 21
7.586771114385
 31
0.0
1001
ACAD
1000
TCW40_DEV_WIDTH
1002
{
1040
-3.0
1002
}
  0
LINE
  5
320
100
AcDbEntity
  8
DETAIL-0
  6
Continuous
 62
           7
100
AcDbLine
 10
-2.102977081554
 20
9.469188135441
 30
0.0
 11
1.889198032871
 21
9.469188135441
 31
0.0
1001
ACAD
1000
TCW40_DEV_WIDTH
1002
{
1040
-3.0
1002
}
  0
LINE
  5
321
100
AcDbEntity
  8
DETAIL-0
  6
Continuous
 62
           7
100
AcDbLine
 10
3.583491002886
 20
9.469188135441
 30
0.0
 11
3.583491002886
 21
9.886232980525
 31
0.0
1001
ACAD
1000
TCW40_DEV_WIDTH
1002
{
1040
-3.0
1002
}
  0
LINE
  5
322
100
AcDbEntity
  8
DETAIL-0
  6
Continuous
 62
           7
100
AcDbLine
 10
-2.102977081554
 20
9.469188135441
 30
0.0
 11
-2.102977081554
 21
9.886232980525
 31
0.0
1001
ACAD
1000
TCW40_DEV_WIDTH
1002
{
1040
-3.0
1002
}
  0
LINE
  5
323
100
AcDbEntity
  8
DETAIL-0
  6
Continuous
 62
           7
100
AcDbLine
 10
2.852940643822
 20
9.469188135441
 30
0.0
 11
3.583491002886
 21
9.469188135441
 31
0.0
1001
ACAD
1000
TCW40_DEV_WIDTH
1002
{
1040
-3.0
1002
}
  0
LINE
  5
324
100
AcDbEntity
  8
DETAIL-0
  6
Continuous
 62
           7
100
AcDbLine
 10
1.725659132465
 20
8.468109235717
 30
0.0
 11
2.401300547406
 21
8.675780831123
 31
0.0
1001
ACAD
1000
TCW40_DEV_WIDTH
1002
{
1040
-3.0
1002
}
  0
LINE
  5
325
100
AcDbEntity
  8
DETAIL-0
  6
Continuous
 62
           7
100
AcDbLine
 10
1.725659132465
 20
7.782856220745
 30
0.0
 11
1.725659132465
 21
8.468552642132
 31
0.0
1001
ACAD
1000
TCW40_DEV_WIDTH
1002
{
1040
-3.0
1002
}
  0
LINE
  5
326
100
AcDbEntity
  8
DETAIL-0
  6
Continuous
 62
           7
100
AcDbLine
 10
-0.38456956516
 20
7.782856220745
 30
0.0
 11
-0.38456956516
 21
9.273103029081
 31
0.0
1001
ACAD
1000
TCW40_DEV_WIDTH
1002
{
1040
-3.0
1002
}
  0
LINE
  5
327
100
AcDbEntity
  8
DETAIL-0
  6
Continuous
 62
           7
100
AcDbLine
 10
0.485937715078
 20
7.782856220745
 30
0.0
 11
0.485937715078
 21
9.273103029081
 31
0.0
1001
ACAD
1000
TCW40_DEV_WIDTH
1002
{
1040
-3.0
1002
}
  0
LINE
  5
328
100
AcDbEntity
  8
DETAIL-0
  6
Continuous
 62
           7
100
AcDbLine
 10
2.481292698334
 20
8.690468574358
 30
0.0
 11
2.481292698334
 21
8.684847710001
 31
0.0
1001
ACAD
1000
TCW40_DEV_WIDTH
1002
{
1040
-3.0
1002
}
  0
LINE
  5
329
100
AcDbEntity
  8
DETAIL-0
  6
Continuous
 62
           7
100
AcDbLine
 10
2.710743646392
 20
8.855853531258
 30
0.0
 11
2.710743646392
 21
8.684847710001
 31
0.0
1001
ACAD
1000
TCW40_DEV_WIDTH
1002
{
1040
-3.0
1002
}
  0
LINE
  5
32A
100
AcDbEntity
  8
DETAIL-0
  6
Continuous
 62
           7
100
AcDbLine
 10
2.628623203849
 20
7.586771114385
 30
0.0
 11
2.481292698334
 21
8.684847710001
 31
0.0
1001
ACAD
1000
TCW40_DEV_WIDTH
1002
{
1040
-3.0
1002
}
  0
LINE
  5
32B
100
AcDbEntity
  8
DETAIL-0
  6
Continuous
 62
           7
100
AcDbLine
 10
2.710743646392
 20
8.684847710001
 30
0.0
 11
2.858074151907
 21
7.586771114385
 31
0.0
1001
ACAD
1000
TCW40_DEV_WIDTH
1002
{
1040
-3.0
1002
}
  0
LINE
  5
32C
100
AcDbEntity
  8
DETAIL-0
  6
Continuous
 62
           7
100
AcDbLine
 10
-1.416679209294
 20
6.880864731489
 30
0.0
 11
-0.748115274054
 21
6.880864731489
 31
0.0
1001
ACAD
1000
TCW40_DEV_WIDTH
1002
{
1040
-3.0
1002
}
  0
LINE
  5
32D
100
AcDbEntity
  8
DETAIL-0
  6
Continuous
 62
           7
100
AcDbLine
 10
2.897193130626
 20
6.880864731489
 30
0.0
 11
2.897193130626
 21
7.037732816577
 31
0.0
1001
ACAD
1000
TCW40_DEV_WIDTH
1002
{
1040
-3.0
1002
}
  0
LINE
  5
32E
100
AcDbEntity
  8
DETAIL-0
  6
Continuous
 62
           7
100
AcDbLine
 10
-1.416679209294
 20
6.880864731489
 30
0.0
 11
-1.416679209294
 21
7.037732816577
 31
0.0
1001
ACAD
1000
TCW40_DEV_WIDTH
1002
{
1040
-3.0
1002
}
  0
LINE
  5
32F
100
AcDbEntity
  8
DETAIL-0
  6
Continuous
 62
           7
100
AcDbLine
 10
0.308869726674
 20
5.847734062261
 30
0.0
 11
1.171644194658
 21
5.847734062261
 31
0.0
1001
ACAD
1000
TCW40_DEV_WIDTH
1002
{
1040
-3.0
1002
}
  0
LINE
  5
330
100
AcDbEntity
  8
DETAIL-0
  6
Continuous
 62
           7
100
AcDbLine
 10
1.171644194658
 20
5.847734062261
 30
0.0
 11
1.171644194658
 21
7.037732816577
 31
0.0
1001
ACAD
1000
TCW40_DEV_WIDTH
1002
{
1040
-3.0
1002
}
  0
LINE
  5
331
100
AcDbEntity
  8
DETAIL-0
  6
Continuous
 62
           7
100
AcDbLine
 10
0.308869726674
 20
5.847734062261
 30
0.0
 11
0.308869726674
 21
7.037732816577
 31
0.0
1001
ACAD
1000
TCW40_DEV_WIDTH
1002
{
1040
-3.0
1002
}
  0
LINE
  5
332
100
AcDbEntity
  8
DETAIL-0
  6
Continuous
 62
           7
100
AcDbLine
 10
1.770948091687
 20
7.037732816577
 30
0.0
 11
3.877618662426
 21
7.037732816577
 31
0.0
1001
ACAD
1000
TCW40_DEV_WIDTH
1002
{
1040
-3.0
1002
}
  0
LINE
  5
333
100
AcDbEntity
  8
DETAIL-0
  6
Continuous
 62
           7
100
AcDbLine
 10
0.152001641586
 20
7.037732816577
 30
0.0
 11
1.328512279746
 21
7.037732816577
 31
0.0
1001
ACAD
1000
TCW40_DEV_WIDTH
1002
{
1040
-3.0
1002
}
  0
LINE
  5
334
100
AcDbEntity
  8
DETAIL-0
  6
Continuous
 62
           7
100
AcDbLine
 10
1.949098111162
 20
6.880864731489
 30
0.0
 11
2.897193130626
 21
6.880864731489
 31
0.0
1001
ACAD
1000
TCW40_DEV_WIDTH
1002
{
1040
-3.0
1002
}
  0
LINE
  5
335
100
AcDbEntity
  8
DETAIL-0
  6
Continuous
 62
           7
100
AcDbLine
 10
0.152001641586
 20
7.037732816577
 30
0.0
 11
0.152001641586
 21
7.152583785075
 31
0.0
1001
ACAD
1000
TCW40_DEV_WIDTH
1002
{
1040
-3.0
1002
}
  0
LINE
  5
336
100
AcDbEntity
  8
DETAIL-0
  6
Continuous
 62
           7
100
AcDbLine
 10
1.328512279746
 20
7.037732816577
 30
0.0
 11
1.328512279746
 21
7.145738227343
 31
0.0
1001
ACAD
1000
TCW40_DEV_WIDTH
1002
{
1040
-3.0
1002
}
  0
LINE
  5
337
100
AcDbEntity
  8
DETAIL-0
  6
Continuous
 62
           7
100
AcDbLine
 10
0.62260589685
 20
5.847734062261
 30
0.0
 11
0.62260589685
 21
6.841647710217
 31
0.0
1001
ACAD
1000
TCW40_DEV_WIDTH
1002
{
1040
-3.0
1002
}
  0
LINE
  5
338
100
AcDbEntity
  8
DETAIL-0
  6
Continuous
 62
           7
100
AcDbLine
 10
0.857908024482
 20
5.847734062261
 30
0.0
 11
0.857908024482
 21
6.841647710217
 31
0.0
1001
ACAD
1000
TCW40_DEV_WIDTH
1002
{
1040
-3.0
1002
}
  0
LINE
  5
339
100
AcDbEntity
  8
DETAIL-0
  6
Continuous
 62
           7
100
AcDbLine
 10
0.62260589685
 20
6.841647710217
 30
0.0
 11
0.857908024482
 21
6.841647710217
 31
0.0
1001
ACAD
1000
TCW40_DEV_WIDTH
1002
{
1040
-3.0
1002
}
  0
LINE
  5
33A
100
AcDbEntity
  8
DETAIL-0
  6
Continuous
 62
           7
100
AcDbLine
 10
1.889198032871
 20
9.273103029081
 30
0.0
 11
1.889198032871
 21
9.469188135441
 31
0.0
1001
ACAD
1000
TCW40_DEV_WIDTH
1002
{
1040
-3.0
1002
}
  0
LINE
  5
33B
100
AcDbEntity
  8
DETAIL-0
  6
Continuous
 62
           7
100
AcDbLine
 10
2.852940643822
 20
9.273103029081
 30
0.0
 11
2.852940643822
 21
9.469188135441
 31
0.0
1001
ACAD
1000
TCW40_DEV_WIDTH
1002
{
1040
-3.0
1002
}
  0
LINE
  5
33C
100
AcDbEntity
  8
DETAIL-0
  6
Continuous
 62
           7
100
AcDbLine
 10
-1.514780588006
 20
7.586771114385
 30
0.0
 11
-1.381674096107
 21
9.469188135441
 31
0.0
1001
ACAD
1000
TCW40_DEV_WIDTH
1002
{
1040
-3.0
1002
}
  0
LINE
  5
33D
100
AcDbEntity
  8
DETAIL-0
  6
Continuous
 62
           7
100
AcDbLine
 10
-1.300808598244
 20
7.586771114385
 30
0.0
 11
-1.11421008933
 21
9.469188135441
 31
0.0
1001
ACAD
1000
TCW40_DEV_WIDTH
1002
{
1040
-3.0
1002
}
  0
LINE
  5
33E
100
AcDbEntity
  8
DETAIL-0
  6
Continuous
 62
           7
100
AcDbLine
 10
1.227563745289
 20
8.928957980611
 30
0.0
 11
1.227563745289
 21
9.469188135441
 31
0.0
1001
ACAD
1000
TCW40_DEV_WIDTH
1002
{
1040
-3.0
1002
}
  0
ARC
  5
33F
100
AcDbEntity
  8
DETAIL-0
  6
Continuous
 62
           7
100
AcDbCircle
 10
-0.58065467152
 20
7.782856220745
 30
0.0
 40
0.196085110307
100
AcDbArc
 50
-90.0
 51
0.0
1001
ACAD
1000
TCW40_DEV_WIDTH
1002
{
1040
-3.0
1002
}
  0
ARC
  5
340
100
AcDbEntity
  8
DETAIL-0
  6
Continuous
 62
           7
100
AcDbCircle
 10
0.289853393059
 20
7.782856220745
 30
0.0
 40
0.196085110307
100
AcDbArc
 50
-90.0
 51
0.0
1001
ACAD
1000
TCW40_DEV_WIDTH
1002
{
1040
-3.0
1002
}
  0
ARC
  5
341
100
AcDbEntity
  8
DETAIL-0
  6
Continuous
 62
           7
100
AcDbCircle
 10
0.740256960666
 20
6.841647710217
 30
0.0
 40
0.117651060224
100
AcDbArc
 50
0.0
 51
180.000008651422
1001
ACAD
1000
TCW40_DEV_WIDTH
1002
{
1040
-3.0
1002
}
  0
ARC
  5
342
100
AcDbEntity
  8
DETAIL-0
  6
Continuous
 62
           7
100
AcDbCircle
 10
-0.58065467152
 20
9.273103029081
 30
0.0
 40
0.196085110307
100
AcDbArc
 50
0.0
 51
90.000002504478
1001
ACAD
1000
TCW40_DEV_WIDTH
1002
{
1040
-3.0
1002
}
  0
ARC
  5
343
100
AcDbEntity
  8
DETAIL-0
  6
Continuous
 62
           7
100
AcDbCircle
 10
0.289853393059
 20
9.273103029081
 30
0.0
 40
0.196085110307
100
AcDbArc
 50
0.0
 51
90.000002504478
1001
ACAD
1000
TCW40_DEV_WIDTH
1002
{
1040
-3.0
1002
}
  0
ARC
  5
344
100
AcDbEntity
  8
DETAIL-0
  6
Continuous
 62
           7
100
AcDbCircle
 10
1.921744238825
 20
7.782856220745
 30
0.0
 40
0.196085110307
100
AcDbArc
 50
180.0
 51
269.999997495522
1001
ACAD
1000
TCW40_DEV_WIDTH
1002
{
1040
-3.0
1002
}
  0
LWPOLYLINE
  5
345
100
AcDbEntity
  8
DETAIL-0
  6
Continuous
 62
           7
100
AcDbPolyline
 90
        6
 70
           0
 10
-0.74810492076
 20
6.880907870213
 10
-0.606914388964
 20
7.086330549338
 10
0.131189168397
 20
7.154462280394
 10
0.846581364398
 20
7.165819529754
 10
1.664174686515
 20
7.131751703375
 10
1.949104778056
 20
6.880857672426
1001
ACAD
1000
TCW40_DEV_WIDTH
1002
{
1040
-3.0
1002
}
  0
LINE
  5
346
100
AcDbEntity
  8
DETAIL-1
  6
Continuous
 62
           7
100
AcDbLine
 10
0.740256960666
 20
14.585228702573
 30
0.0
 11
0.740256960666
 21
5.402080072939
 31
0.0
1001
ACAD
1000
TCW40_DEV_WIDTH
1002
{
1040
-3.0
1002
}
  0
LINE
  5
347
100
AcDbEntity
  8
DETAIL-1
  6
Continuous
 62
           7
100
AcDbLine
 10
12.565621741616
 20
14.587448624264
 30
0.0
 11
12.565621741616
 21
5.400970319428
 31
0.0
1001
ACAD
1000
TCW40_DEV_WIDTH
1002
{
1040
-3.0
1002
}
  0
LWPOLYLINE
  5
348
100
AcDbEntity
  8
0
 62
           7
100
AcDbPolyline
 90
        9
 70
           0
 10
9.899170187886
 20
9.259600687404
 42
0.066696161531
 10
9.930557473191
 20
9.025346855707
 42
0.07919811526
 10
10.012675342741
 20
8.843641362214
 42
0.107151300776
 10
10.147756849309
 20
8.711396981894
 42
0.141252735463
 10
10.28670102699
 20
8.671345368324
 42
0.141252735463
 10
10.42564520467
 20
8.711396981894
 42
0.107151300776
 10
10.560726711239
 20
8.843641362214
 42
0.07919811526
 10
10.642844580789
 20
9.025346855707
 42
0.066696161531
 10
10.674231866093
 20
9.259600687404
  0
LWPOLYLINE
  5
349
100
AcDbEntity
  8
0
 62
           7
100
AcDbPolyline
 90
        6
 70
           0
 10
1.227563745289
 20
9.065684203574
 42
0.078601576024
 10
1.26473582475
 20
8.830686227075
 42
0.087913622756
 10
1.364838855461
 20
8.642621917321
 42
0.105359772133
 10
1.523039865836
 20
8.510358497828
 42
0.122200995721
 10
1.696250288213
 20
8.467383780626
 42
0.019864776931
 10
1.725659132465
 20
8.468552642132
  0
LWPOLYLINE
  5
34A
100
AcDbEntity
  8
0
 62
           7
100
AcDbPolyline
 90
        9
 70
           0
 10
1.889198032871
 20
9.273103029081
 42
0.080649432866
 10
1.9272674698
 20
9.038620160666
 42
0.089227452588
 10
2.030334870586
 20
8.849904783863
 42
0.104826236173
 10
2.192205010991
 20
8.71792187879
 42
0.119349143486
 10
2.371069338347
 20
8.67461033112
 42
0.119349143486
 10
2.549933665703
 20
8.71792187879
 42
0.104826236173
 10
2.711803806108
 20
8.849904783863
 42
0.089227452588
 10
2.814871206894
 20
9.038620160666
 42
0.080649432866
 10
2.852940643822
 20
9.273103029081
  0
DIMENSION
  5
358
100
AcDbEntity
  8
0
  6
Continuous
 62
           7
100
AcDbDimension
  2
*D31
 10
-3.976734057149
 20
7.037732816577
 30
0.0
 11
-4.470384042939
 21
8.868887332707
 31
0.0
 71
           5
 72
           1
 41
1.0
 42
0.0
  1
1.19
  3
STANDARD
100
AcDbAlignedDimension
 13
0.308869726674
 23
5.847734062261
 33
0.0
 14
-2.397104741094
 24
7.037732816577
 34
0.0
 50
90.0
100
AcDbRotatedDimension
1001
ACAD
1000
DSTYLE
1002
{
1070
          41
1040
0.3
1070
         176
1070
           7
1070
         177
1070
           7
1070
         178
1070
           7
1070
          43
1040
0.09
1070
          44
1040
0.2
1070
          42
1040
0.2
1070
          77
1070
           1
1070
         146
1040
1.022146507666
1070
          73
1070
           0
1070
         172
1070
           1
1070
          74
1070
           0
1070
         140
1040
0.50000516129
1002
}
  0
DIMENSION
  5
369
100
AcDbEntity
  8
0
  6
Continuous
 62
           7
100
AcDbDimension
  2
*D32
 10
17.574063629567
 20
6.867362389812
 30
0.0
 11
17.080413643777
 21
5.036207873683
 31
0.0
 71
           5
 72
           1
 41
1.0
 42
0.0
  1
0.16
  3
STANDARD
100
AcDbAlignedDimension
 13
15.702983443376
 23
7.0242304749
 33
0.0
 14
14.722557911576
 24
6.867362389812
 34
0.0
 50
-90.0
100
AcDbRotatedDimension
1001
ACAD
1000
DSTYLE
1002
{
1070
          41
1040
0.3
1070
           6
1000
_NONE
1070
         176
1070
           7
1070
         177
1070
           7
1070
         178
1070
           7
1070
          43
1040
0.38
1070
          44
1040
0.2
1070
          42
1040
0.2
1070
         173
1070
           1
1070
          77
1070
           1
1070
         146
1040
1.022146507666
1070
          73
1070
           0
1070
         172
1070
           1
1070
          74
1070
           0
1070
         140
1040
0.50000516129
1002
}
  0
DIMENSION
  5
376
100
AcDbEntity
  8
0
  6
Continuous
 62
           7
100
AcDbDimension
  2
*D34
 10
14.722557911576
 20
3.25976890517
 30
0.0
 11
12.566855097141
 21
4.230923803183
 31
0.0
 70
         129
 71
           5
 72
           1
 41
1.0
 42
0.0
  1
%%c4.331^M^J%%c4.329
  3
STANDARD
100
AcDbAlignedDimension
 13
10.408685571656
 23
6.867362389812
 33
0.0
 14
14.722557911576
 24
6.867362389812
 34
0.0
1001
ACAD
1000
DSTYLE
1002
{
1070
          41
1040
0.3
1070
         176
1070
           7
1070
         177
1070
           7
1070
         178
1070
           7
1070
          43
1040
0.09
1070
          44
1040
0.2
1070
          42
1040
0.2
1070
          77
1070
           1
1070
         146
1040
1.022146507666
1070
          73
1070
           0
1070
         172
1070
           1
1070
          74
1070
           0
1070
         140
1040
0.50000516129
1002
}
  0
DIMENSION
  5
383
100
AcDbEntity
  8
0
  6
Continuous
 62
           7
100
AcDbDimension
  2
*D35
 10
15.702983443376
 20
2.01146789393
 30
0.0
 11
12.565621741616
 21
2.50511787972
 31
0.0
 70
         129
 71
           5
 72
           1
 41
1.0
 42
0.0
  1
%%c6.30
  3
STANDARD
100
AcDbAlignedDimension
 13
9.428260039856
 23
7.0242304749
 33
0.0
 14
15.702983443376
 24
7.0242304749
 34
0.0
1001
ACAD
1000
DSTYLE
1002
{
1070
          41
1040
0.3
1070
         176
1070
           7
1070
         177
1070
           7
1070
         178
1070
           7
1070
          43
1040
0.09
1070
          44
1040
0.2
1070
          42
1040
0.2
1070
          77
1070
           1
1070
         146
1040
1.022146507666
1070
          73
1070
           0
1070
         172
1070
           1
1070
          74
1070
           0
1070
         140
1040
0.50000516129
1002
}
  0
DIMENSION
  5
38E
100
AcDbEntity
  8
0
  6
Continuous
 62
           7
100
AcDbDimension
  2
*D36
 10
10.752780699372
 20
-2.691564566213
 30
0.0
 11
16.560028881175
 21
-6.799607877247
 31
0.0
 70
           3
 71
           5
 72
           1
 41
1.0
 42
0.0
  1
%%c5.12
  3
STANDARD
100
AcDbDiametricDimension
 15
14.391913011009
 25
-6.293256533843
 35
0.0
 40
1.421584979005
1001
ACAD
1000
DSTYLE
1002
{
1070
          41
1040
0.3
1070
         176
1070
           7
1070
         177
1070
           7
1070
         178
1070
           7
1070
          43
1040
0.09
1070
          44
1040
0.2
1070
          42
1040
0.2
1070
          77
1070
           1
1070
         146
1040
1.022146507666
1070
         172
1070
           1
1070
         140
1040
0.50000516129
1002
}
  0
LINE
  5
38F
100
AcDbEntity
  8
0
 62
           7
100
AcDbLine
 10
16.286686099149
 20
-2.803815230029
 30
0.0
 11
19.731340632283
 21
-2.803815230029
 31
0.0
1001
ACAD
1000
TCW40_DEV_WIDTH
1002
{
1040
-3.0
1002
}
  0
TEXT
  5
390
100
AcDbEntity
  8
0
  6
Continuous
 62
           7
100
AcDbText
 10
16.409574741001
 20
-2.576460342257
 30
0.0
 40
0.500005143689
  1
4-Ø0.47
100
AcDbText
1001
TCAD
1000
TCW40_TEXT
1002
{
1000
romand.shx
1070
           0
1070
        1025
1002
}
  0
LINE
  5
391
100
AcDbEntity
  8
0
  6
ByBlock
 62
           7
100
AcDbLine
 10
1.238941252989
 20
7.003214893364
 30
0.0
 11
2.935224431127
 21
5.682354529537
 31
0.0
1001
ACAD
1000
TCW40_DEV_WIDTH
1002
{
1040
-3.0
1002
}
  0
LINE
  5
392
100
AcDbEntity
  8
0
  6
ByBlock
 62
           7
100
AcDbLine
 10
1.239130464916
 20
5.82655691982
 30
0.0
 11
2.935224431127
 21
4.505843891377
 31
0.0
1001
ACAD
1000
TCW40_DEV_WIDTH
1002
{
1040
-3.0
1002
}
  0
LINE
  5
393
100
AcDbEntity
  8
0
  6
ByBlock
 62
           7
100
AcDbLine
 10
2.66747433005
 20
6.225610757059
 30
0.0
 11
2.666931137529
 21
6.560798532921
 31
0.0
1001
ACAD
1000
TCW40_DEV_WIDTH
1002
{
1040
-3.0
1002
}
  0
SOLID
  5
394
100
AcDbEntity
  8
0
  6
ByBlock
 62
           7
100
AcDbTrace
 10
2.61160970074
 20
6.225520224972
 30
0.0
 11
2.72333895936
 21
6.225701289146
 31
0.0
 12
2.668017522571
 22
5.890422981197
 32
0.0
 13
2.668017522571
 23
5.890422981197
 33
0.0
  0
SOLID
  5
395
100
AcDbEntity
  8
0
  6
ByBlock
 62
           7
100
AcDbTrace
 10
2.612696085781
 20
4.378634035089
 30
0.0
 11
2.724425344402
 21
4.378815099262
 31
0.0
 12
2.668017522571
 22
4.713912343037
 32
0.0
 13
2.668017522571
 23
4.713912343037
 33
0.0
  0
LINE
  5
396
100
AcDbEntity
  8
0
  6
ByBlock
 62
           7
100
AcDbLine
 10
2.662484179311
 20
5.891909542709
 30
0.0
 11
2.664990475568
 21
2.342264129961
 31
0.0
1001
ACAD
1000
TCW40_DEV_WIDTH
1002
{
1040
-3.0
1002
}
  0
POINT
  5
397
100
AcDbEntity
  8
DEFPOINTS
  6
Continuous
 62
           7
100
AcDbPoint
 10
1.171644194658
 20
7.037732816577
 30
-0.0
1001
TCAD
1000
TC25ExternalObject
1002
{
1000
TCW30POINT
1000

1070
           0
1071
        0
1040
1.0
1040
0.0
1000
Continuous
1000
DEFPOINTS
1071
        1
1071
      242
1010
1.171644194658
1020
7.037732816577
1030
-0.0
1070
           3
1071
-2147483645
1070
           0
1000
$POINTSIZE
1070
           5
1040
1.739812524713
1000
$POINTTYPE
1070
          18
1070
           5
1000
ExplodeScale
1070
           5
1040
1.0
1002
}
  0
POINT
  5
398
100
AcDbEntity
  8
DEFPOINTS
  6
Continuous
 62
           7
100
AcDbPoint
 10
2.668017522571
 20
4.713912343037
 30
-0.0
1001
TCAD
1000
TC25ExternalObject
1002
{
1000
TCW30POINT
1000

1070
           0
1071
        0
1040
1.0
1040
0.0
1000
Continuous
1000
DEFPOINTS
1071
        1
1071
      242
1010
2.668017522571
1020
4.713912343037
1030
-0.0
1070
           3
1071
-2147483645
1070
           0
1000
$POINTSIZE
1070
           5
1040
1.739812524713
1000
$POINTTYPE
1070
          18
1070
           5
1000
ExplodeScale
1070
           5
1040
1.0
1002
}
  0
TEXT
  5
399
100
AcDbEntity
  8
0
  6
Continuous
 62
           7
100
AcDbText
 10
2.402916933764
 20
2.523324177664
 30
0.0
 40
0.500005143689
  1
1.19
 50
90.0
100
AcDbText
1001
TCAD
1000
TCW40_TEXT
1002
{
1000
romand.shx
1070
           0
1070
        1025
1002
}
  0
DIMENSION
  5
3A6
100
AcDbEntity
  8
1
  6
Continuous
 62
           7
100
AcDbDimension
  2
*D37
 10
17.574064105532
 20
7.573268772708
 30
0.0
 11
17.080414119742
 21
9.404423288837
 31
0.0
 70
           1
 71
           5
 72
           1
 41
1.0
 42
0.0
  1
<>
  3
STANDARD
100
AcDbAlignedDimension
 13
15.702983443376
 23
7.0242304749
 33
0.0
 14
15.702983443376
 24
7.573268772708
 34
0.0
 50
90.0
1001
ACAD
1000
DSTYLE
1002
{
1070
          41
1040
0.3
1070
           6
1000
_NONE
1070
         176
1070
           7
1070
         177
1070
           7
1070
         178
1070
           7
1070
         179
1070
           2
1070
         271
1070
           2
1070
          42
1040
0.2
1070
         173
1070
           1
1070
          77
1070
           1
1070
         272
1070
           2
1070
          73
1070
           0
1070
         172
1070
           1
1070
          74
1070
           0
1070
         140
1040
0.50000516129
1002
}
  0
DIMENSION
  5
3B3
100
AcDbEntity
  8
0
  6
Continuous
 62
           7
100
AcDbDimension
  2
*D38
 10
7.209212460639
 20
14.194231722182
 30
0.0
 11
6.715562474848
 21
10.014230970091
 31
0.0
 71
           5
 72
           1
 41
1.0
 42
0.0
  1
8.36
  3
STANDARD
100
AcDbAlignedDimension
 13
12.036191954444
 23
5.834230218001
 33
0.0
 14
12.108422568069
 24
14.194231722182
 34
0.0
 50
90.0
100
AcDbRotatedDimension
1001
ACAD
1000
DSTYLE
1002
{
1070
          41
1040
0.3
1070
         176
1070
           7
1070
         177
1070
           7
1070
         178
1070
           7
1070
          43
1040
0.09
1070
          44
1040
0.2
1070
          42
1040
0.2
1070
          77
1070
           1
1070
         146
1040
1.022146507666
1070
          73
1070
           0
1070
         172
1070
           1
1070
          74
1070
           0
1070
         140
1040
0.50000516129
1002
}
  0
LINE
  5
3B4
100
AcDbEntity
  8
0
  6
Continuous
 62
           7
100
AcDbLine
 10
-2.155644769698
 20
10.77273071952
 30
0.0
 11
3.636155230302
 21
10.77273071952
 31
0.0
1001
ACAD
1000
TCW40_DEV_WIDTH
1002
{
1040
-3.0
1002
}
  0
LINE
  5
3B5
100
AcDbEntity
  8
0
  6
Continuous
 62
           7
100
AcDbLine
 10
-2.155644769698
 20
9.886232980525
 30
0.0
 11
-2.155644769698
 21
10.77273071952
 31
0.0
1001
ACAD
1000
TCW40_DEV_WIDTH
1002
{
1040
-3.0
1002
}
  0
LINE
  5
3B6
100
AcDbEntity
  8
0
  6
Continuous
 62
           7
100
AcDbLine
 10
3.636155230302
 20
9.886232980525
 30
0.0
 11
3.636155230302
 21
10.77273071952
 31
0.0
1001
ACAD
1000
TCW40_DEV_WIDTH
1002
{
1040
-3.0
1002
}
  0
LINE
  5
3B7
100
AcDbEntity
  8
0
  6
Continuous
 62
           7
100
AcDbLine
 10
9.669720691396
 20
10.759234450514
 30
0.0
 11
15.461521138033
 21
10.759234450514
 31
0.0
1001
ACAD
1000
TCW40_DEV_WIDTH
1002
{
1040
-3.0
1002
}
  0
LINE
  5
3B8
100
AcDbEntity
  8
0
  6
Continuous
 62
           7
100
AcDbLine
 10
9.669720828957
 20
9.872729165164
 30
0.0
 11
9.669720828957
 21
10.759234450514
 31
0.0
1001
ACAD
1000
TCW40_DEV_WIDTH
1002
{
1040
-3.0
1002
}
  0
LINE
  5
3B9
100
AcDbEntity
  8
0
  6
Continuous
 62
           7
100
AcDbLine
 10
15.461521138033
 20
9.872729165164
 30
0.0
 11
15.461521138033
 21
10.759234450514
 31
0.0
1001
ACAD
1000
TCW40_DEV_WIDTH
1002
{
1040
-3.0
1002
}
  0
TEXT
  5
3BA
100
AcDbEntity
  8
0
  6
Continuous
 62
           7
100
AcDbText
 10
8.482512945543
 20
0.026128408792
 30
0.0
 40
0.662709709906
  1
FLANGE OUTPUT
100
AcDbText
1001
TCAD
1000
TCW40_TEXT
1002
{
1000
romand.shx
1070
           0
1070
        1025
1002
}
  0
LINE
  5
3BB
100
AcDbEntity
  8
0
 62
           7
100
AcDbLine
 10
8.027860584681
 20
-0.275225224609
 30
0.0
 11
17.072139415319
 21
-0.275225224609
 31
0.0
1001
ACAD
1000
TCW40_DEV_WIDTH
1002
{
1040
-3.0
1002
}
  0
LEADER
  5
3BC
100
AcDbEntity
  8
1
  6
Continuous
 62
           7
100
AcDbLeader
  3
STANDARD
 73
           3
 74
           0
 75
           0
 40
0.0
 76
           2
 10
15.267464437477
 20
-4.300566009569
 30
0.0
 10
16.286089300166
 20
-2.801427193008
 30
0.0
 77
           7
211
0.0001
221
0.0
231
0.0
1001
ACAD
1000
DSTYLE
1002
{
1002
}
  0
CIRCLE
  5
3BD
100
AcDbEntity
  8
0
370
           0
  6
Continuous
 62
           7
100
AcDbCircle
 10
12.572347539249
 20
-4.492409920562
 30
0.0
 40
0.58825469017
  0
ARC
  5
3BE
100
AcDbEntity
  8
0
370
           0
  6
Continuous
 62
           7
100
AcDbCircle
 10
12.572347206732
 20
-4.49241195277
 30
0.0
 40
2.55999994278
100
AcDbArc
 50
-101.084518433006
 51
-37.644198289743
  0
ARC
  5
3BF
100
AcDbEntity
  8
0
370
           0
  6
Continuous
 62
           7
100
AcDbCircle
 10
12.572347206732
 20
-4.49241195277
 30
0.0
 40
2.55999994278
100
AcDbArc
 50
78.245834339155
 51
143.117584547534
  0
CIRCLE
  5
3C0
100
AcDbEntity
  8
0
370
           0
  6
Continuous
 62
           7
100
AcDbCircle
 10
17.574046635349
 20
7.02426462897
 30
0.0
 40
0.059574265033
  0
LINE
  5
3C1
100
AcDbEntity
  8
0
  6
Continuous
 62
           7
100
AcDbLine
 10
-2.116242813106
 20
11.15254885201
 30
0.0
 11
3.596757186894
 21
11.15254885201
 31
0.0
1001
ACAD
1000
TCW40_DEV_WIDTH
1002
{
1040
-3.0
1002
}
  0
LINE
  5
3C2
100
AcDbEntity
  8
0
  6
Continuous
 62
           7
100
AcDbLine
 10
-0.464146559306
 20
12.84674885201
 30
0.0
 11
1.944660933094
 21
12.84674885201
 31
0.0
1001
ACAD
1000
TCW40_DEV_WIDTH
1002
{
1040
-3.0
1002
}
  0
LINE
  5
3C3
100
AcDbEntity
  8
0
  6
Continuous
 62
           7
100
AcDbLine
 10
-0.540242813106
 20
11.66474885201
 30
0.0
 11
2.020757186894
 21
11.66474885201
 31
0.0
1001
ACAD
1000
TCW40_DEV_WIDTH
1002
{
1040
-3.0
1002
}
  0
ARC
  5
3C4
100
AcDbEntity
  8
0
  6
Continuous
 62
           7
100
AcDbCircle
 10
1.944660933094
 20
12.76794885201
 30
0.0
 40
0.07880000025
100
AcDbArc
 50
1.999999771064
 51
90.000002504478
1001
ACAD
1000
TCW40_DEV_WIDTH
1002
{
1040
-3.0
1002
}
  0
ARC
  5
3C5
100
AcDbEntity
  8
0
  6
Continuous
 62
           7
100
AcDbCircle
 10
2.401854002094
 20
11.34954885201
 30
0.0
 40
0.196999996901
100
AcDbArc
 50
-157.999993013102
 51
-89.9999888441
1001
ACAD
1000
TCW40_DEV_WIDTH
1002
{
1040
-3.0
1002
}
  0
LINE
  5
3C6
100
AcDbEntity
  8
0
  6
Continuous
 62
           7
100
AcDbLine
 10
2.062033533094
 20
11.66474885201
 30
0.0
 11
2.219198714694
 21
11.27575186401
 31
0.0
1001
ACAD
1000
TCW40_DEV_WIDTH
1002
{
1040
-3.0
1002
}
  0
LINE
  5
3C7
100
AcDbEntity
  8
0
  6
Continuous
 62
           7
100
AcDbLine
 10
2.023412983294
 20
12.77069857801
 30
0.0
 11
2.062033533094
 21
11.66474885201
 31
0.0
1001
ACAD
1000
TCW40_DEV_WIDTH
1002
{
1040
-3.0
1002
}
  0
LINE
  5
3C8
100
AcDbEntity
  8
0
  6
Continuous
 62
           7
100
AcDbLine
 10
3.596757186894
 20
10.77273071952
 30
0.0
 11
3.596757186894
 21
11.15254885201
 31
0.0
1001
ACAD
1000
TCW40_DEV_WIDTH
1002
{
1040
-3.0
1002
}
  0
LINE
  5
3C9
100
AcDbEntity
  8
0
  6
Continuous
 62
           7
100
AcDbLine
 10
-2.116242813106
 20
10.77273071952
 30
0.0
 11
-2.116242813106
 21
11.15254885201
 31
0.0
1001
ACAD
1000
TCW40_DEV_WIDTH
1002
{
1040
-3.0
1002
}
  0
LINE
  5
3CA
100
AcDbEntity
  8
0
  6
Continuous
 62
           7
100
AcDbLine
 10
0.364972202654
 20
14.19422924601
 30
0.0
 11
1.115542171134
 21
14.19422924601
 31
0.0
1001
ACAD
1000
TCW40_DEV_WIDTH
1002
{
1040
-3.0
1002
}
  0
ARC
  5
3CB
100
AcDbEntity
  8
0
  6
Continuous
 62
           7
100
AcDbCircle
 10
-0.464146559306
 20
12.76794885201
 30
0.0
 40
0.07880000025
100
AcDbArc
 50
90.0
 51
178.000002676571
1001
ACAD
1000
TCW40_DEV_WIDTH
1002
{
1040
-3.0
1002
}
  0
ARC
  5
3CC
100
AcDbEntity
  8
0
  6
Continuous
 62
           7
100
AcDbCircle
 10
-0.921339628306
 20
11.34954885201
 30
0.0
 40
0.196999996901
100
AcDbArc
 50
-90.000009334667
 51
-22.000006873212
1001
ACAD
1000
TCW40_DEV_WIDTH
1002
{
1040
-3.0
1002
}
  0
LINE
  5
3CD
100
AcDbEntity
  8
0
  6
Continuous
 62
           7
100
AcDbLine
 10
-0.581519159306
 20
11.66474885201
 30
0.0
 11
-0.738684340906
 21
11.27575186401
 31
0.0
1001
ACAD
1000
TCW40_DEV_WIDTH
1002
{
1040
-3.0
1002
}
  0
LINE
  5
3CE
100
AcDbEntity
  8
0
  6
Continuous
 62
           7
100
AcDbLine
 10
-0.542898609506
 20
12.77069857801
 30
0.0
 11
-0.581519159306
 21
11.66474885201
 31
0.0
1001
ACAD
1000
TCW40_DEV_WIDTH
1002
{
1040
-3.0
1002
}
  0
LINE
  5
3CF
100
AcDbEntity
  8
0
  6
Continuous
 62
           7
100
AcDbLine
 10
0.247757186894
 20
12.84674885201
 30
0.0
 11
0.247757186894
 21
12.90584885201
 31
0.0
1001
ACAD
1000
TCW40_DEV_WIDTH
1002
{
1040
-3.0
1002
}
  0
LINE
  5
3D0
100
AcDbEntity
  8
0
  6
Continuous
 62
           7
100
AcDbLine
 10
0.247757147494
 20
12.90584885201
 30
0.0
 11
0.283608468294
 21
13.00435003401
 31
0.0
1001
ACAD
1000
TCW40_DEV_WIDTH
1002
{
1040
-3.0
1002
}
  0
LINE
  5
3D1
100
AcDbEntity
  8
0
  6
Continuous
 62
           7
100
AcDbLine
 10
1.232757186894
 20
12.84674885201
 30
0.0
 11
1.232757186894
 21
12.90584885201
 31
0.0
1001
ACAD
1000
TCW40_DEV_WIDTH
1002
{
1040
-3.0
1002
}
  0
LINE
  5
3D2
100
AcDbEntity
  8
0
  6
Continuous
 62
           7
100
AcDbLine
 10
1.232757226294
 20
12.90584885201
 30
0.0
 11
1.196905905494
 21
13.00435003401
 31
0.0
1001
ACAD
1000
TCW40_DEV_WIDTH
1002
{
1040
-3.0
1002
}
  0
LINE
  5
3D3
100
AcDbEntity
  8
0
  6
Continuous
 62
           7
100
AcDbLine
 10
0.247757186894
 20
12.90584885201
 30
0.0
 11
1.232757186894
 21
12.90584885201
 31
0.0
1001
ACAD
1000
TCW40_DEV_WIDTH
1002
{
1040
-3.0
1002
}
  0
LINE
  5
3D4
100
AcDbEntity
  8
0
  6
Continuous
 62
           7
100
AcDbLine
 10
0.646435940834
 20
13.20922924601
 30
0.0
 11
0.834078432954
 21
13.20922924601
 31
0.0
1001
ACAD
1000
TCW40_DEV_WIDTH
1002
{
1040
-3.0
1002
}
  0
LINE
  5
3D5
100
AcDbEntity
  8
0
  6
Continuous
 62
           7
100
AcDbLine
 10
0.283608231894
 20
13.00434885201
 30
0.0
 11
1.196906141894
 21
13.00434885201
 31
0.0
1001
ACAD
1000
TCW40_DEV_WIDTH
1002
{
1040
-3.0
1002
}
  0
ARC
  5
3D6
100
AcDbEntity
  8
0
  6
Continuous
 62
           7
100
AcDbCircle
 10
0.740257186894
 20
13.19346845801
 30
0.0
 40
0.093821242452
100
AcDbArc
 50
180.0
 51
359.999997495524
1001
ACAD
1000
TCW40_DEV_WIDTH
1002
{
1040
-3.0
1002
}
  0
LINE
  5
3D7
100
AcDbEntity
  8
0
  6
Continuous
 62
           7
100
AcDbLine
 10
1.115542171134
 20
13.00434885201
 30
0.0
 11
1.115542171134
 21
14.19422924601
 31
0.0
1001
ACAD
1000
TCW40_DEV_WIDTH
1002
{
1040
-3.0
1002
}
  0
LINE
  5
3D8
100
AcDbEntity
  8
0
  6
Continuous
 62
           7
100
AcDbLine
 10
0.364972202654
 20
13.00434885201
 30
0.0
 11
0.364972202654
 21
14.19422924601
 31
0.0
1001
ACAD
1000
TCW40_DEV_WIDTH
1002
{
1040
-3.0
1002
}
  0
LINE
  5
3D9
100
AcDbEntity
  8
0
  6
Continuous
 62
           7
100
AcDbLine
 10
0.834078432954
 20
13.19346845801
 30
0.0
 11
0.834078432954
 21
14.19422924601
 31
0.0
1001
ACAD
1000
TCW40_DEV_WIDTH
1002
{
1040
-3.0
1002
}
  0
LINE
  5
3DA
100
AcDbEntity
  8
0
  6
Continuous
 62
           7
100
AcDbLine
 10
0.646435940834
 20
13.19346845801
 30
0.0
 11
0.646435940834
 21
14.19422924601
 31
0.0
1001
ACAD
1000
TCW40_DEV_WIDTH
1002
{
1040
-3.0
1002
}
  0
DIMENSION
  5
3E9
100
AcDbEntity
  8
1
  6
Continuous
 62
           7
100
AcDbDimension
  2
*D39
 10
-3.064135508793
 20
14.19422924601
 30
0.0
 11
-3.557785494584
 21
13.569802184317
 31
0.0
 70
         128
 71
           5
 72
           1
 41
1.0
 42
0.0
  1
<>
  3
STANDARD
100
AcDbAlignedDimension
 13
0.283606536841
 23
13.004350443775
 33
0.0
 14
0.364972202654
 24
14.19422924601
 34
0.0
 50
90.0
100
AcDbRotatedDimension
1001
ACAD
1000
DSTYLE
1002
{
1070
          41
1040
0.3
1070
         176
1070
           7
1070
         177
1070
           7
1070
         178
1070
           7
1070
         179
1070
           2
1070
         271
1070
           2
1070
          42
1040
0.2
1070
          77
1070
           1
1070
         272
1070
           2
1070
          73
1070
           0
1070
         174
1070
           1
1070
         172
1070
           1
1070
          74
1070
           0
1070
         140
1040
0.50000516129
1002
}
  0
LINE
  5
3EA
100
AcDbEntity
  8
0
  6
Continuous
 62
           7
100
AcDbLine
 10
11.285111894069
 20
11.664751328182
 30
0.0
 11
13.846111894069
 21
11.664751328182
 31
0.0
1001
ACAD
1000
TCW40_DEV_WIDTH
1002
{
1040
-3.0
1002
}
  0
LINE
  5
3EB
100
AcDbEntity
  8
0
  6
Continuous
 62
           7
100
AcDbLine
 10
11.361207478069
 20
12.846751328182
 30
0.0
 11
13.770015916069
 21
12.846751328182
 31
0.0
1001
ACAD
1000
TCW40_DEV_WIDTH
1002
{
1040
-3.0
1002
}
  0
ARC
  5
3EC
100
AcDbEntity
  8
0
  6
Continuous
 62
           7
100
AcDbCircle
 10
13.770015916069
 20
12.767951328182
 30
0.0
 40
0.07880000025
100
AcDbArc
 50
1.999999771064
 51
90.000002504478
1001
ACAD
1000
TCW40_DEV_WIDTH
1002
{
1040
-3.0
1002
}
  0
ARC
  5
3ED
100
AcDbEntity
  8
0
  6
Continuous
 62
           7
100
AcDbCircle
 10
14.227208788069
 20
11.349551328182
 30
0.0
 40
0.196999996901
100
AcDbArc
 50
-157.999993013102
 51
-89.9999888441
1001
ACAD
1000
TCW40_DEV_WIDTH
1002
{
1040
-3.0
1002
}
  0
LINE
  5
3EE
100
AcDbEntity
  8
0
  6
Continuous
 62
           7
100
AcDbLine
 10
13.887387728069
 20
11.664751328182
 30
0.0
 11
14.044552358069
 21
11.275753158182
 31
0.0
1001
ACAD
1000
TCW40_DEV_WIDTH
1002
{
1040
-3.0
1002
}
  0
LINE
  5
3EF
100
AcDbEntity
  8
0
  6
Continuous
 62
           7
100
AcDbLine
 10
13.848767848069
 20
12.770701054182
 30
0.0
 11
13.887388910069
 21
11.664751328182
 31
0.0
1001
ACAD
1000
TCW40_DEV_WIDTH
1002
{
1040
-3.0
1002
}
  0
LINE
  5
3F0
100
AcDbEntity
  8
0
  6
Continuous
 62
           7
100
AcDbLine
 10
9.709111894069
 20
10.759234450514
 30
0.0
 11
9.709111894069
 21
11.152551328182
 31
0.0
1001
ACAD
1000
TCW40_DEV_WIDTH
1002
{
1040
-3.0
1002
}
  0
ARC
  5
3F1
100
AcDbEntity
  8
0
  6
Continuous
 62
           7
100
AcDbCircle
 10
11.361207478069
 20
12.767951328182
 30
0.0
 40
0.07880000025
100
AcDbArc
 50
90.0
 51
178.000002676571
1001
ACAD
1000
TCW40_DEV_WIDTH
1002
{
1040
-3.0
1002
}
  0
LINE
  5
3F2
100
AcDbEntity
  8
0
  6
Continuous
 62
           7
100
AcDbLine
 10
12.108422568069
 20
13.209231722182
 30
0.0
 11
12.190327288069
 21
13.209231722182
 31
0.0
1001
ACAD
1000
TCW40_DEV_WIDTH
1002
{
1040
-3.0
1002
}
  0
LINE
  5
3F3
100
AcDbEntity
  8
0
  6
Continuous
 62
           7
100
AcDbLine
 10
12.073111894069
 20
12.846751328182
 30
0.0
 11
12.073111894069
 21
12.905851328182
 31
0.0
1001
ACAD
1000
TCW40_DEV_WIDTH
1002
{
1040
-3.0
1002
}
  0
LINE
  5
3F4
100
AcDbEntity
  8
0
  6
Continuous
 62
           7
100
AcDbLine
 10
12.073111894069
 20
12.905851328182
 30
0.0
 11
12.108962348069
 21
13.004351328182
 31
0.0
1001
ACAD
1000
TCW40_DEV_WIDTH
1002
{
1040
-3.0
1002
}
  0
ARC
  5
3F5
100
AcDbEntity
  8
0
  6
Continuous
 62
           7
100
AcDbCircle
 10
10.904014606069
 20
11.349551328182
 30
0.0
 40
0.196999996901
100
AcDbArc
 50
-90.000009334667
 51
-22.000006873213
1001
ACAD
1000
TCW40_DEV_WIDTH
1002
{
1040
-3.0
1002
}
  0
LINE
  5
3F6
100
AcDbEntity
  8
0
  6
Continuous
 62
           7
100
AcDbLine
 10
11.243834878069
 20
11.664751328182
 30
0.0
 11
11.086670248069
 21
11.275754340182
 31
0.0
1001
ACAD
1000
TCW40_DEV_WIDTH
1002
{
1040
-3.0
1002
}
  0
LINE
  5
3F7
100
AcDbEntity
  8
0
  6
Continuous
 62
           7
100
AcDbLine
 10
11.282455940069
 20
12.770701054182
 30
0.0
 11
11.243834878069
 21
11.664752510182
 31
0.0
1001
ACAD
1000
TCW40_DEV_WIDTH
1002
{
1040
-3.0
1002
}
  0
LINE
  5
3F8
100
AcDbEntity
  8
0
  6
Continuous
 62
           7
100
AcDbLine
 10
12.190327288069
 20
13.004351328182
 30
0.0
 11
12.190327288069
 21
14.194231722182
 31
0.0
1001
ACAD
1000
TCW40_DEV_WIDTH
1002
{
1040
-3.0
1002
}
  0
LINE
  5
3F9
100
AcDbEntity
  8
0
  6
Continuous
 62
           7
100
AcDbLine
 10
12.108422568069
 20
13.209231722182
 30
0.0
 11
12.108422568069
 21
14.194231722182
 31
0.0
1001
ACAD
1000
TCW40_DEV_WIDTH
1002
{
1040
-3.0
1002
}
  0
LINE
  5
3FA
100
AcDbEntity
  8
0
  6
Continuous
 62
           7
100
AcDbLine
 10
13.058111894069
 20
12.846751328182
 30
0.0
 11
13.058111894069
 21
12.905851328182
 31
0.0
1001
ACAD
1000
TCW40_DEV_WIDTH
1002
{
1040
-3.0
1002
}
  0
LINE
  5
3FB
100
AcDbEntity
  8
0
  6
Continuous
 62
           7
100
AcDbLine
 10
13.058111894069
 20
12.905851328182
 30
0.0
 11
13.022261440069
 21
13.004351328182
 31
0.0
1001
ACAD
1000
TCW40_DEV_WIDTH
1002
{
1040
-3.0
1002
}
  0
LINE
  5
3FC
100
AcDbEntity
  8
0
  6
Continuous
 62
           7
100
AcDbLine
 10
12.940896500069
 20
13.004351328182
 30
0.0
 11
12.940896500069
 21
14.194231722182
 31
0.0
1001
ACAD
1000
TCW40_DEV_WIDTH
1002
{
1040
-3.0
1002
}
  0
LINE
  5
3FD
100
AcDbEntity
  8
0
  6
Continuous
 62
           7
100
AcDbLine
 10
12.108962348069
 20
13.004351328182
 30
0.0
 11
13.022261440069
 21
13.004351328182
 31
0.0
1001
ACAD
1000
TCW40_DEV_WIDTH
1002
{
1040
-3.0
1002
}
  0
LINE
  5
3FE
100
AcDbEntity
  8
0
  6
Continuous
 62
           7
100
AcDbLine
 10
12.108422568069
 20
14.194231722182
 30
0.0
 11
12.940868244892
 21
14.194231722182
 31
0.0
1001
ACAD
1000
TCW40_DEV_WIDTH
1002
{
1040
-3.0
1002
}
  0
LINE
  5
3FF
100
AcDbEntity
  8
0
  6
Continuous
 62
           7
100
AcDbLine
 10
12.073111894069
 20
12.905851328182
 30
0.0
 11
13.058111894069
 21
12.905851328182
 31
0.0
1001
ACAD
1000
TCW40_DEV_WIDTH
1002
{
1040
-3.0
1002
}
  0
LINE
  5
400
100
AcDbEntity
  8
0
  6
Continuous
 62
           7
100
AcDbLine
 10
9.709111920791
 20
11.152551328182
 30
0.0
 11
15.422128228252
 21
11.152551328182
 31
0.0
1001
ACAD
1000
TCW40_DEV_WIDTH
1002
{
1040
-3.0
1002
}
  0
LINE
  5
401
100
AcDbEntity
  8
0
  6
Continuous
 62
           7
100
AcDbLine
 10
15.422128228252
 20
10.759234450514
 30
0.0
 11
15.422128228252
 21
11.152551328182
 31
0.0
1001
ACAD
1000
TCW40_DEV_WIDTH
1002
{
1040
-3.0
1002
}
  0
LINE
  5
402
100
AcDbEntity
  8
0
  6
Continuous
100
AcDbLine
 10
-18.50547788366
 20
1.449840456897
 30
0.0
 11
-9.85
 21
1.449840456897
 31
0.0
1001
ACAD
1000
TCW40_DEV_WIDTH
1002
{
1040
-3.0
1002
}
  0
TEXT
  5
403
100
AcDbEntity
  8
0
  6
Continuous
100
AcDbText
 10
-18.337442126588
 20
1.744020162015
 30
0.0
 40
0.664876187232
  1
OUTPUT  SHAFT
100
AcDbText
1001
TCAD
1000
TCW40_TEXT
1002
{
1000
romand.shx
1070
           0
1070
        1025
1002
}
  0
ARC
  5
404
100
AcDbEntity
  8
1
  6
Continuous
 62
           7
100
AcDbCircle
 10
-18.095820339499
 20
-3.432982932555
 30
0.0
 40
1.259999990463
100
AcDbArc
 50
102.380328261962
 51
437.619669916805
1001
ACAD
1000
TCW40_DEV_WIDTH
1002
{
1040
-3.0
1002
}
  0
LINE
  5
405
100
AcDbEntity
  8
0
 62
           7
100
AcDbLine
 10
-18.365964339499
 20
-1.902838932555
 30
0.0
 11
-18.365964339499
 21
-2.443126932555
 31
0.0
1001
ACAD
1000
TCW40_DEV_WIDTH
1002
{
1040
-3.0
1002
}
  0
LINE
  5
406
100
AcDbEntity
  8
0
 62
           7
100
AcDbLine
 10
-17.825676339499
 20
-1.902838932555
 30
0.0
 11
-17.825676339499
 21
-2.443126932555
 31
0.0
1001
ACAD
1000
TCW40_DEV_WIDTH
1002
{
1040
-3.0
1002
}
  0
LINE
  5
407
100
AcDbEntity
  8
1
  6
Continuous
 62
           7
100
AcDbLine
 10
-18.365964339499
 20
-1.902838932555
 30
0.0
 11
-17.825676339498
 21
-1.902838932555
 31
0.0
1001
ACAD
1000
TCW40_DEV_WIDTH
1002
{
1040
-3.0
1002
}
  0
LINE
  5
408
100
AcDbEntity
  8
1
  6
Continuous
 62
           7
100
AcDbLine
 10
-18.365964339499
 20
-2.443126932555
 30
0.0
 11
-17.825676339498
 21
-2.443126932555
 31
0.0
1001
ACAD
1000
TCW40_DEV_WIDTH
1002
{
1040
-3.0
1002
}
  0
LINE
  5
409
100
AcDbEntity
  8
0
  6
CENTER
 62
           7
100
AcDbLine
 10
-16.503763192391
 20
-3.432982932555
 30
0.0
 11
-19.731329090914
 21
-3.432982932555
 31
0.0
1001
ACAD
1000
TCW40_DEV_WIDTH
1002
{
1040
-3.0
1002
}
  0
LINE
  5
40A
100
AcDbEntity
  8
0
  6
Continuous
 62
           7
100
AcDbLine
 10
-18.095820339499
 20
-1.564535540092
 30
0.0
 11
-18.095820339499
 21
-4.969440648797
 31
0.0
1001
ACAD
1000
TCW40_DEV_WIDTH
1002
{
1040
-3.0
1002
}
  0
TEXT
  5
40B
100
AcDbEntity
  8
0
  6
Continuous
 62
           7
100
AcDbText
 10
-17.605927023602
 20
-0.207161488465
 30
0.0
 40
0.500005143689
  1
Key 3/16x3/16x0.98
100
AcDbText
1001
TCAD
1000
TCW40_TEXT
1002
{
1000
romand.shx
1070
           0
1070
        1025
1002
}
  0
LEADER
  5
40C
100
AcDbEntity
  8
0
  6
Continuous
 62
           7
100
AcDbLeader
  3
STANDARD
 73
           3
 74
           0
 75
           0
 40
0.0
 76
           2
 10
-18.101129744633
 20
-1.898515196433
 30
0.0
 10
-17.6707128182
 20
-0.418339569918
 30
0.0
 77
           7
211
0.0001
221
0.0
231
0.0
1001
ACAD
1000
DSTYLE
1002
{
1002
}
  0
LINE
  5
40D
100
AcDbEntity
  8
0
  6
Continuous
 62
           7
100
AcDbLine
 10
-17.675235212638
 20
-0.418484565196
 30
0.0
 11
-9.38565398996
 21
-0.418484565196
 31
0.0
1001
ACAD
1000
TCW40_DEV_WIDTH
1002
{
1040
-3.0
1002
}
  0
TEXT
  5
40E
100
AcDbEntity
  8
0
  6
Continuous
 62
           7
100
AcDbText
 10
-18.101339591994
 20
13.166484282953
 30
0.0
 40
0.664876187232
  1
INPUT  SHAFT
100
AcDbText
1001
TCAD
1000
TCW40_TEXT
1002
{
1000
romand.shx
1070
           0
1070
        1025
1002
}
  0
LINE
  5
40F
100
AcDbEntity
  8
0
  6
Continuous
 62
           7
100
AcDbLine
 10
-18.269375420029
 20
12.872304577834
 30
0.0
 11
-10.86980106624
 21
12.872304577834
 31
0.0
1001
ACAD
1000
TCW40_DEV_WIDTH
1002
{
1040
-3.0
1002
}
  0
LINE
  5
410
100
AcDbEntity
  8
DEFPOINTS-0
  6
Continuous
 62
           7
100
AcDbLine
 10
-18.325328224528
 20
10.187823528489
 30
0.5
 11
-18.325328224528
 21
7.400693660751
 31
0.5
1001
ACAD
1000
TCW40_DEV_WIDTH
1002
{
1040
-3.0
1002
}
  0
LINE
  5
411
100
AcDbEntity
  8
0
  6
Continuous
 62
           7
100
AcDbLine
 10
-17.120854814048
 20
8.734389886498
 30
0.5
 11
-19.596658626601
 21
8.734389886498
 31
0.5
1001
ACAD
1000
TCW40_DEV_WIDTH
1002
{
1040
-3.0
1002
}
  0
LINE
  5
412
100
AcDbEntity
  8
0
  6
Continuous
 62
           7
100
AcDbLine
 10
-18.105015183688
 20
9.808415112972
 30
0.5
 11
-18.105015183688
 21
9.367791060201
 31
0.5
1001
ACAD
1000
TCW40_DEV_WIDTH
1002
{
1040
-3.0
1002
}
  0
LINE
  5
413
100
AcDbEntity
  8
0
  6
Continuous
 62
           7
100
AcDbLine
 10
-18.545640464579
 20
9.808415112972
 30
0.5
 11
-18.545640464579
 21
9.367791060201
 31
0.5
1001
ACAD
1000
TCW40_DEV_WIDTH
1002
{
1040
-3.0
1002
}
  0
LINE
  5
414
100
AcDbEntity
  8
0
  6
Continuous
 62
           7
100
AcDbLine
 10
-18.105015183688
 20
9.367791060201
 30
0.5
 11
-18.545640464579
 21
9.367791060201
 31
0.5
1001
ACAD
1000
TCW40_DEV_WIDTH
1002
{
1040
-3.0
1002
}
  0
LINE
  5
415
100
AcDbEntity
  8
0
  6
Continuous
 62
           7
100
AcDbLine
 10
-18.105015183688
 20
9.808415112972
 30
0.5
 11
-18.545640464579
 21
9.808415112972
 31
0.5
1001
ACAD
1000
TCW40_DEV_WIDTH
1002
{
1040
-3.0
1002
}
  0
ARC
  5
416
100
AcDbEntity
  8
0
370
           0
  6
Continuous
 62
           7
100
AcDbCircle
 10
-18.325327469999
 20
8.734389544309
 30
-0.5
 40
0.881250023842
100
AcDbArc
 50
104.477619808885
 51
437.006448702932
  0
LINE
  5
417
100
AcDbEntity
  8
0
370
           0
  6
Continuous
 62
           7
100
AcDbLine
 10
-18.105016284701
 20
9.60597525222
 30
-0.5
 11
-18.105016284701
 21
9.569336511684
 31
-0.5
  0
TEXT
  5
418
100
AcDbEntity
  8
0
  6
Continuous
 62
           7
100
AcDbText
 10
-17.832061124403
 20
11.500365224188
 30
0.0
 40
0.500005143689
  1
Key 3/16x3/16x0.98
100
AcDbText
1001
TCAD
1000
TCW40_TEXT
1002
{
1000
romand.shx
1070
           0
1070
        1025
1002
}
  0
LEADER
  5
419
100
AcDbEntity
  8
0
  6
Continuous
 62
           7
100
AcDbLeader
  3
STANDARD
 73
           3
 74
           0
 75
           0
 40
0.0
 76
           2
 10
-18.327263845434
 20
9.80901151622
 30
0.0
 10
-17.896846919002
 20
11.289187142735
 30
0.0
 77
           7
211
0.0001
221
0.0
231
0.0
1001
ACAD
1000
DSTYLE
1002
{
1002
}
  0
LINE
  5
41A
100
AcDbEntity
  8
0
  6
Continuous
 62
           7
100
AcDbLine
 10
-17.90136931344
 20
11.289042147457
 30
0.0
 11
-9.611788090761
 21
11.289042147457
 31
0.0
1001
ACAD
1000
TCW40_DEV_WIDTH
1002
{
1040
-3.0
1002
}
  0
DIMENSION
  5
428
100
AcDbEntity
  8
1
  6
Continuous
 62
           7
100
AcDbDimension
  2
*D40
 10
-16.835820349035
 20
-6.047967967627
 30
0.0
 11
-14.642666767964
 21
-5.066822112608
 31
0.0
 70
         128
 71
           5
 72
           1
 41
1.0
 42
0.0
  1
%%c0.875^M^J%%c0.874
  3
STANDARD
100
AcDbAlignedDimension
 13
-19.355820329962
 23
-3.432982932555
 33
0.0
 14
-16.835820349035
 24
-3.432982932555
 34
0.0
100
AcDbRotatedDimension
1001
ACAD
1000
DSTYLE
1002
{
1070
          41
1040
0.35
1070
         176
1070
           7
1070
         177
1070
           7
1070
         178
1070
           7
1070
         179
1070
           3
1070
         271
1070
           3
1070
          43
1040
0.25
1070
          44
1040
0.2
1070
          42
1040
0.2
1070
         147
1040
0.1
1070
          77
1070
           1
1070
         272
1070
           2
1070
          73
1070
           0
1070
         172
1070
           1
1070
          74
1070
           0
1070
         140
1040
0.5
1002
}
  0
DIMENSION
  5
436
100
AcDbEntity
  8
1
  6
Continuous
 62
           7
100
AcDbDimension
  2
*D41
 10
-17.444077446157
 20
6.368854144981
 30
0.0
 11
-15.05
 21
7.35
 31
0.0
 70
         129
 71
           5
 72
           1
 41
1.0
 42
0.0
  1
%%c0.750^M^J%%c0.749
  3
STANDARD
100
AcDbAlignedDimension
 13
-19.206577493841
 23
8.734389886498
 33
0.0
 14
-17.444077446157
 24
8.734389886498
 34
0.0
1001
ACAD
1000
DSTYLE
1002
{
1070
          41
1040
0.35
1070
         176
1070
           7
1070
         177
1070
           7
1070
         178
1070
           7
1070
         179
1070
           3
1070
         271
1070
           3
1070
          43
1040
0.25
1070
          44
1040
0.2
1070
          42
1040
0.2
1070
         147
1040
0.1
1070
          77
1070
           1
1070
         272
1070
           2
1070
          73
1070
           0
1070
         172
1070
           1
1070
          74
1070
           0
1070
         140
1040
0.5
1002
}
  0
LINE
  5
437
100
AcDbEntity
  8
0
100
AcDbLine
 10
-23.505853745627
 20
-9.544436755401
 30
0.0
 11
23.505910382183
 21
-9.544436755401
 31
0.0
1001
ACAD
1000
TCW40_DEV_WIDTH
1002
{
1040
-3.0
1002
}
  0
LINE
  5
438
100
AcDbEntity
  8
0
100
AcDbLine
 10
9.487826402913
 20
-15.018333864896
 30
0.0
 11
23.505910491883
 21
-15.018333864896
 31
0.0
1001
ACAD
1000
TCW40_DEV_WIDTH
1002
{
1040
-3.0
1002
}
  0
LINE
  5
439
100
AcDbEntity
  8
0
100
AcDbLine
 10
-14.780787528144
 20
-12.479827334677
 30
0.0
 11
1.745910925791
 21
-12.479827334677
 31
0.0
1001
ACAD
1000
TCW40_DEV_WIDTH
1002
{
1040
-3.0
1002
}
  0
LINE
  5
43A
100
AcDbEntity
  8
0
100
AcDbLine
 10
9.487826391866
 20
-9.544436807864
 30
0.0
 11
9.487826391866
 21
-17.329481069048
 31
0.0
1001
ACAD
1000
TCW40_DEV_WIDTH
1002
{
1040
-3.0
1002
}
  0
LINE
  5
43B
100
AcDbEntity
  8
0
100
AcDbLine
 10
19.924723345429
 20
-15.018333864896
 30
0.0
 11
19.924723345429
 21
-17.348125246384
 31
0.0
1001
ACAD
1000
TCW40_DEV_WIDTH
1002
{
1040
-3.0
1002
}
  0
LINE
  5
43C
100
AcDbEntity
  8
0
100
AcDbLine
 10
9.487826391866
 20
-12.279371031878
 30
0.0
 11
23.505910382183
 21
-12.279371031878
 31
0.0
1001
ACAD
1000
TCW40_DEV_WIDTH
1002
{
1040
-3.0
1002
}
  0
LINE
  5
43D
100
AcDbEntity
  8
0
100
AcDbLine
 10
-14.780787528144
 20
-9.544436755401
 30
0.0
 11
-14.780787528144
 21
-17.309986133848
 31
0.0
1001
ACAD
1000
TCW40_DEV_WIDTH
1002
{
1040
-3.0
1002
}
  0
LINE
  5
43E
100
AcDbEntity
  8
0
100
AcDbLine
 10
-14.780787528144
 20
-14.799581516719
 30
0.0
 11
1.745910925791
 21
-14.799581516719
 31
0.0
1001
ACAD
1000
TCW40_DEV_WIDTH
1002
{
1040
-3.0
1002
}
  0
LINE
  5
43F
100
AcDbEntity
  8
0
100
AcDbLine
 10
-9.142715555959
 20
-9.544436755401
 30
0.0
 11
-9.142715555959
 21
-17.348125246384
 31
0.0
1001
ACAD
1000
TCW40_DEV_WIDTH
1002
{
1040
-3.0
1002
}
  0
TEXT
  5
441
100
AcDbEntity
  8
0
  6
Continuous
100
AcDbText
 10
20.09755367878
 20
-15.465592060831
 30
0.0
 40
0.224505141377
  1
REV. MARK
  7
_TCW_TXTSTY_3
100
AcDbText
1001
TCAD
1000
TCW40_TEXT
1002
{
1000
Times New Roman
1070
           0
1070
        1025
1002
}
  0
TEXT
  5
442
100
AcDbEntity
  8
0
  6
Continuous
100
AcDbText
 10
9.791855580421
 20
-12.755329998837
 30
0.0
 40
0.224505141377
  1
MODEL
  7
_TCW_TXTSTY_3
100
AcDbText
1001
TCAD
1000
TCW40_TEXT
1002
{
1000
Times New Roman
1070
           0
1070
        1025
1002
}
  0
TEXT
  5
443
100
AcDbEntity
  8
0
  6
Continuous
100
AcDbText
 10
9.777196131781
 20
-9.919977981229
 30
0.0
 40
0.224505141377
  1
TITLE
  7
_TCW_TXTSTY_3
100
AcDbText
1001
TCAD
1000
TCW40_TEXT
1002
{
1000
Times New Roman
1070
           0
1070
        1025
1002
}
  0
TEXT
  5
444
100
AcDbEntity
  8
PV-0
  6
Continuous
100
AcDbText
 10
11.908694564688
 20
-14.665593314436
 30
0.0
 40
0.797408185222
  1
Circulute Series II
  7
_TCW_TXTSTY_3
100
AcDbText
1001
TCAD
1000
TCW40_TEXT
1002
{
1000
Times New Roman
1070
           0
1070
        1025
1002
}
  0
LWPOLYLINE
  5
445
100
AcDbEntity
  8
0
100
AcDbPolyline
 90
        4
 70
           1
 43
0.10000000149
 10
-23.505853745627
 20
17.348125246384
 10
23.505853745627
 20
17.348125246384
 10
23.505853745627
 20
-17.348125246384
 10
-23.505853745627
 20
-17.348125246384
  0
LWPOLYLINE
  5
446
100
AcDbEntity
  8
0
 62
           1
100
AcDbPolyline
 90
       14
 70
           0
 10
20.301165514859
 20
-10.106490679524
 10
19.686850454653
 20
-10.106490679524
 10
19.686850454653
 20
-10.760438969421
 10
20.301165514859
 20
-10.760438969421
 10
20.301165514859
 20
-10.621722665504
 10
19.885016603106
 20
-10.621722665504
 10
19.885016603106
 20
-10.502822976432
 10
20.301165514859
 20
-10.502822976432
 10
20.301165514859
 20
-10.364106672514
 10
19.885016603106
 20
-10.364106672514
 10
19.885016603106
 20
-10.245206983442
 10
20.301165514859
 20
-10.245206983442
 10
20.301165514859
 20
-10.106490679524
 10
20.301165514859
 20
-10.106490679524
1001
ACAD
1000
TCW40_DEV_WIDTH
1002
{
1040
-3.0
1002
}
  0
LWPOLYLINE
  5
447
100
AcDbEntity
  8
0
 62
           1
100
AcDbPolyline
 90
      117
 70
           0
 10
21.252363027436
 20
-10.601906050659
 10
21.252363027436
 20
-10.621722665504
 10
21.232546412591
 20
-10.621722665504
 10
21.232546412591
 20
-10.661355895195
 10
21.212729797745
 20
-10.661355895195
 10
21.212729797745
 20
-10.68117251004
 10
21.1929131829
 20
-10.68117251004
 10
21.1929131829
 20
-10.700989124885
 10
21.153279953209
 20
-10.700989124885
 10
21.153279953209
 20
-10.720805739731
 10
21.113646723519
 20
-10.720805739731
 10
21.093830108673
 20
-10.740622354576
 10
21.014563649292
 20
-10.740622354576
 10
21.014563649292
 20
-10.760438969421
 10
20.677681196921
 20
-10.760438969421
 10
20.657864582075
 20
-10.740622354576
 10
20.558781507849
 20
-10.740622354576
 10
20.538964893003
 20
-10.720805739731
 10
20.479515048467
 20
-10.720805739731
 10
20.479515048467
 20
-10.700989124885
 10
20.439881818776
 20
-10.700989124885
 10
20.439881818776
 20
-10.68117251004
 10
20.420065203931
 20
-10.68117251004
 10
20.459698433622
 20
-10.542456206122
 10
20.479515048467
 20
-10.542456206122
 10
20.479515048467
 20
-10.562272820968
 10
20.519148278158
 20
-10.562272820968
 10
20.519148278158
 20
-10.582089435813
 10
20.578598122694
 20
-10.582089435813
 10
20.578598122694
 20
-10.601906050659
 10
20.657864582075
 20
-10.601906050659
 10
20.657864582075
 20
-10.621722665504
 10
20.756947656302
 20
-10.621722665504
 10
20.756947656302
 20
-10.641539280349
 10
21.014563649292
 20
-10.641539280349
 10
21.014563649292
 20
-10.621722665504
 10
21.034380264137
 20
-10.621722665504
 10
21.034380264137
 20
-10.582089435813
 10
21.014563649292
 20
-10.582089435813
 10
21.014563649292
 20
-10.562272820968
 10
20.974930419601
 20
-10.562272820968
 10
20.955113804756
 20
-10.542456206122
 10
20.915480575065
 20
-10.542456206122
 10
20.89566396022
 20
-10.522639591277
 10
20.697497811766
 20
-10.522639591277
 10
20.697497811766
 20
-10.502822976432
 10
20.598414737539
 20
-10.502822976432
 10
20.598414737539
 20
-10.483006361586
 10
20.538964893003
 20
-10.483006361586
 10
20.519148278158
 20
-10.463189746741
 10
20.479515048467
 20
-10.463189746741
 10
20.479515048467
 20
-10.443373131896
 10
20.459698433622
 20
-10.443373131896
 10
20.400248589086
 20
-10.38392328736
 10
20.400248589086
 20
-10.364106672514
 10
20.38043197424
 20
-10.344290057669
 10
20.38043197424
 20
-10.265023598287
 10
20.400248589086
 20
-10.245206983442
 10
20.400248589086
 20
-10.225390368597
 10
20.420065203931
 20
-10.205573753751
 10
20.420065203931
 20
-10.185757138906
 10
20.439881818776
 20
-10.185757138906
 10
20.459698433622
 20
-10.165940524061
 10
20.479515048467
 20
-10.165940524061
 10
20.479515048467
 20
-10.146123909215
 10
20.519148278158
 20
-10.146123909215
 10
20.519148278158
 20
-10.12630729437
 10
20.598414737539
 20
-10.12630729437
 10
20.618231352385
 20
-10.106490679524
 10
20.93529718991
 20
-10.106490679524
 10
20.955113804756
 20
-10.12630729437
 10
21.054196878983
 20
-10.12630729437
 10
21.074013493828
 20
-10.146123909215
 10
21.133463338364
 20
-10.146123909215
 10
21.133463338364
 20
-10.165940524061
 10
21.1929131829
 20
-10.165940524061
 10
21.1929131829
 20
-10.185757138906
 10
21.212729797745
 20
-10.185757138906
 10
21.173096568055
 20
-10.344290057669
 10
21.153279953209
 20
-10.344290057669
 10
21.133463338364
 20
-10.324473442823
 10
21.093830108673
 20
-10.324473442823
 10
21.093830108673
 20
-10.304656827978
 10
21.034380264137
 20
-10.304656827978
 10
21.034380264137
 20
-10.284840213133
 10
20.974930419601
 20
-10.284840213133
 10
20.955113804756
 20
-10.265023598287
 10
20.875847345374
 20
-10.265023598287
 10
20.856030730529
 20
-10.245206983442
 10
20.737131041457
 20
-10.245206983442
 10
20.717314426611
 20
-10.225390368597
 10
20.618231352385
 20
-10.225390368597
 10
20.598414737539
 20
-10.245206983442
 10
20.598414737539
 20
-10.265023598287
 10
20.578598122694
 20
-10.265023598287
 10
20.578598122694
 20
-10.304656827978
 10
20.598414737539
 20
-10.304656827978
 10
20.598414737539
 20
-10.324473442823
 10
20.63804796723
 20
-10.324473442823
 10
20.63804796723
 20
-10.344290057669
 10
20.856030730529
 20
-10.344290057669
 10
20.875847345374
 20
-10.364106672514
 10
20.93529718991
 20
-10.364106672514
 10
20.93529718991
 20
-10.38392328736
 10
21.014563649292
 20
-10.38392328736
 10
21.034380264137
 20
-10.403739902205
 10
21.093830108673
 20
-10.403739902205
 10
21.093830108673
 20
-10.42355651705
 10
21.133463338364
 20
-10.42355651705
 10
21.153279953209
 20
-10.443373131896
 10
21.173096568055
 20
-10.443373131896
 10
21.212729797745
 20
-10.483006361586
 10
21.232546412591
 20
-10.483006361586
 10
21.232546412591
 20
-10.522639591277
 10
21.252363027436
 20
-10.522639591277
 10
21.252363027436
 20
-10.601906050659
 10
21.252363027436
 20
-10.601906050659
1001
ACAD
1000
TCW40_DEV_WIDTH
1002
{
1040
-3.0
1002
}
  0
LWPOLYLINE
  5
448
100
AcDbEntity
  8
0
 62
           1
100
AcDbPolyline
 90
        9
 70
           0
 10
18.854552631148
 20
-10.106490679524
 10
19.072535394447
 20
-10.106490679524
 10
19.231068313209
 20
-10.483006361586
 10
19.389601231972
 20
-10.106490679524
 10
19.607583995271
 20
-10.106490679524
 10
19.330151387436
 20
-10.760438969421
 10
19.131985238983
 20
-10.760438969421
 10
18.854552631148
 20
-10.106490679524
 10
18.854552631148
 20
-10.106490679524
1001
ACAD
1000
TCW40_DEV_WIDTH
1002
{
1040
-3.0
1002
}
  0
LWPOLYLINE
  5
449
100
AcDbEntity
  8
0
 62
           1
100
AcDbPolyline
 90
        5
 70
           0
 10
18.557303408467
 20
-10.106490679524
 10
18.814919401457
 20
-10.106490679524
 10
18.814919401457
 20
-10.780255584267
 10
18.557303408467
 20
-10.780255584267
 10
18.557303408467
 20
-10.106490679524
1001
ACAD
1000
TCW40_DEV_WIDTH
1002
{
1040
-3.0
1002
}
  0
LWPOLYLINE
  5
44A
100
AcDbEntity
  8
0
 62
           1
100
AcDbPolyline
 90
       74
 70
           0
 10
16.75399145754
 20
-10.146123909215
 10
16.75399145754
 20
-10.740622354576
 10
16.79362468723
 20
-10.740622354576
 10
16.813441302076
 20
-10.760438969421
 10
16.892707761457
 20
-10.760438969421
 10
16.912524376303
 20
-10.780255584267
 10
17.150323754447
 20
-10.780255584267
 10
17.170140369292
 20
-10.760438969421
 10
17.249406828674
 20
-10.760438969421
 10
17.269223443519
 20
-10.740622354576
 10
17.30885667321
 20
-10.740622354576
 10
17.328673288055
 20
-10.720805739731
 10
17.368306517746
 20
-10.720805739731
 10
17.388123132591
 20
-10.700989124885
 10
17.407939747437
 20
-10.700989124885
 10
17.447572977127
 20
-10.661355895195
 10
17.467389591973
 20
-10.661355895195
 10
17.566472666199
 20
-10.562272820968
 10
17.566472666199
 20
-10.542456206122
 10
17.586289281045
 20
-10.522639591277
 10
17.586289281045
 20
-10.502822976432
 10
17.60610589589
 20
-10.483006361586
 10
17.60610589589
 20
-10.403739902205
 10
17.586289281045
 20
-10.38392328736
 10
17.586289281045
 20
-10.364106672514
 10
17.566472666199
 20
-10.344290057669
 10
17.566472666199
 20
-10.324473442823
 10
17.467389591973
 20
-10.225390368597
 10
17.447572977127
 20
-10.225390368597
 10
17.407939747437
 20
-10.185757138906
 10
17.388123132591
 20
-10.185757138906
 10
17.368306517746
 20
-10.165940524061
 10
17.328673288055
 20
-10.165940524061
 10
17.30885667321
 20
-10.146123909215
 10
17.269223443519
 20
-10.146123909215
 10
17.249406828674
 20
-10.12630729437
 10
17.170140369292
 20
-10.12630729437
 10
17.150323754447
 20
-10.106490679524
 10
16.912524376303
 20
-10.106490679524
 10
16.892707761457
 20
-10.12630729437
 10
16.813441302076
 20
-10.12630729437
 10
16.79362468723
 20
-10.146123909215
 10
16.75399145754
 20
-10.146123909215
 10
16.971974220839
 20
-10.265023598287
 10
16.952157605993
 20
-10.265023598287
 10
16.991790835684
 20
-10.265023598287
 10
17.011607450529
 20
-10.245206983442
 10
17.189956984138
 20
-10.245206983442
 10
17.209773598983
 20
-10.265023598287
 10
17.249406828674
 20
-10.265023598287
 10
17.269223443519
 20
-10.284840213133
 10
17.289040058364
 20
-10.284840213133
 10
17.328673288055
 20
-10.324473442823
 10
17.3484899029
 20
-10.324473442823
 10
17.368306517746
 20
-10.344290057669
 10
17.368306517746
 20
-10.364106672514
 10
17.407939747437
 20
-10.403739902205
 10
17.407939747437
 20
-10.483006361586
 10
17.368306517746
 20
-10.522639591277
 10
17.368306517746
 20
-10.542456206122
 10
17.3484899029
 20
-10.562272820968
 10
17.328673288055
 20
-10.562272820968
 10
17.289040058364
 20
-10.601906050659
 10
17.269223443519
 20
-10.601906050659
 10
17.249406828674
 20
-10.621722665504
 10
17.209773598983
 20
-10.621722665504
 10
17.189956984138
 20
-10.641539280349
 10
17.011607450529
 20
-10.641539280349
 10
16.991790835684
 20
-10.621722665504
 10
16.952157605993
 20
-10.621722665504
 10
16.971974220839
 20
-10.601906050659
 10
16.971974220839
 20
-10.284840213133
 10
16.75399145754
 20
-10.146123909215
 10
16.75399145754
 20
-10.146123909215
1001
ACAD
1000
TCW40_DEV_WIDTH
1002
{
1040
-3.0
1002
}
  0
LWPOLYLINE
  5
44B
100
AcDbEntity
  8
0
 62
           1
100
AcDbPolyline
 90
        6
 70
           0
 10
18.497853563931
 20
-10.760438969421
 10
18.260054185787
 20
-10.760438969421
 10
17.942988348261
 20
-10.522639591277
 10
18.16097111156
 20
-10.522639591277
 10
18.497853563931
 20
-10.760438969421
 10
18.497853563931
 20
-10.760438969421
1001
ACAD
1000
TCW40_DEV_WIDTH
1002
{
1040
-3.0
1002
}
  0
LWPOLYLINE
  5
44C
100
AcDbEntity
  8
0
 62
           1
100
AcDbPolyline
 90
       60
 70
           0
 10
17.883538503725
 20
-10.562272820968
 10
17.883538503725
 20
-10.760438969421
 10
17.665555740426
 20
-10.760438969421
 10
17.665555740426
 20
-10.146123909215
 10
17.725005584962
 20
-10.146123909215
 10
17.744822199808
 20
-10.12630729437
 10
17.824088659189
 20
-10.12630729437
 10
17.843905274034
 20
-10.106490679524
 10
18.141154496715
 20
-10.106490679524
 10
18.16097111156
 20
-10.12630729437
 10
18.240237570941
 20
-10.12630729437
 10
18.260054185787
 20
-10.146123909215
 10
18.299687415478
 20
-10.146123909215
 10
18.319504030323
 20
-10.165940524061
 10
18.339320645169
 20
-10.165940524061
 10
18.359137260014
 20
-10.185757138906
 10
18.378953874859
 20
-10.185757138906
 10
18.398770489705
 20
-10.205573753751
 10
18.41858710455
 20
-10.205573753751
 10
18.497853563931
 20
-10.284840213133
 10
18.497853563931
 20
-10.304656827978
 10
18.517670178777
 20
-10.344290057669
 10
18.517670178777
 20
-10.324473442823
 10
18.517670178777
 20
-10.403739902205
 10
18.478036949086
 20
-10.443373131896
 10
18.478036949086
 20
-10.463189746741
 10
18.438403719395
 20
-10.502822976432
 10
18.41858710455
 20
-10.502822976432
 10
18.378953874859
 20
-10.542456206122
 10
18.339320645169
 20
-10.542456206122
 10
18.319504030323
 20
-10.562272820968
 10
18.299687415478
 20
-10.562272820968
 10
18.279870800632
 20
-10.582089435813
 10
18.200604341251
 20
-10.582089435813
 10
18.180787726406
 20
-10.601906050659
 10
17.982621577952
 20
-10.601906050659
 10
17.962804963107
 20
-10.582089435813
 10
17.883538503725
 20
-10.582089435813
 10
17.86372188888
 20
-10.562272820968
 10
17.883538503725
 20
-10.403739902205
 10
17.883538503725
 20
-10.284840213133
 10
17.86372188888
 20
-10.284840213133
 10
17.923171733416
 20
-10.265023598287
 10
18.16097111156
 20
-10.265023598287
 10
18.180787726406
 20
-10.284840213133
 10
18.220420956096
 20
-10.284840213133
 10
18.240237570941
 20
-10.304656827978
 10
18.260054185787
 20
-10.304656827978
 10
18.299687415478
 20
-10.344290057669
 10
18.279870800632
 20
-10.38392328736
 10
18.260054185787
 20
-10.403739902205
 10
18.240237570941
 20
-10.403739902205
 10
18.220420956096
 20
-10.42355651705
 10
18.180787726406
 20
-10.42355651705
 10
18.16097111156
 20
-10.443373131896
 10
17.923171733416
 20
-10.443373131896
 10
17.903355118571
 20
-10.42355651705
 10
17.86372188888
 20
-10.42355651705
 10
17.883538503725
 20
-10.562272820968
 10
17.883538503725
 20
-10.562272820968
1001
ACAD
1000
TCW40_DEV_WIDTH
1002
{
1040
-3.0
1002
}
  0
LWPOLYLINE
  5
44D
100
AcDbEntity
  8
0
 62
           1
100
AcDbPolyline
 90
       59
 70
           0
 10
14.976361615239
 20
-10.562272820968
 10
14.976361615239
 20
-10.760438969421
 10
14.75837885194
 20
-10.760438969421
 10
14.75837885194
 20
-10.146123909215
 10
14.817828696476
 20
-10.146123909215
 10
14.837645311322
 20
-10.12630729437
 10
14.916911770703
 20
-10.12630729437
 10
14.936728385548
 20
-10.106490679524
 10
15.233977608229
 20
-10.106490679524
 10
15.253794223074
 20
-10.12630729437
 10
15.333060682456
 20
-10.12630729437
 10
15.352877297301
 20
-10.146123909215
 10
15.412327141837
 20
-10.146123909215
 10
15.432143756682
 20
-10.165940524061
 10
15.451960371528
 20
-10.165940524061
 10
15.471776986373
 20
-10.185757138906
 10
15.491593601219
 20
-10.185757138906
 10
15.511410216064
 20
-10.205573753751
 10
15.531226830909
 20
-10.205573753751
 10
15.610493290291
 20
-10.284840213133
 10
15.610493290291
 20
-10.304656827978
 10
15.630309905136
 20
-10.344290057669
 10
15.630309905136
 20
-10.324473442823
 10
15.630309905136
 20
-10.403739902205
 10
15.590676675445
 20
-10.443373131896
 10
15.590676675445
 20
-10.463189746741
 10
15.551043445755
 20
-10.502822976432
 10
15.531226830909
 20
-10.502822976432
 10
15.491593601219
 20
-10.542456206122
 10
15.451960371528
 20
-10.542456206122
 10
15.432143756682
 20
-10.562272820968
 10
15.412327141837
 20
-10.562272820968
 10
15.392510526992
 20
-10.582089435813
 10
15.31324406761
 20
-10.582089435813
 10
15.293427452765
 20
-10.601906050659
 10
15.075444689466
 20
-10.601906050659
 10
15.055628074621
 20
-10.582089435813
 10
14.976361615239
 20
-10.582089435813
 10
14.976361615239
 20
-10.284840213133
 10
15.01599484493
 20
-10.284840213133
 10
15.035811459775
 20
-10.265023598287
 10
15.27361083792
 20
-10.265023598287
 10
15.293427452765
 20
-10.284840213133
 10
15.333060682456
 20
-10.284840213133
 10
15.352877297301
 20
-10.304656827978
 10
15.372693912146
 20
-10.304656827978
 10
15.412327141837
 20
-10.344290057669
 10
15.392510526992
 20
-10.38392328736
 10
15.372693912146
 20
-10.403739902205
 10
15.352877297301
 20
-10.403739902205
 10
15.333060682456
 20
-10.42355651705
 10
15.293427452765
 20
-10.42355651705
 10
15.27361083792
 20
-10.443373131896
 10
15.035811459775
 20
-10.443373131896
 10
15.01599484493
 20
-10.42355651705
 10
14.976361615239
 20
-10.42355651705
 10
14.976361615239
 20
-10.403739902205
 10
14.976361615239
 20
-10.562272820968
 10
14.976361615239
 20
-10.562272820968
1001
ACAD
1000
TCW40_DEV_WIDTH
1002
{
1040
-3.0
1002
}
  0
LWPOLYLINE
  5
44E
100
AcDbEntity
  8
0
 62
           1
100
AcDbPolyline
 90
      117
 70
           0
 10
12.598367833796
 20
-10.601906050659
 10
12.598367833796
 20
-10.621722665504
 10
12.578551218951
 20
-10.621722665504
 10
12.578551218951
 20
-10.661355895195
 10
12.558734604105
 20
-10.661355895195
 10
12.558734604105
 20
-10.68117251004
 10
12.53891798926
 20
-10.68117251004
 10
12.53891798926
 20
-10.700989124885
 10
12.499284759569
 20
-10.700989124885
 10
12.499284759569
 20
-10.720805739731
 10
12.459651529879
 20
-10.720805739731
 10
12.439834915033
 20
-10.740622354576
 10
12.360568455652
 20
-10.740622354576
 10
12.360568455652
 20
-10.760438969421
 10
12.023686003281
 20
-10.760438969421
 10
12.003869388435
 20
-10.740622354576
 10
11.904786314209
 20
-10.740622354576
 10
11.884969699363
 20
-10.720805739731
 10
11.825519854827
 20
-10.720805739731
 10
11.825519854827
 20
-10.700989124885
 10
11.785886625136
 20
-10.700989124885
 10
11.785886625136
 20
-10.68117251004
 10
11.766070010291
 20
-10.68117251004
 10
11.805703239982
 20
-10.542456206122
 10
11.825519854827
 20
-10.542456206122
 10
11.825519854827
 20
-10.562272820968
 10
11.865153084518
 20
-10.562272820968
 10
11.865153084518
 20
-10.582089435813
 10
11.924602929054
 20
-10.582089435813
 10
11.924602929054
 20
-10.601906050659
 10
12.003869388435
 20
-10.601906050659
 10
12.003869388435
 20
-10.621722665504
 10
12.102952462662
 20
-10.621722665504
 10
12.102952462662
 20
-10.641539280349
 10
12.360568455652
 20
-10.641539280349
 10
12.360568455652
 20
-10.621722665504
 10
12.380385070497
 20
-10.621722665504
 10
12.380385070497
 20
-10.582089435813
 10
12.360568455652
 20
-10.582089435813
 10
12.360568455652
 20
-10.562272820968
 10
12.320935225961
 20
-10.562272820968
 10
12.301118611116
 20
-10.542456206122
 10
12.261485381425
 20
-10.542456206122
 10
12.24166876658
 20
-10.522639591277
 10
12.043502618126
 20
-10.522639591277
 10
12.043502618126
 20
-10.502822976432
 10
11.944419543899
 20
-10.502822976432
 10
11.944419543899
 20
-10.483006361586
 10
11.884969699363
 20
-10.483006361586
 10
11.865153084518
 20
-10.463189746741
 10
11.825519854827
 20
-10.463189746741
 10
11.825519854827
 20
-10.443373131896
 10
11.805703239982
 20
-10.443373131896
 10
11.746253395446
 20
-10.38392328736
 10
11.746253395446
 20
-10.364106672514
 10
11.7264367806
 20
-10.344290057669
 10
11.7264367806
 20
-10.265023598287
 10
11.746253395446
 20
-10.245206983442
 10
11.746253395446
 20
-10.225390368597
 10
11.766070010291
 20
-10.205573753751
 10
11.766070010291
 20
-10.185757138906
 10
11.785886625136
 20
-10.185757138906
 10
11.805703239982
 20
-10.165940524061
 10
11.825519854827
 20
-10.165940524061
 10
11.825519854827
 20
-10.146123909215
 10
11.865153084518
 20
-10.146123909215
 10
11.865153084518
 20
-10.12630729437
 10
11.944419543899
 20
-10.12630729437
 10
11.964236158745
 20
-10.106490679524
 10
12.28130199627
 20
-10.106490679524
 10
12.301118611116
 20
-10.12630729437
 10
12.400201685343
 20
-10.12630729437
 10
12.420018300188
 20
-10.146123909215
 10
12.479468144724
 20
-10.146123909215
 10
12.479468144724
 20
-10.165940524061
 10
12.53891798926
 20
-10.165940524061
 10
12.53891798926
 20
-10.185757138906
 10
12.558734604105
 20
-10.185757138906
 10
12.519101374415
 20
-10.344290057669
 10
12.499284759569
 20
-10.344290057669
 10
12.479468144724
 20
-10.324473442823
 10
12.439834915033
 20
-10.324473442823
 10
12.439834915033
 20
-10.304656827978
 10
12.380385070497
 20
-10.304656827978
 10
12.380385070497
 20
-10.284840213133
 10
12.320935225961
 20
-10.284840213133
 10
12.301118611116
 20
-10.265023598287
 10
12.221852151734
 20
-10.265023598287
 10
12.202035536889
 20
-10.245206983442
 10
12.083135847817
 20
-10.245206983442
 10
12.063319232971
 20
-10.225390368597
 10
11.964236158745
 20
-10.225390368597
 10
11.944419543899
 20
-10.245206983442
 10
11.944419543899
 20
-10.265023598287
 10
11.924602929054
 20
-10.265023598287
 10
11.924602929054
 20
-10.304656827978
 10
11.944419543899
 20
-10.304656827978
 10
11.944419543899
 20
-10.324473442823
 10
11.98405277359
 20
-10.324473442823
 10
11.98405277359
 20
-10.344290057669
 10
12.202035536889
 20
-10.344290057669
 10
12.221852151734
 20
-10.364106672514
 10
12.28130199627
 20
-10.364106672514
 10
12.28130199627
 20
-10.38392328736
 10
12.360568455652
 20
-10.38392328736
 10
12.380385070497
 20
-10.403739902205
 10
12.439834915033
 20
-10.403739902205
 10
12.439834915033
 20
-10.42355651705
 10
12.479468144724
 20
-10.42355651705
 10
12.499284759569
 20
-10.443373131896
 10
12.519101374415
 20
-10.443373131896
 10
12.558734604105
 20
-10.483006361586
 10
12.578551218951
 20
-10.483006361586
 10
12.578551218951
 20
-10.522639591277
 10
12.598367833796
 20
-10.522639591277
 10
12.598367833796
 20
-10.601906050659
 10
12.598367833796
 20
-10.601906050659
1001
ACAD
1000
TCW40_DEV_WIDTH
1002
{
1040
-3.0
1002
}
  0
LWPOLYLINE
  5
44F
100
AcDbEntity
  8
0
 62
           1
100
AcDbPolyline
 90
       27
 70
           0
 10
16.086092046579
 20
-10.225390368597
 10
16.046458816889
 20
-10.225390368597
 10
16.026642202043
 20
-10.245206983442
 10
15.987008972352
 20
-10.245206983442
 10
15.887925898126
 20
-10.344290057669
 10
15.887925898126
 20
-10.38392328736
 10
15.86810928328
 20
-10.403739902205
 10
15.86810928328
 20
-10.483006361586
 10
15.887925898126
 20
-10.502822976432
 10
15.887925898126
 20
-10.542456206122
 10
15.987008972352
 20
-10.641539280349
 10
16.026642202043
 20
-10.641539280349
 10
16.046458816889
 20
-10.661355895195
 10
16.12572527627
 20
-10.661355895195
 10
16.145541891115
 20
-10.641539280349
 10
16.185175120806
 20
-10.641539280349
 10
16.284258195033
 20
-10.542456206122
 10
16.284258195033
 20
-10.502822976432
 10
16.304074809878
 20
-10.483006361586
 10
16.304074809878
 20
-10.403739902205
 10
16.284258195033
 20
-10.38392328736
 10
16.284258195033
 20
-10.344290057669
 10
16.185175120806
 20
-10.245206983442
 10
16.145541891115
 20
-10.245206983442
 10
16.12572527627
 20
-10.225390368597
 10
16.086092046579
 20
-10.225390368597
 10
16.086092046579
 20
-10.225390368597
1001
ACAD
1000
TCW40_DEV_WIDTH
1002
{
1040
-3.0
1002
}
  0
LWPOLYLINE
  5
450
100
AcDbEntity
  8
0
 62
           1
100
AcDbPolyline
 90
       15
 70
           0
 10
13.787364724518
 20
-10.760438969421
 10
13.866631183899
 20
-10.106490679524
 10
14.084613947198
 20
-10.106490679524
 10
14.243146865961
 20
-10.483006361586
 10
14.401679784724
 20
-10.106490679524
 10
14.619662548023
 20
-10.106490679524
 10
14.698929007404
 20
-10.760438969421
 10
14.50076285895
 20
-10.760438969421
 10
14.480946244105
 20
-10.483006361586
 10
14.342229940188
 20
-10.760438969421
 10
14.144063791734
 20
-10.760438969421
 10
14.025164102662
 20
-10.483006361586
 10
13.985530872971
 20
-10.760438969421
 10
13.787364724518
 20
-10.760438969421
 10
13.787364724518
 20
-10.760438969421
1001
ACAD
1000
TCW40_DEV_WIDTH
1002
{
1040
-3.0
1002
}
  0
LWPOLYLINE
  5
451
100
AcDbEntity
  8
0
 62
           1
100
AcDbPolyline
 90
        5
 70
           0
 10
13.509932116683
 20
-10.106490679524
 10
13.727914879981
 20
-10.106490679524
 10
13.727914879981
 20
-10.780255584267
 10
13.509932116683
 20
-10.780255584267
 10
13.509932116683
 20
-10.106490679524
1001
ACAD
1000
TCW40_DEV_WIDTH
1002
{
1040
-3.0
1002
}
  0
LWPOLYLINE
  5
452
100
AcDbEntity
  8
0
 62
           1
100
AcDbPolyline
 90
       14
 70
           0
 10
12.657817678332
 20
-10.760438969421
 10
12.657817678332
 20
-10.106490679524
 10
12.855983826786
 20
-10.106490679524
 10
12.855983826786
 20
-10.364106672514
 10
13.192866279157
 20
-10.364106672514
 10
13.192866279157
 20
-10.106490679524
 10
13.410849042456
 20
-10.106490679524
 10
13.410849042456
 20
-10.760438969421
 10
13.192866279157
 20
-10.760438969421
 10
13.192866279157
 20
-10.522639591277
 10
12.855983826786
 20
-10.522639591277
 10
12.855983826786
 20
-10.760438969421
 10
12.657817678332
 20
-10.760438969421
 10
12.657817678332
 20
-10.760438969421
1001
ACAD
1000
TCW40_DEV_WIDTH
1002
{
1040
-3.0
1002
}
  0
LINE
  5
453
100
AcDbEntity
  8
0
 62
           1
100
AcDbLine
 10
16.086092046579
 20
-10.106490679524
 30
0.0
 11
16.006825587198
 21
-10.106490679524
 31
0.0
1001
ACAD
1000
TCW40_DEV_WIDTH
1002
{
1040
-3.0
1002
}
  0
LINE
  5
454
100
AcDbEntity
  8
0
 62
           1
100
AcDbLine
 10
16.006825587198
 20
-10.106490679524
 30
0.0
 11
15.987008972352
 21
-10.12630729437
 31
0.0
1001
ACAD
1000
TCW40_DEV_WIDTH
1002
{
1040
-3.0
1002
}
  0
LINE
  5
455
100
AcDbEntity
  8
0
 62
           1
100
AcDbLine
 10
15.987008972352
 20
-10.12630729437
 30
0.0
 11
15.947375742662
 21
-10.12630729437
 31
0.0
1001
ACAD
1000
TCW40_DEV_WIDTH
1002
{
1040
-3.0
1002
}
  0
LINE
  5
456
100
AcDbEntity
  8
0
 62
           1
100
AcDbLine
 10
15.947375742662
 20
-10.12630729437
 30
0.0
 11
15.927559127817
 21
-10.146123909215
 31
0.0
1001
ACAD
1000
TCW40_DEV_WIDTH
1002
{
1040
-3.0
1002
}
  0
LINE
  5
457
100
AcDbEntity
  8
0
 62
           1
100
AcDbLine
 10
15.927559127817
 20
-10.146123909215
 30
0.0
 11
15.907742512971
 21
-10.146123909215
 31
0.0
1001
ACAD
1000
TCW40_DEV_WIDTH
1002
{
1040
-3.0
1002
}
  0
LINE
  5
458
100
AcDbEntity
  8
0
 62
           1
100
AcDbLine
 10
15.907742512971
 20
-10.146123909215
 30
0.0
 11
15.887925898126
 21
-10.165940524061
 31
0.0
1001
ACAD
1000
TCW40_DEV_WIDTH
1002
{
1040
-3.0
1002
}
  0
LINE
  5
459
100
AcDbEntity
  8
0
 62
           1
100
AcDbLine
 10
15.887925898126
 20
-10.165940524061
 30
0.0
 11
15.86810928328
 21
-10.165940524061
 31
0.0
1001
ACAD
1000
TCW40_DEV_WIDTH
1002
{
1040
-3.0
1002
}
  0
LINE
  5
45A
100
AcDbEntity
  8
0
 62
           1
100
AcDbLine
 10
15.86810928328
 20
-10.165940524061
 30
0.0
 11
15.848292668435
 21
-10.185757138906
 31
0.0
1001
ACAD
1000
TCW40_DEV_WIDTH
1002
{
1040
-3.0
1002
}
  0
LINE
  5
45B
100
AcDbEntity
  8
0
 62
           1
100
AcDbLine
 10
15.848292668435
 20
-10.185757138906
 30
0.0
 11
15.82847605359
 21
-10.185757138906
 31
0.0
1001
ACAD
1000
TCW40_DEV_WIDTH
1002
{
1040
-3.0
1002
}
  0
LINE
  5
45C
100
AcDbEntity
  8
0
 62
           1
100
AcDbLine
 10
15.82847605359
 20
-10.185757138906
 30
0.0
 11
15.749209594208
 21
-10.265023598287
 31
0.0
1001
ACAD
1000
TCW40_DEV_WIDTH
1002
{
1040
-3.0
1002
}
  0
LINE
  5
45D
100
AcDbEntity
  8
0
 62
           1
100
AcDbLine
 10
15.749209594208
 20
-10.265023598287
 30
0.0
 11
15.749209594208
 21
-10.284840213133
 31
0.0
1001
ACAD
1000
TCW40_DEV_WIDTH
1002
{
1040
-3.0
1002
}
  0
LINE
  5
45E
100
AcDbEntity
  8
0
 62
           1
100
AcDbLine
 10
15.749209594208
 20
-10.284840213133
 30
0.0
 11
15.729392979363
 21
-10.304656827978
 31
0.0
1001
ACAD
1000
TCW40_DEV_WIDTH
1002
{
1040
-3.0
1002
}
  0
LINE
  5
45F
100
AcDbEntity
  8
0
 62
           1
100
AcDbLine
 10
15.729392979363
 20
-10.304656827978
 30
0.0
 11
15.729392979363
 21
-10.324473442823
 31
0.0
1001
ACAD
1000
TCW40_DEV_WIDTH
1002
{
1040
-3.0
1002
}
  0
LINE
  5
460
100
AcDbEntity
  8
0
 62
           1
100
AcDbLine
 10
15.729392979363
 20
-10.324473442823
 30
0.0
 11
15.709576364518
 21
-10.344290057669
 31
0.0
1001
ACAD
1000
TCW40_DEV_WIDTH
1002
{
1040
-3.0
1002
}
  0
LINE
  5
461
100
AcDbEntity
  8
0
 62
           1
100
AcDbLine
 10
15.709576364518
 20
-10.344290057669
 30
0.0
 11
15.709576364518
 21
-10.364106672514
 31
0.0
1001
ACAD
1000
TCW40_DEV_WIDTH
1002
{
1040
-3.0
1002
}
  0
LINE
  5
462
100
AcDbEntity
  8
0
 62
           1
100
AcDbLine
 10
15.709576364518
 20
-10.364106672514
 30
0.0
 11
15.689759749672
 21
-10.38392328736
 31
0.0
1001
ACAD
1000
TCW40_DEV_WIDTH
1002
{
1040
-3.0
1002
}
  0
LINE
  5
463
100
AcDbEntity
  8
0
 62
           1
100
AcDbLine
 10
15.689759749672
 20
-10.38392328736
 30
0.0
 11
15.689759749672
 21
-10.502822976432
 31
0.0
1001
ACAD
1000
TCW40_DEV_WIDTH
1002
{
1040
-3.0
1002
}
  0
LINE
  5
464
100
AcDbEntity
  8
0
 62
           1
100
AcDbLine
 10
15.689759749672
 20
-10.502822976432
 30
0.0
 11
15.709576364518
 21
-10.522639591277
 31
0.0
1001
ACAD
1000
TCW40_DEV_WIDTH
1002
{
1040
-3.0
1002
}
  0
LINE
  5
465
100
AcDbEntity
  8
0
 62
           1
100
AcDbLine
 10
15.709576364518
 20
-10.522639591277
 30
0.0
 11
15.709576364518
 21
-10.542456206122
 31
0.0
1001
ACAD
1000
TCW40_DEV_WIDTH
1002
{
1040
-3.0
1002
}
  0
LINE
  5
466
100
AcDbEntity
  8
0
 62
           1
100
AcDbLine
 10
15.709576364518
 20
-10.542456206122
 30
0.0
 11
15.729392979363
 21
-10.562272820968
 31
0.0
1001
ACAD
1000
TCW40_DEV_WIDTH
1002
{
1040
-3.0
1002
}
  0
LINE
  5
467
100
AcDbEntity
  8
0
 62
           1
100
AcDbLine
 10
15.729392979363
 20
-10.562272820968
 30
0.0
 11
15.729392979363
 21
-10.582089435813
 31
0.0
1001
ACAD
1000
TCW40_DEV_WIDTH
1002
{
1040
-3.0
1002
}
  0
LINE
  5
468
100
AcDbEntity
  8
0
 62
           1
100
AcDbLine
 10
15.729392979363
 20
-10.582089435813
 30
0.0
 11
15.749209594208
 21
-10.601906050659
 31
0.0
1001
ACAD
1000
TCW40_DEV_WIDTH
1002
{
1040
-3.0
1002
}
  0
LINE
  5
469
100
AcDbEntity
  8
0
 62
           1
100
AcDbLine
 10
15.749209594208
 20
-10.601906050659
 30
0.0
 11
15.749209594208
 21
-10.621722665504
 31
0.0
1001
ACAD
1000
TCW40_DEV_WIDTH
1002
{
1040
-3.0
1002
}
  0
LINE
  5
46A
100
AcDbEntity
  8
0
 62
           1
100
AcDbLine
 10
15.749209594208
 20
-10.621722665504
 30
0.0
 11
15.82847605359
 21
-10.700989124885
 31
0.0
1001
ACAD
1000
TCW40_DEV_WIDTH
1002
{
1040
-3.0
1002
}
  0
LINE
  5
46B
100
AcDbEntity
  8
0
 62
           1
100
AcDbLine
 10
15.82847605359
 20
-10.700989124885
 30
0.0
 11
15.848292668435
 21
-10.700989124885
 31
0.0
1001
ACAD
1000
TCW40_DEV_WIDTH
1002
{
1040
-3.0
1002
}
  0
LINE
  5
46C
100
AcDbEntity
  8
0
 62
           1
100
AcDbLine
 10
15.848292668435
 20
-10.700989124885
 30
0.0
 11
15.86810928328
 21
-10.720805739731
 31
0.0
1001
ACAD
1000
TCW40_DEV_WIDTH
1002
{
1040
-3.0
1002
}
  0
LINE
  5
46D
100
AcDbEntity
  8
0
 62
           1
100
AcDbLine
 10
15.86810928328
 20
-10.720805739731
 30
0.0
 11
15.887925898126
 21
-10.720805739731
 31
0.0
1001
ACAD
1000
TCW40_DEV_WIDTH
1002
{
1040
-3.0
1002
}
  0
LINE
  5
46E
100
AcDbEntity
  8
0
 62
           1
100
AcDbLine
 10
15.887925898126
 20
-10.720805739731
 30
0.0
 11
15.907742512971
 21
-10.740622354576
 31
0.0
1001
ACAD
1000
TCW40_DEV_WIDTH
1002
{
1040
-3.0
1002
}
  0
LINE
  5
46F
100
AcDbEntity
  8
0
 62
           1
100
AcDbLine
 10
15.907742512971
 20
-10.740622354576
 30
0.0
 11
15.927559127817
 21
-10.740622354576
 31
0.0
1001
ACAD
1000
TCW40_DEV_WIDTH
1002
{
1040
-3.0
1002
}
  0
LINE
  5
470
100
AcDbEntity
  8
0
 62
           1
100
AcDbLine
 10
15.927559127817
 20
-10.740622354576
 30
0.0
 11
15.947375742662
 21
-10.760438969421
 31
0.0
1001
ACAD
1000
TCW40_DEV_WIDTH
1002
{
1040
-3.0
1002
}
  0
LINE
  5
471
100
AcDbEntity
  8
0
 62
           1
100
AcDbLine
 10
15.947375742662
 20
-10.760438969421
 30
0.0
 11
15.987008972352
 21
-10.760438969421
 31
0.0
1001
ACAD
1000
TCW40_DEV_WIDTH
1002
{
1040
-3.0
1002
}
  0
LINE
  5
472
100
AcDbEntity
  8
0
 62
           1
100
AcDbLine
 10
15.987008972352
 20
-10.760438969421
 30
0.0
 11
16.006825587198
 21
-10.780255584267
 31
0.0
1001
ACAD
1000
TCW40_DEV_WIDTH
1002
{
1040
-3.0
1002
}
  0
LINE
  5
473
100
AcDbEntity
  8
0
 62
           1
100
AcDbLine
 10
16.006825587198
 20
-10.780255584267
 30
0.0
 11
16.185175120806
 21
-10.780255584267
 31
0.0
1001
ACAD
1000
TCW40_DEV_WIDTH
1002
{
1040
-3.0
1002
}
  0
LINE
  5
474
100
AcDbEntity
  8
0
 62
           1
100
AcDbLine
 10
16.185175120806
 20
-10.780255584267
 30
0.0
 11
16.204991735651
 21
-10.760438969421
 31
0.0
1001
ACAD
1000
TCW40_DEV_WIDTH
1002
{
1040
-3.0
1002
}
  0
LINE
  5
475
100
AcDbEntity
  8
0
 62
           1
100
AcDbLine
 10
16.204991735651
 20
-10.760438969421
 30
0.0
 11
16.244624965342
 21
-10.760438969421
 31
0.0
1001
ACAD
1000
TCW40_DEV_WIDTH
1002
{
1040
-3.0
1002
}
  0
LINE
  5
476
100
AcDbEntity
  8
0
 62
           1
100
AcDbLine
 10
16.244624965342
 20
-10.760438969421
 30
0.0
 11
16.264441580187
 21
-10.740622354576
 31
0.0
1001
ACAD
1000
TCW40_DEV_WIDTH
1002
{
1040
-3.0
1002
}
  0
LINE
  5
477
100
AcDbEntity
  8
0
 62
           1
100
AcDbLine
 10
16.264441580187
 20
-10.740622354576
 30
0.0
 11
16.284258195033
 21
-10.740622354576
 31
0.0
1001
ACAD
1000
TCW40_DEV_WIDTH
1002
{
1040
-3.0
1002
}
  0
LINE
  5
478
100
AcDbEntity
  8
0
 62
           1
100
AcDbLine
 10
16.284258195033
 20
-10.740622354576
 30
0.0
 11
16.304074809878
 21
-10.720805739731
 31
0.0
1001
ACAD
1000
TCW40_DEV_WIDTH
1002
{
1040
-3.0
1002
}
  0
LINE
  5
479
100
AcDbEntity
  8
0
 62
           1
100
AcDbLine
 10
16.304074809878
 20
-10.720805739731
 30
0.0
 11
16.323891424724
 21
-10.720805739731
 31
0.0
1001
ACAD
1000
TCW40_DEV_WIDTH
1002
{
1040
-3.0
1002
}
  0
LINE
  5
47A
100
AcDbEntity
  8
0
 62
           1
100
AcDbLine
 10
16.323891424724
 20
-10.720805739731
 30
0.0
 11
16.343708039569
 21
-10.700989124885
 31
0.0
1001
ACAD
1000
TCW40_DEV_WIDTH
1002
{
1040
-3.0
1002
}
  0
LINE
  5
47B
100
AcDbEntity
  8
0
 62
           1
100
AcDbLine
 10
16.343708039569
 20
-10.700989124885
 30
0.0
 11
16.363524654414
 21
-10.700989124885
 31
0.0
1001
ACAD
1000
TCW40_DEV_WIDTH
1002
{
1040
-3.0
1002
}
  0
LINE
  5
47C
100
AcDbEntity
  8
0
 62
           1
100
AcDbLine
 10
16.363524654414
 20
-10.700989124885
 30
0.0
 11
16.442791113796
 21
-10.621722665504
 31
0.0
1001
ACAD
1000
TCW40_DEV_WIDTH
1002
{
1040
-3.0
1002
}
  0
LINE
  5
47D
100
AcDbEntity
  8
0
 62
           1
100
AcDbLine
 10
16.442791113796
 20
-10.621722665504
 30
0.0
 11
16.442791113796
 21
-10.601906050659
 31
0.0
1001
ACAD
1000
TCW40_DEV_WIDTH
1002
{
1040
-3.0
1002
}
  0
LINE
  5
47E
100
AcDbEntity
  8
0
 62
           1
100
AcDbLine
 10
16.442791113796
 20
-10.601906050659
 30
0.0
 11
16.462607728641
 21
-10.582089435813
 31
0.0
1001
ACAD
1000
TCW40_DEV_WIDTH
1002
{
1040
-3.0
1002
}
  0
LINE
  5
47F
100
AcDbEntity
  8
0
 62
           1
100
AcDbLine
 10
16.462607728641
 20
-10.582089435813
 30
0.0
 11
16.462607728641
 21
-10.562272820968
 31
0.0
1001
ACAD
1000
TCW40_DEV_WIDTH
1002
{
1040
-3.0
1002
}
  0
LINE
  5
480
100
AcDbEntity
  8
0
 62
           1
100
AcDbLine
 10
16.462607728641
 20
-10.562272820968
 30
0.0
 11
16.482424343486
 21
-10.542456206122
 31
0.0
1001
ACAD
1000
TCW40_DEV_WIDTH
1002
{
1040
-3.0
1002
}
  0
LINE
  5
481
100
AcDbEntity
  8
0
 62
           1
100
AcDbLine
 10
16.482424343486
 20
-10.542456206122
 30
0.0
 11
16.482424343486
 21
-10.522639591277
 31
0.0
1001
ACAD
1000
TCW40_DEV_WIDTH
1002
{
1040
-3.0
1002
}
  0
LINE
  5
482
100
AcDbEntity
  8
0
 62
           1
100
AcDbLine
 10
16.482424343486
 20
-10.522639591277
 30
0.0
 11
16.502240958332
 21
-10.502822976432
 31
0.0
1001
ACAD
1000
TCW40_DEV_WIDTH
1002
{
1040
-3.0
1002
}
  0
LINE
  5
483
100
AcDbEntity
  8
0
 62
           1
100
AcDbLine
 10
16.502240958332
 20
-10.502822976432
 30
0.0
 11
16.502240958332
 21
-10.38392328736
 31
0.0
1001
ACAD
1000
TCW40_DEV_WIDTH
1002
{
1040
-3.0
1002
}
  0
LINE
  5
484
100
AcDbEntity
  8
0
 62
           1
100
AcDbLine
 10
16.502240958332
 20
-10.38392328736
 30
0.0
 11
16.482424343486
 21
-10.364106672514
 31
0.0
1001
ACAD
1000
TCW40_DEV_WIDTH
1002
{
1040
-3.0
1002
}
  0
LINE
  5
485
100
AcDbEntity
  8
0
 62
           1
100
AcDbLine
 10
16.482424343486
 20
-10.364106672514
 30
0.0
 11
16.482424343486
 21
-10.344290057669
 31
0.0
1001
ACAD
1000
TCW40_DEV_WIDTH
1002
{
1040
-3.0
1002
}
  0
LINE
  5
486
100
AcDbEntity
  8
0
 62
           1
100
AcDbLine
 10
16.482424343486
 20
-10.344290057669
 30
0.0
 11
16.462607728641
 21
-10.324473442823
 31
0.0
1001
ACAD
1000
TCW40_DEV_WIDTH
1002
{
1040
-3.0
1002
}
  0
LINE
  5
487
100
AcDbEntity
  8
0
 62
           1
100
AcDbLine
 10
16.462607728641
 20
-10.324473442823
 30
0.0
 11
16.462607728641
 21
-10.304656827978
 31
0.0
1001
ACAD
1000
TCW40_DEV_WIDTH
1002
{
1040
-3.0
1002
}
  0
LINE
  5
488
100
AcDbEntity
  8
0
 62
           1
100
AcDbLine
 10
16.462607728641
 20
-10.304656827978
 30
0.0
 11
16.442791113796
 21
-10.284840213133
 31
0.0
1001
ACAD
1000
TCW40_DEV_WIDTH
1002
{
1040
-3.0
1002
}
  0
LINE
  5
489
100
AcDbEntity
  8
0
 62
           1
100
AcDbLine
 10
16.442791113796
 20
-10.284840213133
 30
0.0
 11
16.442791113796
 21
-10.265023598287
 31
0.0
1001
ACAD
1000
TCW40_DEV_WIDTH
1002
{
1040
-3.0
1002
}
  0
LINE
  5
48A
100
AcDbEntity
  8
0
 62
           1
100
AcDbLine
 10
16.442791113796
 20
-10.265023598287
 30
0.0
 11
16.363524654414
 21
-10.185757138906
 31
0.0
1001
ACAD
1000
TCW40_DEV_WIDTH
1002
{
1040
-3.0
1002
}
  0
LINE
  5
48B
100
AcDbEntity
  8
0
 62
           1
100
AcDbLine
 10
16.363524654414
 20
-10.185757138906
 30
0.0
 11
16.343708039569
 21
-10.185757138906
 31
0.0
1001
ACAD
1000
TCW40_DEV_WIDTH
1002
{
1040
-3.0
1002
}
  0
LINE
  5
48C
100
AcDbEntity
  8
0
 62
           1
100
AcDbLine
 10
16.343708039569
 20
-10.185757138906
 30
0.0
 11
16.323891424724
 21
-10.165940524061
 31
0.0
1001
ACAD
1000
TCW40_DEV_WIDTH
1002
{
1040
-3.0
1002
}
  0
LINE
  5
48D
100
AcDbEntity
  8
0
 62
           1
100
AcDbLine
 10
16.323891424724
 20
-10.165940524061
 30
0.0
 11
16.304074809878
 21
-10.165940524061
 31
0.0
1001
ACAD
1000
TCW40_DEV_WIDTH
1002
{
1040
-3.0
1002
}
  0
LINE
  5
48E
100
AcDbEntity
  8
0
 62
           1
100
AcDbLine
 10
16.304074809878
 20
-10.165940524061
 30
0.0
 11
16.284258195033
 21
-10.146123909215
 31
0.0
1001
ACAD
1000
TCW40_DEV_WIDTH
1002
{
1040
-3.0
1002
}
  0
LINE
  5
48F
100
AcDbEntity
  8
0
 62
           1
100
AcDbLine
 10
16.284258195033
 20
-10.146123909215
 30
0.0
 11
16.264441580187
 21
-10.146123909215
 31
0.0
1001
ACAD
1000
TCW40_DEV_WIDTH
1002
{
1040
-3.0
1002
}
  0
LINE
  5
490
100
AcDbEntity
  8
0
 62
           1
100
AcDbLine
 10
16.264441580187
 20
-10.146123909215
 30
0.0
 11
16.244624965342
 21
-10.12630729437
 31
0.0
1001
ACAD
1000
TCW40_DEV_WIDTH
1002
{
1040
-3.0
1002
}
  0
LINE
  5
491
100
AcDbEntity
  8
0
 62
           1
100
AcDbLine
 10
16.244624965342
 20
-10.12630729437
 30
0.0
 11
16.204991735651
 21
-10.12630729437
 31
0.0
1001
ACAD
1000
TCW40_DEV_WIDTH
1002
{
1040
-3.0
1002
}
  0
LINE
  5
492
100
AcDbEntity
  8
0
 62
           1
100
AcDbLine
 10
16.204991735651
 20
-10.12630729437
 30
0.0
 11
16.185175120806
 21
-10.106490679524
 31
0.0
1001
ACAD
1000
TCW40_DEV_WIDTH
1002
{
1040
-3.0
1002
}
  0
LINE
  5
493
100
AcDbEntity
  8
0
 62
           1
100
AcDbLine
 10
16.185175120806
 20
-10.106490679524
 30
0.0
 11
16.086092046579
 21
-10.106490679524
 31
0.0
1001
ACAD
1000
TCW40_DEV_WIDTH
1002
{
1040
-3.0
1002
}
  0
LINE
  5
494
100
AcDbEntity
  8
0
 62
           1
100
AcDbLine
 10
16.086092046579
 20
-10.106490679524
 30
0.0
 11
16.086092046579
 21
-10.106490679524
 31
0.0
1001
ACAD
1000
TCW40_DEV_WIDTH
1002
{
1040
-3.0
1002
}
  0
INSERT
  5
495
100
AcDbEntity
  8
0
100
AcDbBlockReference
  2
Block_0
 10
-18.332556065841
 20
-15.875960680102
 30
0.0
 41
3.249796585294
 42
3.249796585294
 43
4.229524083164
  0
INSERT
  5
496
100
AcDbEntity
  8
0
100
AcDbBlockReference
  2
Block_3
 10
-18.332556065841
 20
-15.875960680102
 30
0.0
 41
3.249796585294
 42
3.249796585294
 43
4.229524083164
  0
TEXT
  5
497
100
AcDbEntity
  8
0
  6
Continuous
100
AcDbText
 10
10.099103323854
 20
-11.769637905105
 30
0.0
 40
0.477583646774
  1
Itasca, IL 60143, USA Tel: (630) 924-7138
  7
_TCW_TXTSTY_3
100
AcDbText
1001
TCAD
1000
TCW40_TEXT
1002
{
1000
Times New Roman
1070
           0
1070
        1025
1002
}
  0
TEXT
  5
498
100
AcDbEntity
  8
0
  6
Continuous
100
AcDbText
 10
-13.938949731461
 20
-11.225221940009
 30
0.0
 40
0.461341058666
  1
FRAME SIZE
  7
_TCW_TXTSTY_3
100
AcDbText
1001
TCAD
1000
TCW40_TEXT
1002
{
1000
Times New Roman
1070
           0
1070
        1025
1002
}
  0
TEXT
  5
499
100
AcDbEntity
  8
0
  6
Continuous
100
AcDbText
 10
-13.96194903465
 20
-13.883805588571
 30
0.0
 40
0.461341058666
  1
MOUNTING
  7
_TCW_TXTSTY_3
100
AcDbText
1001
TCAD
1000
TCW40_TEXT
1002
{
1000
Times New Roman
1070
           0
1070
        1025
1002
}
  0
MTEXT
  5
49A
100
AcDbEntity
  8
0
100
AcDbMText
 10
-13.965802275268
 20
-15.285952740764
 30
0.0
 40
0.461341058666
 41
4.586186015417
 71
           1
 72
           1
  1
REDUCTION\PRATIOS
  7
_TCW_TXTSTY_3
 73
           1
 44
1.0
1001
TCAD
1000
TCW_REFPOINT
1002
{
1010
-13.965802275268
1020
-15.285952740764
1030
0.0
1002
}
1000
TCW40_TEXT
1002
{
1000
Times New Roman
1070
           0
1070
         257
1002
}
  0
TEXT
  5
49B
100
AcDbEntity
  8
0
  6
Continuous
100
AcDbText
 10
14.096793625942
 20
-16.634632887269
 30
0.0
 40
0.835794584213
  1
A6
100
AcDbText
1001
TCAD
1000
TCW40_TEXT
1002
{
1000
romand.shx
1070
           0
1070
        1025
1002
}
  0
LINE
  5
49C
100
AcDbEntity
  8
0
100
AcDbLine
 10
-23.491100428967
 20
-12.320770856156
 30
0.0
 11
-14.896426481399
 21
-12.320770856156
 31
0.0
1001
ACAD
1000
TCW40_DEV_WIDTH
1002
{
1040
-3.0
1002
}
  0
LINE
  5
49D
100
AcDbEntity
  8
0
100
AcDbLine
 10
-23.491100428967
 20
-9.585836579679
 30
0.0
 11
-23.491100428967
 21
-17.389525070663
 31
0.0
1001
ACAD
1000
TCW40_DEV_WIDTH
1002
{
1040
-3.0
1002
}
  0
LINE
  5
49E
100
AcDbEntity
  8
0
100
AcDbLine
 10
-23.491100428967
 20
-10.745684274809
 30
0.0
 11
-14.896426481399
 21
-10.745684274809
 31
0.0
1001
ACAD
1000
TCW40_DEV_WIDTH
1002
{
1040
-3.0
1002
}
  0
LINE
  5
49F
100
AcDbEntity
  8
0
100
AcDbLine
 10
-23.491100428967
 20
-13.512605339302
 30
0.0
 11
-14.896426481399
 21
-13.512605339302
 31
0.0
1001
ACAD
1000
TCW40_DEV_WIDTH
1002
{
1040
-3.0
1002
}
  0
LINE
  5
4A0
100
AcDbEntity
  8
0
100
AcDbLine
 10
-23.491100428967
 20
-15.234245022261
 30
0.0
 11
-14.896426481399
 21
-15.234245022261
 31
0.0
1001
ACAD
1000
TCW40_DEV_WIDTH
1002
{
1040
-3.0
1002
}
  0
LINE
  5
4A1
100
AcDbEntity
  8
0
100
AcDbLine
 10
-18.987626838322
 20
-10.745684274809
 30
0.0
 11
-18.987626838322
 21
-17.389525070663
 31
0.0
1001
ACAD
1000
TCW40_DEV_WIDTH
1002
{
1040
-3.0
1002
}
  0
TEXT
  5
4A2
100
AcDbEntity
  8
0
  6
Continuous
100
AcDbText
 10
-23.20376670689
 20
-11.16878670786
 30
0.0
 40
0.224505141377
  1
HANDWHEEL
  7
_TCW_TXTSTY_3
100
AcDbText
1001
TCAD
1000
TCW40_TEXT
1002
{
1000
Times New Roman
1070
           0
1070
        1025
1002
}
  0
TEXT
  5
4A3
100
AcDbEntity
  8
0
  6
Continuous
100
AcDbText
 10
-23.20376670689
 20
-11.532271236832
 30
0.0
 40
0.224505141377
  1
REVOLUTIONS
  7
_TCW_TXTSTY_3
100
AcDbText
1001
TCAD
1000
TCW40_TEXT
1002
{
1000
Times New Roman
1070
           0
1070
        1025
1002
}
  0
TEXT
  5
4A4
100
AcDbEntity
  8
0
  6
Continuous
100
AcDbText
 10
-18.720662240459
 20
-11.205063571797
 30
0.0
 40
0.224505141377
  1
WEIGHT
  7
_TCW_TXTSTY_3
100
AcDbText
1001
TCAD
1000
TCW40_TEXT
1002
{
1000
Times New Roman
1070
           0
1070
        1025
1002
}
  0
TEXT
  5
4A5
100
AcDbEntity
  8
0
  6
Continuous
100
AcDbText
 10
-18.70251208355
 20
-13.055182146526
 30
0.0
 40
0.224505141377
  1
REDUCTION SECTION
  7
_TCW_TXTSTY_3
100
AcDbText
1001
TCAD
1000
TCW40_TEXT
1002
{
1000
Times New Roman
1070
           0
1070
        1025
1002
}
  0
TEXT
  5
4A6
100
AcDbEntity
  8
0
  6
Continuous
100
AcDbText
 10
-23.040414845853
 20
-13.073320578495
 30
0.0
 40
0.224505141377
  1
VER.SPEED SECTION
  7
_TCW_TXTSTY_3
100
AcDbText
1001
TCAD
1000
TCW40_TEXT
1002
{
1000
Times New Roman
1070
           0
1070
        1025
1002
}
  0
TEXT
  5
4A7
100
AcDbEntity
  8
0
  6
Continuous
100
AcDbText
 10
-18.754744035824
 20
-13.962102934373
 30
0.0
 40
0.224505141377
  1
RATIO
  7
_TCW_TXTSTY_3
100
AcDbText
1001
TCAD
1000
TCW40_TEXT
1002
{
1000
Times New Roman
1070
           0
1070
        1025
1002
}
  0
TEXT
  5
4A8
100
AcDbEntity
  8
0
  6
Continuous
100
AcDbText
 10
-18.775112935613
 20
-15.66711418845
 30
0.0
 40
0.224505141377
  1
LUBRICATION
  7
_TCW_TXTSTY_3
100
AcDbText
1001
TCAD
1000
TCW40_TEXT
1002
{
1000
Times New Roman
1070
           0
1070
        1025
1002
}
  0
TEXT
  5
4A9
100
AcDbEntity
  8
0
  6
Continuous
100
AcDbText
 10
-23.221917088225
 20
-15.66711418845
 30
0.0
 40
0.224505141377
  1
LUBRICATION
  7
_TCW_TXTSTY_3
100
AcDbText
1001
TCAD
1000
TCW40_TEXT
1002
{
1000
Times New Roman
1070
           0
1070
        1025
1002
}
  0
TEXT
  5
4AA
100
AcDbEntity
  8
0
  6
Continuous
100
AcDbText
 10
-18.754744035824
 20
-16.954941777444
 30
0.0
 40
0.224505141377
  1
QTY.
  7
_TCW_TXTSTY_3
100
AcDbText
1001
TCAD
1000
TCW40_TEXT
1002
{
1000
Times New Roman
1070
           0
1070
        1025
1002
}
  0
TEXT
  5
4AB
100
AcDbEntity
  8
0
  6
Continuous
100
AcDbText
 10
-18.347619559244
 20
-12.007585687574
 30
0.0
 40
0.507075008269
  1
20 lbs.
100
AcDbText
1001
TCAD
1000
TCW40_TEXT
1002
{
1000
romand.shx
1070
           0
1070
        1025
1002
}
  0
TEXT
  5
4AC
100
AcDbEntity
  8
0
  6
Continuous
100
AcDbText
 10
-18.277825190487
 20
-14.820830957264
 30
0.0
 40
0.507074971353
  1
   : 1
100
AcDbText
1001
TCAD
1000
TCW40_TEXT
1002
{
1000
romand.shx
1070
           0
1070
        1025
1002
}
  0
TEXT
  5
4AD
100
AcDbEntity
  8
0
  6
Continuous
100
AcDbText
 10
-18.858423231999
 20
-16.297854550842
 30
0.0
 40
0.30645801175
  1
NLGI #0 grease
100
AcDbText
1001
TCAD
1000
TCW40_TEXT
1002
{
1000
romand.shx
1070
           0
1070
        1025
1002
}
  0
TEXT
  5
4AE
100
AcDbEntity
  8
0
  6
Continuous
100
AcDbText
 10
-17.496282967496
 20
-17.070329941072
 30
0.0
 40
0.390037462788
  1
5 oz
100
AcDbText
1001
TCAD
1000
TCW40_TEXT
1002
{
1000
romand.shx
1070
           0
1070
        1025
1002
}
  0
LINE
  5
4AF
100
AcDbEntity
  8
0
100
AcDbLine
 10
9.372178271598
 20
-9.544436755401
 30
0.0
 11
9.372178271598
 21
-17.309986133848
 31
0.0
1001
ACAD
1000
TCW40_DEV_WIDTH
1002
{
1040
-3.0
1002
}
  0
TEXT
  5
4B0
100
AcDbEntity
  8
0
  6
Continuous
100
AcDbText
 10
-8.520669434019
 20
-11.972124594378
 30
0.0
 40
0.507074971353
  1
103, 105, 107
100
AcDbText
1001
TCAD
1000
TCW40_TEXT
1002
{
1000
romand.shx
1070
           0
1070
        1025
1002
}
  0
TEXT
  5
4B1
100
AcDbEntity
  8
0
  6
Continuous
100
AcDbText
 10
-8.454778719849
 20
-13.905047732247
 30
0.0
 40
0.507074971353
  1
Flange
100
AcDbText
1001
TCAD
1000
TCW40_TEXT
1002
{
1000
romand.shx
1070
           0
1070
        1025
1002
}
  0
LINE
  5
4B2
100
AcDbEntity
  8
0
100
AcDbLine
 10
1.861559046059
 20
-15.092788990855
 30
0.0
 11
9.372178271598
 21
-15.092788990855
 31
0.0
1001
ACAD
1000
TCW40_DEV_WIDTH
1002
{
1040
-3.0
1002
}
  0
LINE
  5
4B3
100
AcDbEntity
  8
0
100
AcDbLine
 10
1.861559046059
 20
-13.914583284737
 30
0.0
 11
9.372178271598
 21
-13.914583284737
 31
0.0
1001
ACAD
1000
TCW40_DEV_WIDTH
1002
{
1040
-3.0
1002
}
  0
LINE
  5
4B4
100
AcDbEntity
  8
0
100
AcDbLine
 10
1.861559046059
 20
-12.485914146799
 30
0.0
 11
9.372178271598
 21
-12.485914146799
 31
0.0
1001
ACAD
1000
TCW40_DEV_WIDTH
1002
{
1040
-3.0
1002
}
  0
LINE
  5
4B5
100
AcDbEntity
  8
0
100
AcDbLine
 10
1.861559046059
 20
-11.057245008862
 30
0.0
 11
9.372178271598
 21
-11.057245008862
 31
0.0
1001
ACAD
1000
TCW40_DEV_WIDTH
1002
{
1040
-3.0
1002
}
  0
LINE
  5
4B6
100
AcDbEntity
  8
0
100
AcDbLine
 10
5.211079084603
 20
-9.544436755401
 30
0.0
 11
5.211079084603
 21
-13.914583284737
 31
0.0
1001
ACAD
1000
TCW40_DEV_WIDTH
1002
{
1040
-3.0
1002
}
  0
TEXT
  5
4B7
100
AcDbEntity
  8
0
  6
Continuous
100
AcDbText
 10
5.482296954933
 20
-10.003895456279
 30
0.0
 40
0.224505141377
  1
APPROVED BY
  7
_TCW_TXTSTY_3
100
AcDbText
1001
TCAD
1000
TCW40_TEXT
1002
{
1000
Times New Roman
1070
           0
1070
        1025
1002
}
  0
TEXT
  5
4B8
100
AcDbEntity
  8
0
  6
Continuous
100
AcDbText
 10
5.482296954933
 20
-11.44224858378
 30
0.0
 40
0.224505141377
  1
CHECKED BY
  7
_TCW_TXTSTY_3
100
AcDbText
1001
TCAD
1000
TCW40_TEXT
1002
{
1000
Times New Roman
1070
           0
1070
        1025
1002
}
  0
TEXT
  5
4B9
100
AcDbEntity
  8
0
  6
Continuous
100
AcDbText
 10
5.482296954933
 20
-12.870917721718
 30
0.0
 40
0.224505141377
  1
DRAWN BY
  7
_TCW_TXTSTY_3
100
AcDbText
1001
TCAD
1000
TCW40_TEXT
1002
{
1000
Times New Roman
1070
           0
1070
        1025
1002
}
  0
TEXT
  5
4BA
100
AcDbEntity
  8
0
  6
Continuous
100
AcDbText
 10
3.023380414456
 20
-12.16481757465
 30
0.0
 40
0.507074971353
  1
1:1
100
AcDbText
1001
TCAD
1000
TCW40_TEXT
1002
{
1000
romand.shx
1070
           0
1070
        1025
1002
}
  0
TEXT
  5
4BB
100
AcDbEntity
  8
0
  6
Continuous
100
AcDbText
 10
3.66683066233
 20
-14.801080494849
 30
0.0
 40
0.507074971353
  1
11/22/05
100
AcDbText
1001
TCAD
1000
TCW40_TEXT
1002
{
1000
romand.shx
1070
           0
1070
        1025
1002
}
  0
TEXT
  5
4BC
100
AcDbEntity
  8
0
  6
Continuous
100
AcDbText
 10
2.775198760595
 20
-13.621657755743
 30
0.0
 40
0.507074971353
  1
INCH
100
AcDbText
1001
TCAD
1000
TCW40_TEXT
1002
{
1000
romand.shx
1070
           0
1070
        1025
1002
}
  0
LINE
  5
4BD
100
AcDbEntity
  8
0
100
AcDbLine
 10
1.861559046059
 20
-9.544436755401
 30
0.0
 11
1.861559046059
 21
-17.381009332502
 31
0.0
1001
ACAD
1000
TCW40_DEV_WIDTH
1002
{
1040
-3.0
1002
}
  0
LINE
  5
4BE
100
AcDbEntity
  8
0
100
AcDbLine
 10
1.745910925791
 20
-9.544436755401
 30
0.0
 11
1.745910925791
 21
-17.338424826222
 31
0.0
1001
ACAD
1000
TCW40_DEV_WIDTH
1002
{
1040
-3.0
1002
}
  0
TEXT
  5
4BF
100
AcDbEntity
  8
0
  6
Continuous
100
AcDbText
 10
9.768094590627
 20
-15.465926417096
 30
0.0
 40
0.224104961211
  1
DRAWING NO.
  7
_TCW_TXTSTY_3
100
AcDbText
1001
TCAD
1000
TCW40_TEXT
1002
{
1000
Times New Roman
1070
           0
1070
        1025
1002
}
  0
TEXT
  5
4C0
100
AcDbEntity
  8
0
  6
Continuous
100
AcDbText
 10
2.199595943447
 20
-11.457763287742
 30
0.0
 40
0.224505141377
  1
SCALE
  7
_TCW_TXTSTY_3
100
AcDbText
1001
TCAD
1000
TCW40_TEXT
1002
{
1000
Times New Roman
1070
           0
1070
        1025
1002
}
  0
TEXT
  5
4C1
100
AcDbEntity
  8
0
  6
Continuous
100
AcDbText
 10
2.207334235023
 20
-12.861687605307
 30
0.0
 40
0.224505141377
  1
UNITS
  7
_TCW_TXTSTY_3
100
AcDbText
1001
TCAD
1000
TCW40_TEXT
1002
{
1000
Times New Roman
1070
           0
1070
        1025
1002
}
  0
TEXT
  5
4C2
100
AcDbEntity
  8
0
  6
Continuous
100
AcDbText
 10
2.251275311702
 20
-14.316463374266
 30
0.0
 40
0.224505141377
  1
DATE
  7
_TCW_TXTSTY_3
100
AcDbText
1001
TCAD
1000
TCW40_TEXT
1002
{
1000
Times New Roman
1070
           0
1070
        1025
1002
}
  0
TEXT
  5
4C3
100
AcDbEntity
  8
0
  6
Continuous
100
AcDbText
 10
-23.188687680548
 20
-13.956084606668
 30
0.0
 40
0.224505141377
  1
RATIO
  7
_TCW_TXTSTY_3
100
AcDbText
1001
TCAD
1000
TCW40_TEXT
1002
{
1000
Times New Roman
1070
           0
1070
        1025
1002
}
  0
TEXT
  5
4C4
100
AcDbEntity
  8
0
  6
Continuous
100
AcDbText
 10
-23.173329508245
 20
-16.927539576603
 30
0.0
 40
0.224505141377
  1
QTY.
  7
_TCW_TXTSTY_3
100
AcDbText
1001
TCAD
1000
TCW40_TEXT
1002
{
1000
Times New Roman
1070
           0
1070
        1025
1002
}
  0
LINE
  5
4C5
100
AcDbEntity
  8
0
100
AcDbLine
 10
-14.896426481399
 20
-9.544436755401
 30
0.0
 11
-14.896426481399
 21
-17.369700517993
 31
0.0
1001
ACAD
1000
TCW40_DEV_WIDTH
1002
{
1040
-3.0
1002
}
  0
MTEXT
  5
4C6
100
AcDbEntity
  8
0
 62
           7
100
AcDbMText
 10
-8.430434540756
 20
-15.587039688384
 30
0.0
 40
0.507048723775
 41
10.685161590576
 71
           1
 72
           1
  1
11,17,29,35,47,59,71
 73
           1
 44
1.0
1001
TCAD
1000
TCW_REFPOINT
1002
{
1010
-8.430434540756
1020
-15.587039688384
1030
0.0
1002
}
1000
TCW40_TEXT
1002
{
1000
romand.shx
1070
           0
1070
         257
1002
}
  0
LINE
  5
4C7
100
AcDbEntity
  8
0
100
AcDbLine
 10
-9.142715555959
 20
-11.030314746207
 30
0.0
 11
1.745910925791
 21
-11.030314746207
 31
0.0
1001
ACAD
1000
TCW40_DEV_WIDTH
1002
{
1040
-3.0
1002
}
  0
TEXT
  5
4C8
100
AcDbEntity
  8
0
  6
Continuous
100
AcDbText
 10
-8.544310150728
 20
-10.577322308571
 30
0.0
 40
0.507074971353
  1
A03, A05, A07
100
AcDbText
1001
TCAD
1000
TCW40_TEXT
1002
{
1000
romand.shx
1070
           0
1070
        1025
1002
}
  0
TEXT
  5
4C9
100
AcDbEntity
  8
PV-0
  6
Continuous
100
AcDbText
 10
12.64463931651
 20
-13.461245522692
 30
0.0
 40
0.797408185222
  1
Circulute 3000
  7
_TCW_TXTSTY_3
100
AcDbText
1001
TCAD
1000
TCW40_TEXT
1002
{
1000
Times New Roman
1070
           0
1070
        1025
1002
}
  0
ENDSEC
  0
SECTION
  2
OBJECTS
  0
DICTIONARY
  5
19
100
AcDbDictionary
280
           0
281
           1
  3
ACAD_GROUP
350
1A
  3
ACAD_MLINESTYLE
350
1B
  3
ACAD_LAYOUT
350
1E
  3
ACAD_PLOTSETTINGS
350
22
  3
ACAD_PLOTSTYLENAME
350
1F
  0
DICTIONARY
  5
1A
102
{ACAD_REACTORS
330
19
102
}
100
AcDbDictionary
280
           0
281
           1
  0
DICTIONARY
  5
1B
102
{ACAD_REACTORS
330
19
102
}
100
AcDbDictionary
280
           0
281
           1
  3
Standard
350
1C
  0
MLINESTYLE
  5
1C
100
AcDbMlineStyle
  2
STANDARD
 70
           0
  3

 62
         256
 51
90.0
 52
90.0
 71
           2
 49
0.5
 62
         256
  6
ByLayer
 49
-0.5
 62
         256
  6
ByLayer
  0
ACDBDICTIONARYWDFLT
  5
1F
102
{ACAD_REACTORS
330
19
102
}
100
AcDbDictionary
281
           1
  3
Normal
350
1D
100
AcDbDictionaryWithDefault
340
1D
  0
ACDBPLACEHOLDER
  5
1D
102
{ACAD_REACTORS
330
1F
102
}
  0
LAYOUT
  5
21
102
{ACAD_REACTORS
330
1E
102
}
100
AcDbPlotSettings
  1

  2

  4

  6

 40
0.0
 41
0.0
 42
0.0
 43
0.0
 44
0.0
 45
0.0
 46
0.0
 47
0.0
 48
0.0
 49
0.0
140
0.0
141
0.0
142
1.0
143
1.0
 70
           0
 72
           0
 73
           0
 74
           0
  7

 75
           0
147
1.0
148
0.0
149
0.0
100
AcDbLayout
  1
Layout1
 70
           0
 71
           0
 10
0.0
 20
0.0
 11
0.0
 21
0.0
 12
0.0
 22
0.0
 32
0.0
 14
0.0
 24
0.0
 34
0.0
 15
0.0
 25
0.0
 35
0.0
146
0.0
 13
0.0
 23
0.0
 33
0.0
 16
0.0
 26
0.0
 36
0.0
 17
0.0
 27
0.0
 37
0.0
 76
           0
330
B
331
0
345
0
346
0
  0
DICTIONARY
  5
1E
102
{ACAD_REACTORS
330
19
102
}
100
AcDbDictionary
280
           0
281
           1
  3
Model
350
4CA
  3
_PAPER_SPACE
350
4CD
  0
DICTIONARY
  5
22
102
{ACAD_REACTORS
330
19
102
}
100
AcDbDictionary
280
           0
281
           1
  0
LAYOUT
  5
4CA
100
AcDbPlotSettings
  1

  2

  4

  6

 40
0.0
 41
0.0
 42
0.0
 43
0.0
 44
0.0
 45
0.0
 46
0.0
 47
0.0
 48
0.0
 49
0.0
140
0.0
141
0.0
142
1.0
143
1.0
 70
           0
 72
           0
 73
           0
 74
           0
  7

 75
           0
147
1.0
148
0.0
149
0.0
100
AcDbLayout
  1
Model
 70
           0
 71
           0
 10
0.0
 20
0.0
 11
0.0
 21
0.0
 12
0.0
 22
0.0
 32
0.0
 14
0.0
 24
0.0
 34
0.0
 15
0.0
 25
0.0
 35
0.0
146
0.0
 13
0.0
 23
0.0
 33
0.0
 16
0.0
 26
0.0
 36
0.0
 17
0.0
 27
0.0
 37
0.0
 76
           0
330
A
331
0
345
0
346
0
  0
LAYOUT
  5
4CD
100
AcDbPlotSettings
  1

  2
none_device
  4

  6

 40
0.0
 41
0.0
 42
0.0
 43
0.0
 44
279.399912484328
 45
215.899932375062
 46
26.214881589837
 47
26.384243731587
 48
0.0
 49
0.0
140
0.0
141
0.0
142
1.0
143
1.136364
 70
           0
 72
           0
 73
           0
 74
           0
  7

 75
           0
147
1.0
148
0.0
149
0.0
100
AcDbLayout
  1
_PAPER_SPACE
 70
           1
 71
           1
 10
-26.214881589837
 20
-26.384243731587
 11
253.185030894491
 21
189.515688643475
 12
0.0
 22
0.0
 32
0.0
 14
0.0
 24
0.0
 34
0.0
 15
0.0
 25
0.0
 35
0.0
146
0.0
 13
0.0
 23
0.0
 33
0.0
 16
0.0
 26
0.0
 36
0.0
 17
0.0
 27
0.0
 37
0.0
 76
           0
330
B
331
4CB
345
0
346
0
  0
ENDSEC
  0
EOF
