  0
SECTION
  2
HEADER
  9
$ACADVER
  1
AC1015
  9
$ACADMAINTVER
 70
           6
  9
$DWGCODEPAGE
  3
ANSI_1252
  9
$INSBASE
 10
0.0
 20
0.0
 30
0.0
  9
$EXTMIN
 10
-31.664960465163
 20
-23.385764797195
 30
-0.0
  9
$EXTMAX
 10
31.664960465163
 20
23.385764797195
 30
0.0
  9
$LIMMIN
 10
-31.664960465163
 20
-23.385764797195
  9
$LIMMAX
 10
31.664960465163
 20
23.385764797195
  9
$ORTHOMODE
 70
           0
  9
$REGENMODE
 70
           1
  9
$FILLMODE
 70
           1
  9
$QTEXTMODE
 70
           0
  9
$MIRRTEXT
 70
           1
  9
$LTSCALE
 40
1.0
  9
$ATTMODE
 70
           1
  9
$TEXTSIZE
 40
0.3229166567
  9
$TRACEWID
 40
0.05
  9
$TEXTSTYLE
  7
STANDARD
  9
$CLAYER
  8
0
  9
$CELTYPE
  6
Continuous
  9
$CECOLOR
 62
           7
  9
$CELTSCALE
 40
1.0
  9
$DISPSILH
 70
           0
  9
$DIMSCALE
 40
1.0
  9
$DIMASZ
 40
0.18
  9
$DIMEXO
 40
0.0625
  9
$DIMDLI
 40
0.38
  9
$DIMRND
 40
0.0000001
  9
$DIMDLE
 40
0.0
  9
$DIMEXE
 40
0.18
  9
$DIMTP
 40
0.0
  9
$DIMTM
 40
0.0
  9
$DIMTXT
 40
0.185806451613
  9
$DIMCEN
 40
0.09
  9
$DIMTSZ
 40
0.0
  9
$DIMTOL
 70
           0
  9
$DIMLIM
 70
           0
  9
$DIMTIH
 70
           1
  9
$DIMTOH
 70
           1
  9
$DIMSE1
 70
           0
  9
$DIMSE2
 70
           0
  9
$DIMTAD
 70
           0
  9
$DIMZIN
 70
           0
  9
$DIMBLK
  1

  9
$DIMASO
 70
           0
  9
$DIMSHO
 70
           1
  9
$DIMPOST
  1

  9
$DIMAPOST
  1

  9
$DIMALT
 70
           0
  9
$DIMALTD
 70
           2
  9
$DIMALTF
 40
25.4
  9
$DIMLFAC
 40
1.0
  9
$DIMTOFL
 70
           0
  9
$DIMTVP
 40
0.0
  9
$DIMTIX
 70
           0
  9
$DIMSOXD
 70
           0
  9
$DIMSAH
 70
           0
  9
$DIMBLK1
  1

  9
$DIMBLK2
  1

  9
$DIMSTYLE
  2
STANDARD
  9
$DIMCLRD
 70
           0
  9
$DIMCLRE
 70
           0
  9
$DIMCLRT
 70
           0
  9
$DIMTFAC
 40
1.0
  9
$DIMGAP
 40
0.09
  9
$DIMJUST
 70
           0
  9
$DIMSD1
 70
           0
  9
$DIMSD2
 70
           0
  9
$DIMTOLJ
 70
           1
  9
$DIMTZIN
 70
           0
  9
$DIMALTZ
 70
           0
  9
$DIMALTTZ
 70
           0
  9
$DIMUPT
 70
           0
  9
$DIMDEC
 70
           4
  9
$DIMTDEC
 70
           4
  9
$DIMALTU
 70
           2
  9
$DIMALTTD
 70
           2
  9
$DIMTXSTY
  7
STANDARD
  9
$DIMAUNIT
 70
           0
  9
$DIMADEC
 70
           4
  9
$DIMALTRND
 40
0.0
  9
$DIMAZIN
 70
           0
  9
$DIMDSEP
 70
           0
  9
$DIMATFIT
 70
           0
  9
$DIMFRAC
 70
           0
  9
$DIMLDRBLK
  1

  9
$DIMLUNIT
 70
           2
  9
$DIMLWD
 70
           0
  9
$DIMLWE
 70
           0
  9
$DIMTMOVE
 70
           0
  9
$LUNITS
 70
           2
  9
$LUPREC
 70
           4
  9
$SKETCHINC
 40
0.1
  9
$FILLETRAD
 40
0.5
  9
$AUNITS
 70
           0
  9
$AUPREC
 70
           0
  9
$MENU
  1
acad
  9
$ELEVATION
 40
0.0
  9
$PELEVATION
 40
0.0
  9
$THICKNESS
 40
0.0
  9
$LIMCHECK
 70
           0
  9
$CHAMFERA
 40
0.0
  9
$CHAMFERB
 40
0.0
  9
$CHAMFERC
 40
0.0
  9
$CHAMFERD
 40
0.0
  9
$SKPOLY
 70
           0
  9
$TDCREATE
 40
0.000000000
  9
$TDUCREATE
 40
0.000000000
  9
$TDUPDATE
 40
2451621.153704861
  9
$TDUUPDATE
 40
0.000000000
  9
$TDINDWG
 40
0.4995559838
  9
$TDUSRTIMER
 40
0.4995559838
  9
$USRTIMER
 70
           1
  9
$ANGBASE
 50
0.0
  9
$ANGDIR
 70
           1
  9
$PDMODE
 70
           0
  9
$PDSIZE
 40
0.0
  9
$PLINEWID
 40
0.0
  9
$SPLFRAME
 70
           0
  9
$SPLINETYPE
 70
           6
  9
$SPLINESEGS
 70
           8
  9
$HANDSEED
  5
561
  9
$SURFTAB1
 70
           6
  9
$SURFTAB2
 70
           6
  9
$SURFTYPE
 70
           6
  9
$SURFU
 70
           6
  9
$SURFV
 70
           6
  9
$UCSBASE
  2

  9
$UCSNAME
  2

  9
$UCSORG
 10
0.0
 20
0.0
 30
0.0
  9
$UCSXDIR
 10
1.0
 20
0.0
 30
0.0
  9
$UCSYDIR
 10
0.0
 20
1.0
 30
0.0
  9
$UCSORTHOREF
  2

  9
$UCSORTHOVIEW
 70
           0
  9
$UCSORGTOP
 10
0.0
 20
0.0
 30
0.0
  9
$UCSORGBOTTOM
 10
0.0
 20
0.0
 30
0.0
  9
$UCSORGLEFT
 10
0.0
 20
0.0
 30
0.0
  9
$UCSORGRIGHT
 10
0.0
 20
0.0
 30
0.0
  9
$UCSORGFRONT
 10
0.0
 20
0.0
 30
0.0
  9
$UCSORGBACK
 10
0.0
 20
0.0
 30
0.0
  9
$PUCSBASE
  2

  9
$PUCSNAME
  2

  9
$PUCSORG
 10
0.0
 20
0.0
 30
0.0
  9
$PUCSXDIR
 10
1.0
 20
0.0
 30
0.0
  9
$PUCSYDIR
 10
0.0
 20
1.0
 30
0.0
  9
$PUCSORTHOREF
  2

  9
$PUCSORTHOVIEW
 70
           0
  9
$PUCSORGTOP
 10
0.0
 20
0.0
 30
0.0
  9
$PUCSORGBOTTOM
 10
0.0
 20
0.0
 30
0.0
  9
$PUCSORGLEFT
 10
0.0
 20
0.0
 30
0.0
  9
$PUCSORGRIGHT
 10
0.0
 20
0.0
 30
0.0
  9
$PUCSORGFRONT
 10
0.0
 20
0.0
 30
0.0
  9
$PUCSORGBACK
 10
0.0
 20
0.0
 30
0.0
  9
$USERI1
 70
           0
  9
$USERI2
 70
           0
  9
$USERI3
 70
           0
  9
$USERI4
 70
           0
  9
$USERI5
 70
           0
  9
$USERR1
 40
0.0
  9
$USERR2
 40
0.0
  9
$USERR3
 40
0.0
  9
$USERR4
 40
0.0
  9
$USERR5
 40
0.0
  9
$WORLDVIEW
 70
           1
  9
$SHADEDGE
 70
           3
  9
$SHADEDIF
 70
          70
  9
$TILEMODE
 70
           1
  9
$MAXACTVP
 70
          16
  9
$PINSBASE
 10
0.0
 20
0.0
 30
0.0
  9
$PLIMCHECK
 70
           0
  9
$PEXTMIN
 10
-1.172820775707
 20
-1.180397824559
 30
0.0
  9
$PEXTMAX
 10
11.327179308952
 20
8.478693149986
 30
0.0
  9
$PLIMMIN
 10
-1.172820775707
 20
-1.180397824559
  9
$PLIMMAX
 10
11.327179308952
 20
8.478693149986
  9
$UNITMODE
 70
           0
  9
$VISRETAIN
 70
           0
  9
$PLINEGEN
 70
           1
  9
$PSLTSCALE
 70
           1
  9
$TREEDEPTH
 70
        3020
  9
$CMLSTYLE
  2
STANDARD
  9
$CMLJUST
 70
           0
  9
$CMLSCALE
 40
1.0
  9
$PROXYGRAPHICS
 70
           0
  9
$MEASUREMENT
 70
           0
  9
$CELWEIGHT
370
           0
  9
$ENDCAPS
280
           0
  9
$JOINSTYLE
280
           0
  9
$LWDISPLAY
290
           0
  9
$INSUNITS
 70
           0
  9
$HYPERLINKBASE
  1

  9
$STYLESHEET
  1

  9
$XEDIT
290
           1
  9
$CEPSNTYPE
380
           0
  9
$PSTYLEMODE
290
           1
  9
$FINGERPRINTGUID
  2

  9
$VERSIONGUID
  2

  9
$EXTNAMES
290
           1
  9
$PSVPSCALE
 40
0.0
  0
ENDSEC
  0
SECTION
  2
CLASSES
  0
CLASS
  1
LWPOLYLINE
  2
AcDbPolyline
  3
AutoCAD 2000
 90
        0
280
           0
281
           1
  0
CLASS
  1
IMAGE
  2
AcDbRasterImage
  3
ISM
 90
    32895
280
           0
281
           1
  0
CLASS
  1
OLE2FRAME
  2
AcDbOle2Frame
  3
AutoCAD 2000
 90
    32768
280
           0
281
           1
  0
CLASS
  1
HATCH
  2
AcDbHatch
  3
AutoCAD 2000
 90
        0
280
           0
281
           1
  0
CLASS
  1
DICTIONARYVAR
  2
AcDbDictionaryVar
  3
AutoCAD 2000
 90
    32768
280
           0
281
           0
  0
CLASS
  1
RASTERVARIABLES
  2
AcDbRasterVariables
  3
ISM
 90
    32768
280
           0
281
           0
  0
CLASS
  1
IMAGEDEF
  2
AcDbRasterImageDef
  3
ISM
 90
    32768
280
           0
281
           0
  0
CLASS
  1
IMAGEDEF_REACTOR
  2
AcDbRasterImageDefReactor
  3
ISM
 90
    32769
280
           0
281
           0
  0
CLASS
  1
IDBUFFER
  2
AcDbIdBuffer
  3
AutoCAD 2000
 90
    32768
280
           0
281
           0
  0
CLASS
  1
SPATIAL_FILTER
  2
AcDbSpatialFilter
  3
AutoCAD 2000
 90
    32768
280
           0
281
           0
  0
CLASS
  1
XRECORD
  2
AcDbXrecord
  3
AutoCAD 2000
 90
    32768
280
           0
281
           0
  0
CLASS
  1
SORTENTSTABLE
  2
AcDbSortentsTable
  3
AutoCAD 2000
 90
    32768
280
           0
281
           0
  0
CLASS
  1
LAYER_INDEX
  2
AcDbLayerIndex
  3
AutoCAD 2000
 90
    32768
280
           0
281
           0
  0
CLASS
  1
SPATIAL_INDEX
  2
AcDbSpatialIndex
  3
AutoCAD 2000
 90
    32768
280
           0
281
           0
  0
CLASS
  1
OBJECT_PTR
  2
CAseDLPNTableRecord
  3
"ASE-LPNTableRecord"
 90
    32769
280
           0
281
           0
  0
CLASS
  1
LAYOUT
  2
AcDbLayout
  3
AutoCAD 2000
 90
        0
280
           0
281
           0
  0
CLASS
  1
PLOTSETTINGS
  2
AcDbPlotSettings
  3
AutoCAD 2000
 90
    32768
280
           0
281
           0
  0
CLASS
  1
ACDBDICTIONARYWDFLT
  2
AcDbDictionaryWithDefault
  3
AutoCAD 2000
 90
        0
280
           0
281
           0
  0
CLASS
  1
ACDBPLACEHOLDER
  2
AcDbPlaceHolder
  3
AutoCAD 2000
 90
        0
280
           0
281
           0
  0
ENDSEC
  0
SECTION
  2
TABLES
  0
TABLE
  2
VPORT
  5
7
100
AcDbSymbolTable
 70
           1
  0
VPORT
  5
15
100
AcDbSymbolTableRecord
100
AcDbViewportTableRecord
  2
*ACTIVE
 70
           0
 10
0.0
 20
0.0
 11
1.0
 21
1.0
 12
0.0
 22
0.0
 13
0.0
 23
0.0
 14
0.05
 24
0.05
 15
0.05
 25
0.05
 16
0.0
 26
0.0
 36
1.0
 17
0.0
 27
0.0
 37
3.0
 40
47.706960186278
 41
1.911704312115
 42
50.0
 43
0.0
 44
0.0
 50
0.0
 51
0.0
 71
           0
 72
         100
 73
           1
 74
           1
 75
           0
 76
           1
 77
           0
 78
           0
281
           0
 65
           0
110
0.0
120
0.0
130
0.0
111
1.0
121
0.0
131
0.0
112
0.0
122
1.0
132
0.0
345
0
346
0
 79
           0
146
0.0
  0
ENDTAB
  0
TABLE
  2
LTYPE
  5
4
100
AcDbSymbolTable
 70
          14
  0
LTYPE
  5
11
100
AcDbSymbolTableRecord
100
AcDbLinetypeTableRecord
  2
ByBlock
 70
          64
  3

 72
          65
 73
           0
 40
0.0
  0
LTYPE
  5
12
100
AcDbSymbolTableRecord
100
AcDbLinetypeTableRecord
  2
ByLayer
 70
          64
  3

 72
          65
 73
           0
 40
0.0
  0
LTYPE
  5
13
100
AcDbSymbolTableRecord
100
AcDbLinetypeTableRecord
  2
Continuous
 70
          64
  3
Solid line
 72
          65
 73
           0
 40
0.0
  0
LTYPE
  5
24
100
AcDbSymbolTableRecord
100
AcDbLinetypeTableRecord
  2
BORDER
 70
           0
  3
BORDER
 72
          65
 73
           6
 40
1.75
 49
0.5
 74
           0
 49
-0.25
 74
           0
 49
0.5
 74
           0
 49
-0.25
 74
           0
 49
0.0
 74
           0
 49
-0.25
 74
           0
  0
LTYPE
  5
25
100
AcDbSymbolTableRecord
100
AcDbLinetypeTableRecord
  2
CENTER
 70
           0
  3
CENTER
 72
          65
 73
           4
 40
19.4
 49
13.0
 74
           0
 49
-2.1
 74
           0
 49
2.2
 74
           0
 49
-2.1
 74
           0
  0
LTYPE
  5
26
100
AcDbSymbolTableRecord
100
AcDbLinetypeTableRecord
  2
DASHDOT
 70
           0
  3
DASHDOT
 72
          65
 73
           4
 40
1.0
 49
0.5
 74
           0
 49
-0.25
 74
           0
 49
0.0
 74
           0
 49
-0.25
 74
           0
  0
LTYPE
  5
27
100
AcDbSymbolTableRecord
100
AcDbLinetypeTableRecord
  2
DASHED
 70
           0
  3
DASHED
 72
          65
 73
           2
 40
2.2
 49
1.3
 74
           0
 49
-0.9
 74
           0
  0
LTYPE
  5
28
100
AcDbSymbolTableRecord
100
AcDbLinetypeTableRecord
  2
DIVIDE
 70
           0
  3
DIVIDE
 72
          65
 73
           6
 40
1.25
 49
0.5
 74
           0
 49
-0.25
 74
           0
 49
0.0
 74
           0
 49
-0.25
 74
           0
 49
0.0
 74
           0
 49
-0.25
 74
           0
  0
LTYPE
  5
29
100
AcDbSymbolTableRecord
100
AcDbLinetypeTableRecord
  2
DOT
 70
           0
  3
DOT
 72
          65
 73
           2
 40
0.25
 49
0.0
 74
           0
 49
-0.25
 74
           0
  0
LTYPE
  5
2A
100
AcDbSymbolTableRecord
100
AcDbLinetypeTableRecord
  2
HIDDEN
 70
           0
  3
HIDDEN
 72
          65
 73
           2
 40
0.375
 49
0.25
 74
           0
 49
-0.125
 74
           0
  0
LTYPE
  5
2B
100
AcDbSymbolTableRecord
100
AcDbLinetypeTableRecord
  2
PHANTOM
 70
           0
  3
PHANTOM
 72
          65
 73
           6
 40
2.5
 49
1.25
 74
           0
 49
-0.25
 74
           0
 49
0.25
 74
           0
 49
-0.25
 74
           0
 49
0.25
 74
           0
 49
-0.25
 74
           0
  0
LTYPE
  5
2C
100
AcDbSymbolTableRecord
100
AcDbLinetypeTableRecord
  2
$INVISIBLE
 70
           0
  3
$INVISIBLE
 72
          65
 73
           2
 40
200.0
 49
-100.0
 74
           0
 49
-100.0
 74
           0
  0
LTYPE
  5
2D
100
AcDbSymbolTableRecord
100
AcDbLinetypeTableRecord
  2
$SNAPEXT
 70
           0
  3
$SNAPEXT
 72
          65
 73
           2
 40
0.04
 49
0.02
 74
           0
 49
-0.02
 74
           0
  0
LTYPE
  5
2E
100
AcDbSymbolTableRecord
100
AcDbLinetypeTableRecord
  2
$AUXILIARY
 70
           0
  3
$AUXILIARY
 72
          65
 73
           2
 40
0.1
 49
0.05
 74
           0
 49
-0.05
 74
           0
  0
ENDTAB
  0
TABLE
  2
LAYER
  5
2
100
AcDbSymbolTable
 70
           4
  0
LAYER
  5
14
100
AcDbSymbolTableRecord
100
AcDbLayerTableRecord
  2
0
 70
           0
 62
           7
  6
Continuous
290
           1
370
           0
390
0
1001
TCAD
1000
TCW_LAYER_ORDER
1002
{
1071
        0
1002
}
  0
LAYER
  5
2F
100
AcDbSymbolTableRecord
100
AcDbLayerTableRecord
  2
PV-0
 70
           0
 62
           7
  6
Continuous
290
           1
370
           0
390
0
1001
TCAD
1000
TCW_LAYER_ORDER
1002
{
1071
        0
1002
}
  0
LAYER
  5
30
100
AcDbSymbolTableRecord
100
AcDbLayerTableRecord
  2
DEFPOINTS
 70
           0
 62
           7
  6
Continuous
290
           0
370
           0
390
0
1001
TCAD
1000
TCW_LAYER_ORDER
1002
{
1071
        0
1002
}
  0
LAYER
  5
31
100
AcDbSymbolTableRecord
100
AcDbLayerTableRecord
  2
1
 70
           0
 62
           7
  6
Continuous
290
           1
370
           0
390
0
1001
TCAD
1000
TCW_LAYER_ORDER
1002
{
1071
        0
1002
}
  0
ENDTAB
  0
TABLE
  2
STYLE
  5
3
100
AcDbSymbolTable
 70
           5
  0
STYLE
  5
17
100
AcDbSymbolTableRecord
100
AcDbTextStyleTableRecord
  2
STANDARD
 70
           0
 40
0.0
 41
1.0
 50
0.0
 71
           0
 42
0.20000000298
  3
ROMAND.SHX
  4

  0
STYLE
  5
36
100
AcDbSymbolTableRecord
100
AcDbTextStyleTableRecord
  2
ATTR
 70
           0
 40
0.008020019159
 41
1.0
 50
0.0
 71
           0
 42
0.20000000298
  3
ROMAND.SHX
  4

  0
STYLE
  5
1E3
100
AcDbSymbolTableRecord
100
AcDbTextStyleTableRecord
  2
_TCW_TXTSTY_1
 70
           0
 40
0.0
 41
1.0
 50
0.0
 71
           0
 42
0.2
  3
ROMANS.SHX
  4

  0
STYLE
  5
268
100
AcDbSymbolTableRecord
100
AcDbTextStyleTableRecord
  2
_TCW_TXTSTY_2
 70
           0
 40
0.0
 41
1.0
 50
0.0
 71
           0
 42
0.2
  3
TXT.SHX
  4

  0
STYLE
  5
4B7
100
AcDbSymbolTableRecord
100
AcDbTextStyleTableRecord
  2
_TCW_TXTSTY_3
 70
           0
 40
0.0
 41
1.0
 50
0.0
 71
           0
 42
0.301955491304
  3
TIMES.TTF
  4

1001
ACAD
1000
Times New Roman
1071
      290
  0
ENDTAB
  0
TABLE
  2
VIEW
  5
5
100
AcDbSymbolTable
 70
           4
  0
VIEW
  5
32
100
AcDbSymbolTableRecord
100
AcDbViewTableRecord
  2
View_0
 70
           0
 40
8.267716535433
 10
5.846456692913
 20
4.133858267717
 41
11.692913385827
 11
0.0
 21
0.0
 31
1.0
 12
0.0
 22
0.0
 32
0.0
 42
45.247172312671
 43
0.0
 44
0.0
 50
0.0
 71
           0
281
           0
 72
           0
110
0.0
120
0.0
130
0.0
111
1.0
121
0.0
131
0.0
112
0.0
122
1.0
132
0.0
  0
VIEW
  5
33
100
AcDbSymbolTableRecord
100
AcDbViewTableRecord
  2
View_1
 70
           0
 40
92.164911746979
 10
149.583045959473
 20
39.027971982956
 41
121.657699584961
 11
0.0
 21
0.0
 31
1.0
 12
0.0
 22
0.0
 32
0.0
 42
96.321836770587
 43
0.0
 44
0.0
 50
0.0
 71
           0
281
           0
 72
           0
110
0.0
120
0.0
130
0.0
111
1.0
121
0.0
131
0.0
112
0.0
122
1.0
132
0.0
  0
VIEW
  5
34
100
AcDbSymbolTableRecord
100
AcDbViewTableRecord
  2
OLE1
 70
           0
 40
3.485294342041
 10
9.612509012222
 20
4.419694423676
 41
5.789809703827
 11
0.0
 21
0.0
 31
1.0
 12
0.0
 22
0.0
 32
0.0
 42
82.265564008146
 43
0.0
 44
0.0
 50
0.0
 71
           0
281
           0
 72
           0
110
0.0
120
0.0
130
0.0
111
1.0
121
0.0
131
0.0
112
0.0
122
1.0
132
0.0
  0
VIEW
  5
35
100
AcDbSymbolTableRecord
100
AcDbViewTableRecord
  2
View_3
 70
           0
 40
94.793879834024
 10
149.583045959473
 20
39.027971982956
 41
121.657699584961
 11
0.0
 21
0.0
 31
1.0
 12
0.0
 22
0.0
 32
0.0
 42
98.040483136436
 43
0.0
 44
0.0
 50
0.0
 71
           0
281
           0
 72
           0
110
0.0
120
0.0
130
0.0
111
1.0
121
0.0
131
0.0
112
0.0
122
1.0
132
0.0
  0
ENDTAB
  0
TABLE
  2
UCS
  5
6
100
AcDbSymbolTable
 70
           1
  0
UCS
  5
37
100
AcDbSymbolTableRecord
100
AcDbUCSTableRecord
  2
CK_VIEW_1
 70
           0
 10
0.0
 20
0.0
 30
1.0
 11
1.0
 21
0.0
 31
0.0
 12
0.0
 22
1.0
 32
0.0
 79
           0
146
0.0
  0
ENDTAB
  0
TABLE
  2
APPID
  5
8
100
AcDbSymbolTable
 70
           2
  0
APPID
  5
16
100
AcDbSymbolTableRecord
100
AcDbRegAppTableRecord
  2
ACAD
 70
           0
  0
APPID
  5
23
100
AcDbSymbolTableRecord
100
AcDbRegAppTableRecord
  2
TCAD
 70
           0
  0
ENDTAB
  0
TABLE
  2
DIMSTYLE
  5
9
100
AcDbSymbolTable
 70
           1
100
AcDbDimStyleTable
 71
           0
  0
DIMSTYLE
105
18
100
AcDbSymbolTableRecord
100
AcDbDimStyleTableRecord
  2
STANDARD
 70
           0
  3

  4

 40
1.0
 41
0.18
 42
0.0625
 43
0.38
 44
0.18
 45
0.0000001
 46
0.0
 47
0.0
 48
0.0
 71
           0
 72
           0
 73
           1
 74
           1
 75
           0
 76
           0
 77
           0
 78
           0
 79
           0
140
0.185806451613
141
0.09
142
0.0
143
25.4
144
1.0
145
0.0
146
1.0
147
0.09
148
0.0000001
170
           0
171
           2
172
           0
173
           0
174
           0
175
           0
176
           0
177
           0
178
           0
179
           4
271
           4
272
           4
273
           2
274
           2
275
           0
276
           0
277
           2
278
          46
279
           0
280
           0
281
           0
282
           0
283
           1
284
           0
285
           0
286
           0
288
           0
340
17
341
0
342
0
343
0
344
0
371
          -2
372
          -2
  0
ENDTAB
  0
TABLE
  2
BLOCK_RECORD
  5
1
100
AcDbSymbolTable
 70
          49
  0
BLOCK_RECORD
  5
A
100
AcDbSymbolTableRecord
100
AcDbBlockTableRecord
  2
*MODEL_SPACE
340
55D
  0
BLOCK_RECORD
  5
B
100
AcDbSymbolTableRecord
100
AcDbBlockTableRecord
  2
*PAPER_SPACE
340
560
  0
BLOCK_RECORD
  5
38
100
AcDbSymbolTableRecord
100
AcDbBlockTableRecord
  2
Block_5
340
0
102
{BLKREFS
331
2E3
102
}
  0
BLOCK_RECORD
  5
3B
100
AcDbSymbolTableRecord
100
AcDbBlockTableRecord
  2
Block_6
340
0
102
{BLKREFS
331
2E4
102
}
  0
BLOCK_RECORD
  5
3E
100
AcDbSymbolTableRecord
100
AcDbBlockTableRecord
  2
Block_7
340
0
102
{BLKREFS
331
2E5
102
}
  0
BLOCK_RECORD
  5
41
100
AcDbSymbolTableRecord
100
AcDbBlockTableRecord
  2
Block_0
340
0
102
{BLKREFS
331
50C
102
}
  0
BLOCK_RECORD
  5
60
100
AcDbSymbolTableRecord
100
AcDbBlockTableRecord
  2
Block_3
340
0
102
{BLKREFS
331
50D
102
}
  0
BLOCK_RECORD
  5
1E1
100
AcDbSymbolTableRecord
100
AcDbBlockTableRecord
  2
Fuse
340
0
102
{BLKREFS
331
2CA
102
}
  0
BLOCK_RECORD
  5
1EA
100
AcDbSymbolTableRecord
100
AcDbBlockTableRecord
  2
Lamp 1
340
0
  0
BLOCK_RECORD
  5
1F3
100
AcDbSymbolTableRecord
100
AcDbBlockTableRecord
  2
Transformer
340
0
  0
BLOCK_RECORD
  5
201
100
AcDbSymbolTableRecord
100
AcDbBlockTableRecord
  2
3-Phase Delta
340
0
  0
BLOCK_RECORD
  5
218
100
AcDbSymbolTableRecord
100
AcDbBlockTableRecord
  2
Inductor
340
0
  0
BLOCK_RECORD
  5
221
100
AcDbSymbolTableRecord
100
AcDbBlockTableRecord
  2
Resistor
340
0
102
{BLKREFS
331
244
102
}
  0
BLOCK_RECORD
  5
226
100
AcDbSymbolTableRecord
100
AcDbBlockTableRecord
  2
Capacitor
340
0
  0
BLOCK_RECORD
  5
22E
100
AcDbSymbolTableRecord
100
AcDbBlockTableRecord
  2
Locking Switch Open
340
0
  0
BLOCK_RECORD
  5
23B
100
AcDbSymbolTableRecord
100
AcDbBlockTableRecord
  2
Power Ground
340
0
  0
BLOCK_RECORD
  5
242
100
AcDbSymbolTableRecord
100
AcDbBlockTableRecord
  2
A$C03040EC0
340
0
  0
BLOCK_RECORD
  5
246
100
AcDbSymbolTableRecord
100
AcDbBlockTableRecord
  2
A$C6A19271A
340
0
  0
BLOCK_RECORD
  5
24A
100
AcDbSymbolTableRecord
100
AcDbBlockTableRecord
  2
Ohm Symbol
340
0
102
{BLKREFS
331
27E
102
}
  0
BLOCK_RECORD
  5
251
100
AcDbSymbolTableRecord
100
AcDbBlockTableRecord
  2
Rheostat
340
0
102
{BLKREFS
331
267
102
}
  0
BLOCK_RECORD
  5
262
100
AcDbSymbolTableRecord
100
AcDbBlockTableRecord
  2
A$C08006EF5
340
0
  0
BLOCK_RECORD
  5
284
100
AcDbSymbolTableRecord
100
AcDbBlockTableRecord
  2
A$C26A43B7E
340
0
  0
BLOCK_RECORD
  5
28B
100
AcDbSymbolTableRecord
100
AcDbBlockTableRecord
  2
A$C06E97278
340
0
  0
BLOCK_RECORD
  5
296
100
AcDbSymbolTableRecord
100
AcDbBlockTableRecord
  2
A$C3881095A
340
0
  0
BLOCK_RECORD
  5
29D
100
AcDbSymbolTableRecord
100
AcDbBlockTableRecord
  2
A$C7C7A5DC8
340
0
  0
BLOCK_RECORD
  5
2A1
100
AcDbSymbolTableRecord
100
AcDbBlockTableRecord
  2
A$C4FB532C2
340
0
  0
BLOCK_RECORD
  5
2A9
100
AcDbSymbolTableRecord
100
AcDbBlockTableRecord
  2
A$C581B394E
340
0
  0
BLOCK_RECORD
  5
2B0
100
AcDbSymbolTableRecord
100
AcDbBlockTableRecord
  2
A$C25FD3304
340
0
  0
BLOCK_RECORD
  5
2B4
100
AcDbSymbolTableRecord
100
AcDbBlockTableRecord
  2
A$C79987CD6
340
0
  0
BLOCK_RECORD
  5
2B8
100
AcDbSymbolTableRecord
100
AcDbBlockTableRecord
  2
A$C16C43627
340
0
  0
BLOCK_RECORD
  5
2BD
100
AcDbSymbolTableRecord
100
AcDbBlockTableRecord
  2
A$C4FC73B81
340
0
  0
BLOCK_RECORD
  5
2C1
100
AcDbSymbolTableRecord
100
AcDbBlockTableRecord
  2
A$C2EB3516B
340
0
  0
BLOCK_RECORD
  5
2C6
100
AcDbSymbolTableRecord
100
AcDbBlockTableRecord
  2
A$C40435073
340
0
  0
BLOCK_RECORD
  5
2CC
100
AcDbSymbolTableRecord
100
AcDbBlockTableRecord
  2
Thermal Overload Switch
340
0
  0
BLOCK_RECORD
  5
2D4
100
AcDbSymbolTableRecord
100
AcDbBlockTableRecord
  2
Momentary Switch NO
340
0
  0
BLOCK_RECORD
  5
2DC
100
AcDbSymbolTableRecord
100
AcDbBlockTableRecord
  2
Block_2
340
0
  0
BLOCK_RECORD
  5
2E7
100
AcDbSymbolTableRecord
100
AcDbBlockTableRecord
  2
*D34
340
0
  0
BLOCK_RECORD
  5
2F4
100
AcDbSymbolTableRecord
100
AcDbBlockTableRecord
  2
*D35
340
0
  0
BLOCK_RECORD
  5
30D
100
AcDbSymbolTableRecord
100
AcDbBlockTableRecord
  2
*D36
340
0
  0
BLOCK_RECORD
  5
31A
100
AcDbSymbolTableRecord
100
AcDbBlockTableRecord
  2
*D37
340
0
  0
BLOCK_RECORD
  5
340
100
AcDbSymbolTableRecord
100
AcDbBlockTableRecord
  2
*D38
340
0
  0
BLOCK_RECORD
  5
372
100
AcDbSymbolTableRecord
100
AcDbBlockTableRecord
  2
*D39
340
0
  0
BLOCK_RECORD
  5
387
100
AcDbSymbolTableRecord
100
AcDbBlockTableRecord
  2
*D40
340
0
  0
BLOCK_RECORD
  5
396
100
AcDbSymbolTableRecord
100
AcDbBlockTableRecord
  2
*D41
340
0
  0
BLOCK_RECORD
  5
3A6
100
AcDbSymbolTableRecord
100
AcDbBlockTableRecord
  2
*D42
340
0
  0
BLOCK_RECORD
  5
3EE
100
AcDbSymbolTableRecord
100
AcDbBlockTableRecord
  2
*D43
340
0
  0
BLOCK_RECORD
  5
439
100
AcDbSymbolTableRecord
100
AcDbBlockTableRecord
  2
*D44
340
0
  0
BLOCK_RECORD
  5
446
100
AcDbSymbolTableRecord
100
AcDbBlockTableRecord
  2
*D45
340
0
  0
BLOCK_RECORD
  5
46A
100
AcDbSymbolTableRecord
100
AcDbBlockTableRecord
  2
*D46
340
0
  0
BLOCK_RECORD
  5
541
100
AcDbSymbolTableRecord
100
AcDbBlockTableRecord
  2
*D47
340
0
  0
BLOCK_RECORD
  5
54F
100
AcDbSymbolTableRecord
100
AcDbBlockTableRecord
  2
*D48
340
0
  0
ENDTAB
  0
ENDSEC
  0
SECTION
  2
BLOCKS
  0
BLOCK
  5
D
100
AcDbEntity
  8
0
100
AcDbBlockBegin
  2
*MODEL_SPACE
 70
           0
 10
0.0
 20
0.0
 30
0.0
  3
*MODEL_SPACE
  1

  0
ENDBLK
  5
E
100
AcDbEntity
  8
0
100
AcDbBlockEnd
  0
BLOCK
  5
F
100
AcDbEntity
 67
           1
  8
0
100
AcDbBlockBegin
  2
*PAPER_SPACE
 70
           0
 10
0.0
 20
0.0
 30
0.0
  3
*PAPER_SPACE
  1

  0
ENDBLK
  5
10
100
AcDbEntity
 67
           1
  8
0
100
AcDbBlockEnd
  0
BLOCK
  5
39
100
AcDbEntity
  8
0
100
AcDbBlockBegin
  2
Block_5
 70
           0
 10
0.0
 20
0.0
 30
0.0
  3
Block_5
  1

  0
ENDBLK
  5
3A
100
AcDbEntity
  8
0
100
AcDbBlockEnd
  0
BLOCK
  5
3C
100
AcDbEntity
  8
0
100
AcDbBlockBegin
  2
Block_6
 70
           0
 10
0.0
 20
0.0
 30
0.0
  3
Block_6
  1

  0
ENDBLK
  5
3D
100
AcDbEntity
  8
0
100
AcDbBlockEnd
  0
BLOCK
  5
3F
100
AcDbEntity
  8
0
100
AcDbBlockBegin
  2
Block_7
 70
           0
 10
0.0
 20
0.0
 30
0.0
  3
Block_7
  1

  0
ENDBLK
  5
40
100
AcDbEntity
  8
0
100
AcDbBlockEnd
  0
BLOCK
  5
42
100
AcDbEntity
  8
0
100
AcDbBlockBegin
  2
Block_0
 70
           0
 10
0.0
 20
0.0
 30
0.0
  3
Block_0
  1

  0
LINE
  5
43
100
AcDbEntity
  8
0
100
AcDbLine
 10
10.506844388461
 20
1.597298945511
 30
0.0
 11
10.540382297308
 21
1.630836854358
 31
0.0
1001
ACAD
1000
TCW40_DEV_WIDTH
1002
{
1040
-3.0
1002
}
  0
LINE
  5
44
100
AcDbEntity
  8
0
100
AcDbLine
 10
10.631849321437
 20
1.722303878487
 30
0.0
 11
10.665387230284
 21
1.755841787334
 31
0.0
1001
ACAD
1000
TCW40_DEV_WIDTH
1002
{
1040
-3.0
1002
}
  0
LINE
  5
45
100
AcDbEntity
  8
0
100
AcDbLine
 10
10.498005553696
 20
1.606137780276
 30
0.0
 11
10.531543462544
 21
1.639675689123
 31
0.0
1001
ACAD
1000
TCW40_DEV_WIDTH
1002
{
1040
-3.0
1002
}
  0
LINE
  5
46
100
AcDbEntity
  8
0
100
AcDbLine
 10
10.623010486672
 20
1.731142713251
 30
0.0
 11
10.653499494715
 21
1.761631721294
 31
0.0
1001
ACAD
1000
TCW40_DEV_WIDTH
1002
{
1040
-3.0
1002
}
  0
LINE
  5
47
100
AcDbEntity
  8
0
100
AcDbLine
 10
10.489166718932
 20
1.61497661504
 30
0.0
 11
10.528802429387
 21
1.654612325496
 31
0.0
1001
ACAD
1000
TCW40_DEV_WIDTH
1002
{
1040
-3.0
1002
}
  0
LINE
  5
48
100
AcDbEntity
  8
0
100
AcDbLine
 10
10.608073850299
 20
1.733883746408
 30
0.0
 11
10.641611759146
 21
1.767421655255
 31
0.0
1001
ACAD
1000
TCW40_DEV_WIDTH
1002
{
1040
-3.0
1002
}
  0
LINE
  5
49
100
AcDbEntity
  8
0
100
AcDbLine
 10
10.483376784971
 20
1.626864350609
 30
0.0
 11
10.523940330262
 21
1.667427895901
 31
0.0
1001
ACAD
1000
TCW40_DEV_WIDTH
1002
{
1040
-3.0
1002
}
  0
LINE
  5
4A
100
AcDbEntity
  8
0
100
AcDbLine
 10
10.595258279894
 20
1.738745845533
 30
0.0
 11
10.626675122773
 21
1.770162688411
 31
0.0
1001
ACAD
1000
TCW40_DEV_WIDTH
1002
{
1040
-3.0
1002
}
  0
LINE
  5
4B
100
AcDbEntity
  8
0
100
AcDbLine
 10
10.47758685101
 20
1.638752086179
 30
0.0
 11
10.530038131871
 21
1.691203367039
 31
0.0
1001
ACAD
1000
TCW40_DEV_WIDTH
1002
{
1040
-3.0
1002
}
  0
LINE
  5
4C
100
AcDbEntity
  8
0
100
AcDbLine
 10
10.571482808756
 20
1.732648043924
 30
0.0
 11
10.614167420016
 21
1.775332655184
 31
0.0
1001
ACAD
1000
TCW40_DEV_WIDTH
1002
{
1040
-3.0
1002
}
  0
LINE
  5
4D
100
AcDbEntity
  8
0
100
AcDbLine
 10
10.47179691705
 20
1.650639821748
 30
0.0
 11
10.596489750486
 21
1.775332655184
 31
0.0
1001
ACAD
1000
TCW40_DEV_WIDTH
1002
{
1040
-3.0
1002
}
  0
LINE
  5
4E
100
AcDbEntity
  8
0
100
AcDbLine
 10
10.469060115785
 20
1.665580690013
 30
0.0
 11
10.578812080957
 21
1.775332655184
 31
0.0
1001
ACAD
1000
TCW40_DEV_WIDTH
1002
{
1040
-3.0
1002
}
  0
LINE
  5
4F
100
AcDbEntity
  8
0
100
AcDbLine
 10
10.469060115785
 20
1.683258359542
 30
0.0
 11
10.555036609818
 21
1.769234853575
 31
0.0
1001
ACAD
1000
TCW40_DEV_WIDTH
1002
{
1040
-3.0
1002
}
  0
LINE
  5
50
100
AcDbEntity
  8
0
100
AcDbLine
 10
10.481255719002
 20
1.713131632289
 30
0.0
 11
10.525163337071
 21
1.757039250358
 31
0.0
1001
ACAD
1000
TCW40_DEV_WIDTH
1002
{
1040
-3.0
1002
}
  0
LINE
  5
51
100
AcDbEntity
  8
0
100
AcDbLine
 10
10.51873212403
 20
1.59150901155
 30
0.0
 11
10.549221132073
 21
1.621998019593
 31
0.0
1001
ACAD
1000
TCW40_DEV_WIDTH
1002
{
1040
-3.0
1002
}
  0
LINE
  5
52
100
AcDbEntity
  8
0
100
AcDbLine
 10
10.640688156202
 20
1.713465043722
 30
0.0
 11
10.677274965853
 21
1.750051853373
 31
0.0
1001
ACAD
1000
TCW40_DEV_WIDTH
1002
{
1040
-3.0
1002
}
  0
LINE
  5
53
100
AcDbEntity
  8
0
100
AcDbLine
 10
10.530619859599
 20
1.58571907759
 30
0.0
 11
10.558059966838
 21
1.613159184828
 31
0.0
1001
ACAD
1000
TCW40_DEV_WIDTH
1002
{
1040
-3.0
1002
}
  0
LINE
  5
54
100
AcDbEntity
  8
0
100
AcDbLine
 10
10.649526990967
 20
1.704626208957
 30
0.0
 11
10.686113800618
 21
1.741213018608
 31
0.0
1001
ACAD
1000
TCW40_DEV_WIDTH
1002
{
1040
-3.0
1002
}
  0
LINE
  5
55
100
AcDbEntity
  8
0
100
AcDbLine
 10
10.542507595169
 20
1.579929143629
 30
0.0
 11
10.572996603211
 21
1.610418151672
 31
0.0
1001
ACAD
1000
TCW40_DEV_WIDTH
1002
{
1040
-3.0
1002
}
  0
LINE
  5
56
100
AcDbEntity
  8
0
100
AcDbLine
 10
10.652268024123
 20
1.689689572583
 30
0.0
 11
10.694952635383
 21
1.732374183844
 31
0.0
1001
ACAD
1000
TCW40_DEV_WIDTH
1002
{
1040
-3.0
1002
}
  0
LINE
  5
57
100
AcDbEntity
  8
0
100
AcDbLine
 10
10.55436132317
 20
1.574105202101
 30
0.0
 11
10.584850331213
 21
1.604594210144
 31
0.0
1001
ACAD
1000
TCW40_DEV_WIDTH
1002
{
1040
-3.0
1002
}
  0
LINE
  5
58
100
AcDbEntity
  8
0
100
AcDbLine
 10
10.658091965651
 20
1.677835844582
 30
0.0
 11
10.700776576911
 21
1.720520455842
 31
0.0
1001
ACAD
1000
TCW40_DEV_WIDTH
1002
{
1040
-3.0
1002
}
  0
LINE
  5
59
100
AcDbEntity
  8
0
100
AcDbLine
 10
10.566283066307
 20
1.568349275708
 30
0.0
 11
10.602528000743
 21
1.604594210144
 31
0.0
1001
ACAD
1000
TCW40_DEV_WIDTH
1002
{
1040
-3.0
1002
}
  0
LINE
  5
5A
100
AcDbEntity
  8
0
100
AcDbLine
 10
10.658091965651
 20
1.660158175052
 30
0.0
 11
10.70687437852
 21
1.708940587921
 31
0.0
1001
ACAD
1000
TCW40_DEV_WIDTH
1002
{
1040
-3.0
1002
}
  0
LINE
  5
5B
100
AcDbEntity
  8
0
100
AcDbLine
 10
10.583618860621
 20
1.568007400492
 30
0.0
 11
10.712972180128
 21
1.69736072
 31
0.0
1001
ACAD
1000
TCW40_DEV_WIDTH
1002
{
1040
-3.0
1002
}
  0
LINE
  5
5C
100
AcDbEntity
  8
0
100
AcDbLine
 10
10.60129653015
 20
1.568007400492
 30
0.0
 11
10.719069981737
 21
1.685780852079
 31
0.0
1001
ACAD
1000
TCW40_DEV_WIDTH
1002
{
1040
-3.0
1002
}
  0
LINE
  5
5D
100
AcDbEntity
  8
0
100
AcDbLine
 10
10.61897419968
 20
1.568007400492
 30
0.0
 11
10.719069981737
 21
1.668103182549
 31
0.0
1001
ACAD
1000
TCW40_DEV_WIDTH
1002
{
1040
-3.0
1002
}
  0
LINE
  5
5E
100
AcDbEntity
  8
0
100
AcDbLine
 10
10.648847472427
 20
1.580203003709
 30
0.0
 11
10.712972180128
 21
1.644327711411
 31
0.0
1001
ACAD
1000
TCW40_DEV_WIDTH
1002
{
1040
-3.0
1002
}
  0
ENDBLK
  5
5F
100
AcDbEntity
  8
0
100
AcDbBlockEnd
  0
BLOCK
  5
61
100
AcDbEntity
  8
0
100
AcDbBlockBegin
  2
Block_3
 70
           0
 10
0.0
 20
0.0
 30
0.0
  3
Block_3
  1

  0
LINE
  5
62
100
AcDbEntity
  8
0
100
AcDbLine
 10
10.421500709726
 20
1.653376623012
 30
0.0
 11
10.438571107742
 21
1.670447021029
 31
0.0
1001
ACAD
1000
TCW40_DEV_WIDTH
1002
{
1040
-3.0
1002
}
  0
LINE
  5
63
100
AcDbEntity
  8
0
100
AcDbLine
 10
10.38552963537
 20
1.635083218187
 30
0.0
 11
10.450766710959
 21
1.700320293776
 31
0.0
1001
ACAD
1000
TCW40_DEV_WIDTH
1002
{
1040
-3.0
1002
}
  0
LINE
  5
64
100
AcDbEntity
  8
0
100
AcDbLine
 10
10.361754164232
 20
1.628985416578
 30
0.0
 11
10.445487068485
 21
1.712718320831
 31
0.0
1001
ACAD
1000
TCW40_DEV_WIDTH
1002
{
1040
-3.0
1002
}
  0
LINE
  5
65
100
AcDbEntity
  8
0
100
AcDbLine
 10
10.337978693094
 20
1.62288761497
 30
0.0
 11
10.440106214091
 21
1.725015135967
 31
0.0
1001
ACAD
1000
TCW40_DEV_WIDTH
1002
{
1040
-3.0
1002
}
  0
LINE
  5
66
100
AcDbEntity
  8
0
100
AcDbLine
 10
10.320301023564
 20
1.62288761497
 30
0.0
 11
10.431267379326
 21
1.733853970732
 31
0.0
1001
ACAD
1000
TCW40_DEV_WIDTH
1002
{
1040
-3.0
1002
}
  0
LINE
  5
67
100
AcDbEntity
  8
0
100
AcDbLine
 10
10.302623354034
 20
1.62288761497
 30
0.0
 11
10.357503568512
 21
1.677767829447
 31
0.0
1001
ACAD
1000
TCW40_DEV_WIDTH
1002
{
1040
-3.0
1002
}
  0
LINE
  5
68
100
AcDbEntity
  8
0
100
AcDbLine
 10
10.382792834105
 20
1.703057095041
 30
0.0
 11
10.422428544561
 21
1.742692805496
 31
0.0
1001
ACAD
1000
TCW40_DEV_WIDTH
1002
{
1040
-3.0
1002
}
  0
LINE
  5
69
100
AcDbEntity
  8
0
100
AcDbLine
 10
10.236163271636
 20
1.574105202101
 30
0.0
 11
10.249539257876
 21
1.587481188341
 31
0.0
1001
ACAD
1000
TCW40_DEV_WIDTH
1002
{
1040
-3.0
1002
}
  0
LINE
  5
6A
100
AcDbEntity
  8
0
100
AcDbLine
 10
10.373953999341
 20
1.711895929805
 30
0.0
 11
10.410540808992
 21
1.748482739457
 31
0.0
1001
ACAD
1000
TCW40_DEV_WIDTH
1002
{
1040
-3.0
1002
}
  0
LINE
  5
6B
100
AcDbEntity
  8
0
100
AcDbLine
 10
10.284945684505
 20
1.62288761497
 30
0.0
 11
10.333728097373
 21
1.671670027838
 31
0.0
1001
ACAD
1000
TCW40_DEV_WIDTH
1002
{
1040
-3.0
1002
}
  0
LINE
  5
6C
100
AcDbEntity
  8
0
100
AcDbLine
 10
10.218485602106
 20
1.574105202101
 30
0.0
 11
10.249539257876
 21
1.605158857871
 31
0.0
1001
ACAD
1000
TCW40_DEV_WIDTH
1002
{
1040
-3.0
1002
}
  0
LINE
  5
6D
100
AcDbEntity
  8
0
100
AcDbLine
 10
10.362066263772
 20
1.717685863766
 30
0.0
 11
10.398653073423
 21
1.754272673417
 31
0.0
1001
ACAD
1000
TCW40_DEV_WIDTH
1002
{
1040
-3.0
1002
}
  0
LINE
  5
6E
100
AcDbEntity
  8
0
100
AcDbLine
 10
10.273365816584
 20
1.628985416578
 30
0.0
 11
10.316050427844
 21
1.671670027838
 31
0.0
1001
ACAD
1000
TCW40_DEV_WIDTH
1002
{
1040
-3.0
1002
}
  0
LINE
  5
6F
100
AcDbEntity
  8
0
100
AcDbLine
 10
10.200807932577
 20
1.574105202101
 30
0.0
 11
10.249539257876
 21
1.6228365274
 31
0.0
1001
ACAD
1000
TCW40_DEV_WIDTH
1002
{
1040
-3.0
1002
}
  0
LINE
  5
70
100
AcDbEntity
  8
0
100
AcDbLine
 10
10.347155171183
 20
1.720452440707
 30
0.0
 11
10.386765337854
 21
1.760062607378
 31
0.0
1001
ACAD
1000
TCW40_DEV_WIDTH
1002
{
1040
-3.0
1002
}
  0
LINE
  5
71
100
AcDbEntity
  8
0
100
AcDbLine
 10
10.255688147054
 20
1.628985416578
 30
0.0
 11
10.298372758314
 21
1.671670027838
 31
0.0
1001
ACAD
1000
TCW40_DEV_WIDTH
1002
{
1040
-3.0
1002
}
  0
LINE
  5
72
100
AcDbEntity
  8
0
100
AcDbLine
 10
10.183130263047
 20
1.574105202101
 30
0.0
 11
10.249539257876
 21
1.64051419693
 31
0.0
1001
ACAD
1000
TCW40_DEV_WIDTH
1002
{
1040
-3.0
1002
}
  0
LINE
  5
73
100
AcDbEntity
  8
0
100
AcDbLine
 10
10.335575303262
 20
1.726550242315
 30
0.0
 11
10.372162112913
 21
1.763137051967
 31
0.0
1001
ACAD
1000
TCW40_DEV_WIDTH
1002
{
1040
-3.0
1002
}
  0
LINE
  5
74
100
AcDbEntity
  8
0
100
AcDbLine
 10
10.249539257876
 20
1.64051419693
 30
0.0
 11
10.280695088784
 21
1.671670027838
 31
0.0
1001
ACAD
1000
TCW40_DEV_WIDTH
1002
{
1040
-3.0
1002
}
  0
LINE
  5
75
100
AcDbEntity
  8
0
100
AcDbLine
 10
10.182463440182
 20
1.591116048765
 30
0.0
 11
10.249539257876
 21
1.65819186646
 31
0.0
1001
ACAD
1000
TCW40_DEV_WIDTH
1002
{
1040
-3.0
1002
}
  0
LINE
  5
76
100
AcDbEntity
  8
0
100
AcDbLine
 10
10.317897633732
 20
1.726550242315
 30
0.0
 11
10.359940965911
 21
1.768593574495
 31
0.0
1001
ACAD
1000
TCW40_DEV_WIDTH
1002
{
1040
-3.0
1002
}
  0
LINE
  5
77
100
AcDbEntity
  8
0
100
AcDbLine
 10
10.249539257876
 20
1.65819186646
 30
0.0
 11
10.265425040978
 21
1.674077649562
 31
0.0
1001
ACAD
1000
TCW40_DEV_WIDTH
1002
{
1040
-3.0
1002
}
  0
LINE
  5
78
100
AcDbEntity
  8
0
100
AcDbLine
 10
10.147774923988
 20
1.574105202101
 30
0.0
 11
10.162397590884
 21
1.588727868997
 31
0.0
1001
ACAD
1000
TCW40_DEV_WIDTH
1002
{
1040
-3.0
1002
}
  0
LINE
  5
79
100
AcDbEntity
  8
0
100
AcDbLine
 10
10.300219964202
 20
1.726550242315
 30
0.0
 11
10.342904575462
 21
1.769234853575
 31
0.0
1001
ACAD
1000
TCW40_DEV_WIDTH
1002
{
1040
-3.0
1002
}
  0
LINE
  5
7A
100
AcDbEntity
  8
0
100
AcDbLine
 10
10.182463440182
 20
1.608793718295
 30
0.0
 11
10.249539257876
 21
1.675869535989
 31
0.0
1001
ACAD
1000
TCW40_DEV_WIDTH
1002
{
1040
-3.0
1002
}
  0
LINE
  5
7B
100
AcDbEntity
  8
0
100
AcDbLine
 10
10.249539257876
 20
1.675869535989
 30
0.0
 11
10.251437551334
 21
1.677767829447
 31
0.0
1001
ACAD
1000
TCW40_DEV_WIDTH
1002
{
1040
-3.0
1002
}
  0
LINE
  5
7C
100
AcDbEntity
  8
0
100
AcDbLine
 10
10.130097254458
 20
1.574105202101
 30
0.0
 11
10.160486491475
 21
1.604494439118
 31
0.0
1001
ACAD
1000
TCW40_DEV_WIDTH
1002
{
1040
-3.0
1002
}
  0
LINE
  5
7D
100
AcDbEntity
  8
0
100
AcDbLine
 10
10.282542294673
 20
1.726550242315
 30
0.0
 11
10.330067693165
 21
1.774075640807
 31
0.0
1001
ACAD
1000
TCW40_DEV_WIDTH
1002
{
1040
-3.0
1002
}
  0
LINE
  5
7E
100
AcDbEntity
  8
0
100
AcDbLine
 10
10.182463440182
 20
1.626471387825
 30
0.0
 11
10.249539257876
 21
1.693547205519
 31
0.0
1001
ACAD
1000
TCW40_DEV_WIDTH
1002
{
1040
-3.0
1002
}
  0
LINE
  5
7F
100
AcDbEntity
  8
0
100
AcDbLine
 10
10.112419584928
 20
1.574105202101
 30
0.0
 11
10.158575392067
 21
1.620261009239
 31
0.0
1001
ACAD
1000
TCW40_DEV_WIDTH
1002
{
1040
-3.0
1002
}
  0
LINE
  5
80
100
AcDbEntity
  8
0
100
AcDbLine
 10
10.258766823534
 20
1.720452440707
 30
0.0
 11
10.313647038012
 21
1.775332655184
 31
0.0
1001
ACAD
1000
TCW40_DEV_WIDTH
1002
{
1040
-3.0
1002
}
  0
LINE
  5
81
100
AcDbEntity
  8
0
100
AcDbLine
 10
10.182463440182
 20
1.644149057354
 30
0.0
 11
10.249539257876
 21
1.711224875049
 31
0.0
1001
ACAD
1000
TCW40_DEV_WIDTH
1002
{
1040
-3.0
1002
}
  0
LINE
  5
82
100
AcDbEntity
  8
0
100
AcDbLine
 10
10.102628679012
 20
1.581991965714
 30
0.0
 11
10.156664292658
 21
1.63602757936
 31
0.0
1001
ACAD
1000
TCW40_DEV_WIDTH
1002
{
1040
-3.0
1002
}
  0
LINE
  5
83
100
AcDbEntity
  8
0
100
AcDbLine
 10
10.182463440182
 20
1.661826726884
 30
0.0
 11
10.295969368482
 21
1.775332655184
 31
0.0
1001
ACAD
1000
TCW40_DEV_WIDTH
1002
{
1040
-3.0
1002
}
  0
LINE
  5
84
100
AcDbEntity
  8
0
100
AcDbLine
 10
10.10145016771
 20
1.598491123942
 30
0.0
 11
10.154753193249
 21
1.651794149481
 31
0.0
1001
ACAD
1000
TCW40_DEV_WIDTH
1002
{
1040
-3.0
1002
}
  0
LINE
  5
85
100
AcDbEntity
  8
0
100
AcDbLine
 10
10.182463440182
 20
1.679504396414
 30
0.0
 11
10.278291698952
 21
1.775332655184
 31
0.0
1001
ACAD
1000
TCW40_DEV_WIDTH
1002
{
1040
-3.0
1002
}
  0
LINE
  5
86
100
AcDbEntity
  8
0
100
AcDbLine
 10
10.100271656408
 20
1.61499028217
 30
0.0
 11
10.152842093841
 21
1.667560719602
 31
0.0
1001
ACAD
1000
TCW40_DEV_WIDTH
1002
{
1040
-3.0
1002
}
  0
LINE
  5
87
100
AcDbEntity
  8
0
100
AcDbLine
 10
10.182463440182
 20
1.697182065943
 30
0.0
 11
10.260614029423
 21
1.775332655184
 31
0.0
1001
ACAD
1000
TCW40_DEV_WIDTH
1002
{
1040
-3.0
1002
}
  0
LINE
  5
88
100
AcDbEntity
  8
0
100
AcDbLine
 10
10.04170890681
 20
1.574105202101
 30
0.0
 11
10.067110305994
 21
1.599506601285
 31
0.0
1001
ACAD
1000
TCW40_DEV_WIDTH
1002
{
1040
-3.0
1002
}
  0
LINE
  5
89
100
AcDbEntity
  8
0
100
AcDbLine
 10
10.182463440182
 20
1.714859735473
 30
0.0
 11
10.242936359893
 21
1.775332655184
 31
0.0
1001
ACAD
1000
TCW40_DEV_WIDTH
1002
{
1040
-3.0
1002
}
  0
LINE
  5
8A
100
AcDbEntity
  8
0
100
AcDbLine
 10
10.099093145106
 20
1.631489440397
 30
0.0
 11
10.150930994432
 21
1.683327289723
 31
0.0
1001
ACAD
1000
TCW40_DEV_WIDTH
1002
{
1040
-3.0
1002
}
  0
LINE
  5
8B
100
AcDbEntity
  8
0
100
AcDbLine
 10
10.02403123728
 20
1.574105202101
 30
0.0
 11
10.084787975523
 21
1.634861940344
 31
0.0
1001
ACAD
1000
TCW40_DEV_WIDTH
1002
{
1040
-3.0
1002
}
  0
LINE
  5
8C
100
AcDbEntity
  8
0
100
AcDbLine
 10
10.182463440182
 20
1.732537405003
 30
0.0
 11
10.219160888755
 21
1.769234853575
 31
0.0
1001
ACAD
1000
TCW40_DEV_WIDTH
1002
{
1040
-3.0
1002
}
  0
LINE
  5
8D
100
AcDbEntity
  8
0
100
AcDbLine
 10
10.097914633804
 20
1.647988598625
 30
0.0
 11
10.149019895024
 21
1.699093859844
 31
0.0
1001
ACAD
1000
TCW40_DEV_WIDTH
1002
{
1040
-3.0
1002
}
  0
LINE
  5
8E
100
AcDbEntity
  8
0
100
AcDbLine
 10
10.00635356775
 20
1.574105202101
 30
0.0
 11
10.147108795615
 21
1.714860429965
 31
0.0
1001
ACAD
1000
TCW40_DEV_WIDTH
1002
{
1040
-3.0
1002
}
  0
LINE
  5
8F
100
AcDbEntity
  8
0
100
AcDbLine
 10
10.182463440182
 20
1.750215074532
 30
0.0
 11
10.195385417616
 21
1.763137051967
 31
0.0
1001
ACAD
1000
TCW40_DEV_WIDTH
1002
{
1040
-3.0
1002
}
  0
LINE
  5
90
100
AcDbEntity
  8
0
100
AcDbLine
 10
9.992004882687
 20
1.577434186568
 30
0.0
 11
10.145197696206
 21
1.730627000087
 31
0.0
1001
ACAD
1000
TCW40_DEV_WIDTH
1002
{
1040
-3.0
1002
}
  0
LINE
  5
91
100
AcDbEntity
  8
0
100
AcDbLine
 10
9.986701581829
 20
1.589808555238
 30
0.0
 11
10.143286596798
 21
1.746393570208
 31
0.0
1001
ACAD
1000
TCW40_DEV_WIDTH
1002
{
1040
-3.0
1002
}
  0
LINE
  5
92
100
AcDbEntity
  8
0
100
AcDbLine
 10
9.98139828097
 20
1.602182923909
 30
0.0
 11
10.141375497389
 21
1.762160140329
 31
0.0
1001
ACAD
1000
TCW40_DEV_WIDTH
1002
{
1040
-3.0
1002
}
  0
LINE
  5
93
100
AcDbEntity
  8
0
100
AcDbLine
 10
9.935642889632
 20
1.574105202101
 30
0.0
 11
9.946150225417
 21
1.584612537886
 31
0.0
1001
ACAD
1000
TCW40_DEV_WIDTH
1002
{
1040
-3.0
1002
}
  0
LINE
  5
94
100
AcDbEntity
  8
0
100
AcDbLine
 10
10.026035861055
 20
1.664498173524
 30
0.0
 11
10.136870342715
 21
1.775332655184
 31
0.0
1001
ACAD
1000
TCW40_DEV_WIDTH
1002
{
1040
-3.0
1002
}
  0
LINE
  5
95
100
AcDbEntity
  8
0
100
AcDbLine
 10
9.976094980111
 20
1.61455729258
 30
0.0
 11
10.023058824668
 21
1.661521137137
 31
0.0
1001
ACAD
1000
TCW40_DEV_WIDTH
1002
{
1040
-3.0
1002
}
  0
LINE
  5
96
100
AcDbEntity
  8
0
100
AcDbLine
 10
9.917965220102
 20
1.574105202101
 30
0.0
 11
9.949096503672
 21
1.60523648567
 31
0.0
1001
ACAD
1000
TCW40_DEV_WIDTH
1002
{
1040
-3.0
1002
}
  0
LINE
  5
97
100
AcDbEntity
  8
0
100
AcDbLine
 10
10.038892347986
 20
1.695032329984
 30
0.0
 11
10.119192673185
 21
1.775332655184
 31
0.0
1001
ACAD
1000
TCW40_DEV_WIDTH
1002
{
1040
-3.0
1002
}
  0
LINE
  5
98
100
AcDbEntity
  8
0
100
AcDbLine
 10
9.970791679252
 20
1.626931661251
 30
0.0
 11
10.017820996659
 21
1.673960978658
 31
0.0
1001
ACAD
1000
TCW40_DEV_WIDTH
1002
{
1040
-3.0
1002
}
  0
LINE
  5
99
100
AcDbEntity
  8
0
100
AcDbLine
 10
9.900287550573
 20
1.574105202101
 30
0.0
 11
9.952042781926
 21
1.625860433455
 31
0.0
1001
ACAD
1000
TCW40_DEV_WIDTH
1002
{
1040
-3.0
1002
}
  0
LINE
  5
9A
100
AcDbEntity
  8
0
100
AcDbLine
 10
10.051748834916
 20
1.725566486445
 30
0.0
 11
10.101515003656
 21
1.775332655184
 31
0.0
1001
ACAD
1000
TCW40_DEV_WIDTH
1002
{
1040
-3.0
1002
}
  0
LINE
  5
9B
100
AcDbEntity
  8
0
100
AcDbLine
 10
9.965488378393
 20
1.639306029921
 30
0.0
 11
10.01258316865
 21
1.686400820179
 31
0.0
1001
ACAD
1000
TCW40_DEV_WIDTH
1002
{
1040
-3.0
1002
}
  0
LINE
  5
9C
100
AcDbEntity
  8
0
100
AcDbLine
 10
9.883817544854
 20
1.575312865912
 30
0.0
 11
9.954989060181
 21
1.64648438124
 31
0.0
1001
ACAD
1000
TCW40_DEV_WIDTH
1002
{
1040
-3.0
1002
}
  0
LINE
  5
9D
100
AcDbEntity
  8
0
100
AcDbLine
 10
10.064605321847
 20
1.756100642905
 30
0.0
 11
10.083837334126
 21
1.775332655184
 31
0.0
1001
ACAD
1000
TCW40_DEV_WIDTH
1002
{
1040
-3.0
1002
}
  0
LINE
  5
9E
100
AcDbEntity
  8
0
100
AcDbLine
 10
9.960185077534
 20
1.651680398592
 30
0.0
 11
10.007345340642
 21
1.6988406617
 31
0.0
1001
ACAD
1000
TCW40_DEV_WIDTH
1002
{
1040
-3.0
1002
}
  0
LINE
  5
9F
100
AcDbEntity
  8
0
100
AcDbLine
 10
9.858834409905
 20
1.568007400492
 30
0.0
 11
9.865377756536
 21
1.574550747124
 31
0.0
1001
ACAD
1000
TCW40_DEV_WIDTH
1002
{
1040
-3.0
1002
}
  0
LINE
  5
A0
100
AcDbEntity
  8
0
100
AcDbLine
 10
9.886255844099
 20
1.595428834687
 30
0.0
 11
10.002107512633
 21
1.711280503221
 31
0.0
1001
ACAD
1000
TCW40_DEV_WIDTH
1002
{
1040
-3.0
1002
}
  0
LINE
  5
A1
100
AcDbEntity
  8
0
100
AcDbLine
 10
9.841156740375
 20
1.568007400492
 30
0.0
 11
9.865377756536
 21
1.592228416653
 31
0.0
1001
ACAD
1000
TCW40_DEV_WIDTH
1002
{
1040
-3.0
1002
}
  0
LINE
  5
A2
100
AcDbEntity
  8
0
100
AcDbLine
 10
9.888694143345
 20
1.615544803462
 30
0.0
 11
9.996869684624
 21
1.723720344741
 31
0.0
1001
ACAD
1000
TCW40_DEV_WIDTH
1002
{
1040
-3.0
1002
}
  0
LINE
  5
A3
100
AcDbEntity
  8
0
100
AcDbLine
 10
9.823479070845
 20
1.568007400492
 30
0.0
 11
9.865377756536
 21
1.609906086183
 31
0.0
1001
ACAD
1000
TCW40_DEV_WIDTH
1002
{
1040
-3.0
1002
}
  0
LINE
  5
A4
100
AcDbEntity
  8
0
100
AcDbLine
 10
9.89113244259
 20
1.635660772237
 30
0.0
 11
9.991631856615
 21
1.736160186262
 31
0.0
1001
ACAD
1000
TCW40_DEV_WIDTH
1002
{
1040
-3.0
1002
}
  0
LINE
  5
A5
100
AcDbEntity
  8
0
100
AcDbLine
 10
9.805801401316
 20
1.568007400492
 30
0.0
 11
9.865377756536
 21
1.627583755713
 31
0.0
1001
ACAD
1000
TCW40_DEV_WIDTH
1002
{
1040
-3.0
1002
}
  0
LINE
  5
A6
100
AcDbEntity
  8
0
100
AcDbLine
 10
9.893570741836
 20
1.655776741012
 30
0.0
 11
9.986394028606
 21
1.748600027783
 31
0.0
1001
ACAD
1000
TCW40_DEV_WIDTH
1002
{
1040
-3.0
1002
}
  0
LINE
  5
A7
100
AcDbEntity
  8
0
100
AcDbLine
 10
9.798301938841
 20
1.578185607548
 30
0.0
 11
9.865377756536
 21
1.645261425242
 31
0.0
1001
ACAD
1000
TCW40_DEV_WIDTH
1002
{
1040
-3.0
1002
}
  0
LINE
  5
A8
100
AcDbEntity
  8
0
100
AcDbLine
 10
9.896009041081
 20
1.675892709788
 30
0.0
 11
9.981156200598
 21
1.761039869304
 31
0.0
1001
ACAD
1000
TCW40_DEV_WIDTH
1002
{
1040
-3.0
1002
}
  0
LINE
  5
A9
100
AcDbEntity
  8
0
100
AcDbLine
 10
9.798301938841
 20
1.595863277078
 30
0.0
 11
9.865377756536
 21
1.662939094772
 31
0.0
1001
ACAD
1000
TCW40_DEV_WIDTH
1002
{
1040
-3.0
1002
}
  0
LINE
  5
AA
100
AcDbEntity
  8
0
100
AcDbLine
 10
9.898447340327
 20
1.696008678563
 30
0.0
 11
9.975918372589
 21
1.773479710825
 31
0.0
1001
ACAD
1000
TCW40_DEV_WIDTH
1002
{
1040
-3.0
1002
}
  0
LINE
  5
AB
100
AcDbEntity
  8
0
100
AcDbLine
 10
9.758866194335
 20
1.574105202101
 30
0.0
 11
9.767812930799
 21
1.583051938564
 31
0.0
1001
ACAD
1000
TCW40_DEV_WIDTH
1002
{
1040
-3.0
1002
}
  0
LINE
  5
AC
100
AcDbEntity
  8
0
100
AcDbLine
 10
9.900885639572
 20
1.716124647338
 30
0.0
 11
9.960093647418
 21
1.775332655184
 31
0.0
1001
ACAD
1000
TCW40_DEV_WIDTH
1002
{
1040
-3.0
1002
}
  0
LINE
  5
AD
100
AcDbEntity
  8
0
100
AcDbLine
 10
9.798301938841
 20
1.613540946607
 30
0.0
 11
9.865377756536
 21
1.680616764302
 31
0.0
1001
ACAD
1000
TCW40_DEV_WIDTH
1002
{
1040
-3.0
1002
}
  0
LINE
  5
AE
100
AcDbEntity
  8
0
100
AcDbLine
 10
9.741188524806
 20
1.574105202101
 30
0.0
 11
9.767812930799
 21
1.600729608094
 31
0.0
1001
ACAD
1000
TCW40_DEV_WIDTH
1002
{
1040
-3.0
1002
}
  0
LINE
  5
AF
100
AcDbEntity
  8
0
100
AcDbLine
 10
9.903323938818
 20
1.736240616113
 30
0.0
 11
9.942415977889
 21
1.775332655184
 31
0.0
1001
ACAD
1000
TCW40_DEV_WIDTH
1002
{
1040
-3.0
1002
}
  0
LINE
  5
B0
100
AcDbEntity
  8
0
100
AcDbLine
 10
9.798301938841
 20
1.631218616137
 30
0.0
 11
9.865377756536
 21
1.698294433831
 31
0.0
1001
ACAD
1000
TCW40_DEV_WIDTH
1002
{
1040
-3.0
1002
}
  0
LINE
  5
B1
100
AcDbEntity
  8
0
100
AcDbLine
 10
9.723510855276
 20
1.574105202101
 30
0.0
 11
9.767812930799
 21
1.618407277624
 31
0.0
1001
ACAD
1000
TCW40_DEV_WIDTH
1002
{
1040
-3.0
1002
}
  0
LINE
  5
B2
100
AcDbEntity
  8
0
100
AcDbLine
 10
9.905762238063
 20
1.756356584888
 30
0.0
 11
9.924738308359
 21
1.775332655184
 31
0.0
1001
ACAD
1000
TCW40_DEV_WIDTH
1002
{
1040
-3.0
1002
}
  0
LINE
  5
B3
100
AcDbEntity
  8
0
100
AcDbLine
 10
9.798301938841
 20
1.648896285667
 30
0.0
 11
9.865377756536
 21
1.715972103361
 31
0.0
1001
ACAD
1000
TCW40_DEV_WIDTH
1002
{
1040
-3.0
1002
}
  0
LINE
  5
B4
100
AcDbEntity
  8
0
100
AcDbLine
 10
9.705833185746
 20
1.574105202101
 30
0.0
 11
9.767812930799
 21
1.636084947153
 31
0.0
1001
ACAD
1000
TCW40_DEV_WIDTH
1002
{
1040
-3.0
1002
}
  0
LINE
  5
B5
100
AcDbEntity
  8
0
100
AcDbLine
 10
9.798301938841
 20
1.666573955196
 30
0.0
 11
9.865377756536
 21
1.733649772891
 31
0.0
1001
ACAD
1000
TCW40_DEV_WIDTH
1002
{
1040
-3.0
1002
}
  0
LINE
  5
B6
100
AcDbEntity
  8
0
100
AcDbLine
 10
9.700737113104
 20
1.586686798989
 30
0.0
 11
9.767812930799
 21
1.653762616683
 31
0.0
1001
ACAD
1000
TCW40_DEV_WIDTH
1002
{
1040
-3.0
1002
}
  0
LINE
  5
B7
100
AcDbEntity
  8
0
100
AcDbLine
 10
9.798301938841
 20
1.684251624726
 30
0.0
 11
9.865377756536
 21
1.75132744242
 31
0.0
1001
ACAD
1000
TCW40_DEV_WIDTH
1002
{
1040
-3.0
1002
}
  0
LINE
  5
B8
100
AcDbEntity
  8
0
100
AcDbLine
 10
9.700737113104
 20
1.604364468518
 30
0.0
 11
9.767812930799
 21
1.671440286213
 31
0.0
1001
ACAD
1000
TCW40_DEV_WIDTH
1002
{
1040
-3.0
1002
}
  0
LINE
  5
B9
100
AcDbEntity
  8
0
100
AcDbLine
 10
9.798301938841
 20
1.701929294255
 30
0.0
 11
9.865377756536
 21
1.76900511195
 31
0.0
1001
ACAD
1000
TCW40_DEV_WIDTH
1002
{
1040
-3.0
1002
}
  0
LINE
  5
BA
100
AcDbEntity
  8
0
100
AcDbLine
 10
9.700737113104
 20
1.622042138048
 30
0.0
 11
9.767812930799
 21
1.689117955742
 31
0.0
1001
ACAD
1000
TCW40_DEV_WIDTH
1002
{
1040
-3.0
1002
}
  0
LINE
  5
BB
100
AcDbEntity
  8
0
100
AcDbLine
 10
9.798301938841
 20
1.719606963785
 30
0.0
 11
9.85402763024
 21
1.775332655184
 31
0.0
1001
ACAD
1000
TCW40_DEV_WIDTH
1002
{
1040
-3.0
1002
}
  0
LINE
  5
BC
100
AcDbEntity
  8
0
100
AcDbLine
 10
9.700737113104
 20
1.639719807578
 30
0.0
 11
9.767812930799
 21
1.706795625272
 31
0.0
1001
ACAD
1000
TCW40_DEV_WIDTH
1002
{
1040
-3.0
1002
}
  0
LINE
  5
BD
100
AcDbEntity
  8
0
100
AcDbLine
 10
9.798301938841
 20
1.737284633315
 30
0.0
 11
9.836349960711
 21
1.775332655184
 31
0.0
1001
ACAD
1000
TCW40_DEV_WIDTH
1002
{
1040
-3.0
1002
}
  0
LINE
  5
BE
100
AcDbEntity
  8
0
100
AcDbLine
 10
9.690618457401
 20
1.647278821404
 30
0.0
 11
9.767812930799
 21
1.724473294802
 31
0.0
1001
ACAD
1000
TCW40_DEV_WIDTH
1002
{
1040
-3.0
1002
}
  0
LINE
  5
BF
100
AcDbEntity
  8
0
100
AcDbLine
 10
9.798301938841
 20
1.754962302844
 30
0.0
 11
9.818672291181
 21
1.775332655184
 31
0.0
1001
ACAD
1000
TCW40_DEV_WIDTH
1002
{
1040
-3.0
1002
}
  0
LINE
  5
C0
100
AcDbEntity
  8
0
100
AcDbLine
 10
9.672940787871
 20
1.647278821404
 30
0.0
 11
9.767812930799
 21
1.742150964331
 31
0.0
1001
ACAD
1000
TCW40_DEV_WIDTH
1002
{
1040
-3.0
1002
}
  0
LINE
  5
C1
100
AcDbEntity
  8
0
100
AcDbLine
 10
9.798301938841
 20
1.772639972374
 30
0.0
 11
9.800994621651
 21
1.775332655184
 31
0.0
1001
ACAD
1000
TCW40_DEV_WIDTH
1002
{
1040
-3.0
1002
}
  0
LINE
  5
C2
100
AcDbEntity
  8
0
100
AcDbLine
 10
9.582089499039
 20
1.574105202101
 30
0.0
 11
9.597074485758
 21
1.589090188821
 31
0.0
1001
ACAD
1000
TCW40_DEV_WIDTH
1002
{
1040
-3.0
1002
}
  0
LINE
  5
C3
100
AcDbEntity
  8
0
100
AcDbLine
 10
9.655263118342
 20
1.647278821404
 30
0.0
 11
9.767812930799
 21
1.759828633861
 31
0.0
1001
ACAD
1000
TCW40_DEV_WIDTH
1002
{
1040
-3.0
1002
}
  0
LINE
  5
C4
100
AcDbEntity
  8
0
100
AcDbLine
 10
9.564411829509
 20
1.574105202101
 30
0.0
 11
9.597074485758
 21
1.60676785835
 31
0.0
1001
ACAD
1000
TCW40_DEV_WIDTH
1002
{
1040
-3.0
1002
}
  0
LINE
  5
C5
100
AcDbEntity
  8
0
100
AcDbLine
 10
9.700737113104
 20
1.710430485696
 30
0.0
 11
9.765639282592
 21
1.775332655184
 31
0.0
1001
ACAD
1000
TCW40_DEV_WIDTH
1002
{
1040
-3.0
1002
}
  0
LINE
  5
C6
100
AcDbEntity
  8
0
100
AcDbLine
 10
9.637585448812
 20
1.647278821404
 30
0.0
 11
9.68636786168
 21
1.696061234272
 31
0.0
1001
ACAD
1000
TCW40_DEV_WIDTH
1002
{
1040
-3.0
1002
}
  0
LINE
  5
C7
100
AcDbEntity
  8
0
100
AcDbLine
 10
9.546734159979
 20
1.574105202101
 30
0.0
 11
9.597074485758
 21
1.62444552788
 31
0.0
1001
ACAD
1000
TCW40_DEV_WIDTH
1002
{
1040
-3.0
1002
}
  0
LINE
  5
C8
100
AcDbEntity
  8
0
100
AcDbLine
 10
9.700737113104
 20
1.728108155226
 30
0.0
 11
9.747961613062
 21
1.775332655184
 31
0.0
1001
ACAD
1000
TCW40_DEV_WIDTH
1002
{
1040
-3.0
1002
}
  0
LINE
  5
C9
100
AcDbEntity
  8
0
100
AcDbLine
 10
9.619907779282
 20
1.647278821404
 30
0.0
 11
9.668690192151
 21
1.696061234272
 31
0.0
1001
ACAD
1000
TCW40_DEV_WIDTH
1002
{
1040
-3.0
1002
}
  0
LINE
  5
CA
100
AcDbEntity
  8
0
100
AcDbLine
 10
9.536096469673
 20
1.581145181324
 30
0.0
 11
9.597074485758
 21
1.64212319741
 31
0.0
1001
ACAD
1000
TCW40_DEV_WIDTH
1002
{
1040
-3.0
1002
}
  0
LINE
  5
CB
100
AcDbEntity
  8
0
100
AcDbLine
 10
9.700737113104
 20
1.745785824756
 30
0.0
 11
9.730283943533
 21
1.775332655184
 31
0.0
1001
ACAD
1000
TCW40_DEV_WIDTH
1002
{
1040
-3.0
1002
}
  0
LINE
  5
CC
100
AcDbEntity
  8
0
100
AcDbLine
 10
9.602230109753
 20
1.647278821404
 30
0.0
 11
9.651012522621
 21
1.696061234272
 31
0.0
1001
ACAD
1000
TCW40_DEV_WIDTH
1002
{
1040
-3.0
1002
}
  0
LINE
  5
CD
100
AcDbEntity
  8
0
100
AcDbLine
 10
9.536096469673
 20
1.598822850854
 30
0.0
 11
9.633334853091
 21
1.696061234272
 31
0.0
1001
ACAD
1000
TCW40_DEV_WIDTH
1002
{
1040
-3.0
1002
}
  0
LINE
  5
CE
100
AcDbEntity
  8
0
100
AcDbLine
 10
9.700737113104
 20
1.763463494285
 30
0.0
 11
9.712606274003
 21
1.775332655184
 31
0.0
1001
ACAD
1000
TCW40_DEV_WIDTH
1002
{
1040
-3.0
1002
}
  0
LINE
  5
CF
100
AcDbEntity
  8
0
100
AcDbLine
 10
9.536096469673
 20
1.616500520383
 30
0.0
 11
9.615657183562
 21
1.696061234272
 31
0.0
1001
ACAD
1000
TCW40_DEV_WIDTH
1002
{
1040
-3.0
1002
}
  0
LINE
  5
D0
100
AcDbEntity
  8
0
100
AcDbLine
 10
9.494316886686
 20
1.592398606927
 30
0.0
 11
9.499509660021
 21
1.597591380261
 31
0.0
1001
ACAD
1000
TCW40_DEV_WIDTH
1002
{
1040
-3.0
1002
}
  0
LINE
  5
D1
100
AcDbEntity
  8
0
100
AcDbLine
 10
9.536096469673
 20
1.634178189913
 30
0.0
 11
9.597979514032
 21
1.696061234272
 31
0.0
1001
ACAD
1000
TCW40_DEV_WIDTH
1002
{
1040
-3.0
1002
}
  0
LINE
  5
D2
100
AcDbEntity
  8
0
100
AcDbLine
 10
9.500414688295
 20
1.598496408535
 30
0.0
 11
9.50560746163
 21
1.60368918187
 31
0.0
1001
ACAD
1000
TCW40_DEV_WIDTH
1002
{
1040
-3.0
1002
}
  0
LINE
  5
D3
100
AcDbEntity
  8
0
100
AcDbLine
 10
9.506512489903
 20
1.604594210144
 30
0.0
 11
9.511705263238
 21
1.609786983479
 31
0.0
1001
ACAD
1000
TCW40_DEV_WIDTH
1002
{
1040
-3.0
1002
}
  0
LINE
  5
D4
100
AcDbEntity
  8
0
100
AcDbLine
 10
9.464443613939
 20
1.580203003709
 30
0.0
 11
9.517803064847
 21
1.633562454617
 31
0.0
1001
ACAD
1000
TCW40_DEV_WIDTH
1002
{
1040
-3.0
1002
}
  0
LINE
  5
D5
100
AcDbEntity
  8
0
100
AcDbLine
 10
9.536096469673
 20
1.651855859443
 30
0.0
 11
9.597074485758
 21
1.712833875528
 31
0.0
1001
ACAD
1000
TCW40_DEV_WIDTH
1002
{
1040
-3.0
1002
}
  0
LINE
  5
D6
100
AcDbEntity
  8
0
100
AcDbLine
 10
9.440668142801
 20
1.574105202101
 30
0.0
 11
9.444629445544
 21
1.578066504844
 31
0.0
1001
ACAD
1000
TCW40_DEV_WIDTH
1002
{
1040
-3.0
1002
}
  0
LINE
  5
D7
100
AcDbEntity
  8
0
100
AcDbLine
 10
9.536096469673
 20
1.669533528972
 30
0.0
 11
9.597074485758
 21
1.730511545058
 31
0.0
1001
ACAD
1000
TCW40_DEV_WIDTH
1002
{
1040
-3.0
1002
}
  0
LINE
  5
D8
100
AcDbEntity
  8
0
100
AcDbLine
 10
9.44676594441
 20
1.580203003709
 30
0.0
 11
9.513841762104
 21
1.647278821404
 31
0.0
1001
ACAD
1000
TCW40_DEV_WIDTH
1002
{
1040
-3.0
1002
}
  0
LINE
  5
D9
100
AcDbEntity
  8
0
100
AcDbLine
 10
9.422990473272
 20
1.574105202101
 30
0.0
 11
9.508359695792
 21
1.659474424621
 31
0.0
1001
ACAD
1000
TCW40_DEV_WIDTH
1002
{
1040
-3.0
1002
}
  0
LINE
  5
DA
100
AcDbEntity
  8
0
100
AcDbLine
 10
9.536096469673
 20
1.687211198502
 30
0.0
 11
9.597074485758
 21
1.748189214588
 31
0.0
1001
ACAD
1000
TCW40_DEV_WIDTH
1002
{
1040
-3.0
1002
}
  0
LINE
  5
DB
100
AcDbEntity
  8
0
100
AcDbLine
 10
9.405312803742
 20
1.574105202101
 30
0.0
 11
9.441899613393
 21
1.610692011752
 31
0.0
1001
ACAD
1000
TCW40_DEV_WIDTH
1002
{
1040
-3.0
1002
}
  0
LINE
  5
DC
100
AcDbEntity
  8
0
100
AcDbLine
 10
9.536096469673
 20
1.704888868032
 30
0.0
 11
9.597074485758
 21
1.765866884117
 31
0.0
1001
ACAD
1000
TCW40_DEV_WIDTH
1002
{
1040
-3.0
1002
}
  0
LINE
  5
DD
100
AcDbEntity
  8
0
100
AcDbLine
 10
9.444629445544
 20
1.613421843903
 30
0.0
 11
9.447997415002
 21
1.616789813361
 31
0.0
1001
ACAD
1000
TCW40_DEV_WIDTH
1002
{
1040
-3.0
1002
}
  0
LINE
  5
DE
100
AcDbEntity
  8
0
100
AcDbLine
 10
9.450727247152
 20
1.619519645511
 30
0.0
 11
9.498144743946
 21
1.666937142305
 31
0.0
1001
ACAD
1000
TCW40_DEV_WIDTH
1002
{
1040
-3.0
1002
}
  0
LINE
  5
DF
100
AcDbEntity
  8
0
100
AcDbLine
 10
9.387635134212
 20
1.574105202101
 30
0.0
 11
9.424221943864
 21
1.610692011752
 31
0.0
1001
ACAD
1000
TCW40_DEV_WIDTH
1002
{
1040
-3.0
1002
}
  0
LINE
  5
E0
100
AcDbEntity
  8
0
100
AcDbLine
 10
9.536096469673
 20
1.722566537561
 30
0.0
 11
9.588862587295
 21
1.775332655184
 31
0.0
1001
ACAD
1000
TCW40_DEV_WIDTH
1002
{
1040
-3.0
1002
}
  0
LINE
  5
E1
100
AcDbEntity
  8
0
100
AcDbLine
 10
9.444629445544
 20
1.631099513433
 30
0.0
 11
9.486257008377
 21
1.672727076265
 31
0.0
1001
ACAD
1000
TCW40_DEV_WIDTH
1002
{
1040
-3.0
1002
}
  0
LINE
  5
E2
100
AcDbEntity
  8
0
100
AcDbLine
 10
9.369957464683
 20
1.574105202101
 30
0.0
 11
9.406544274334
 21
1.610692011752
 31
0.0
1001
ACAD
1000
TCW40_DEV_WIDTH
1002
{
1040
-3.0
1002
}
  0
LINE
  5
E3
100
AcDbEntity
  8
0
100
AcDbLine
 10
9.536096469673
 20
1.740244207091
 30
0.0
 11
9.571184917766
 21
1.775332655184
 31
0.0
1001
ACAD
1000
TCW40_DEV_WIDTH
1002
{
1040
-3.0
1002
}
  0
LINE
  5
E4
100
AcDbEntity
  8
0
100
AcDbLine
 10
9.431684661548
 20
1.635832398966
 30
0.0
 11
9.473620092028
 21
1.677767829447
 31
0.0
1001
ACAD
1000
TCW40_DEV_WIDTH
1002
{
1040
-3.0
1002
}
  0
LINE
  5
E5
100
AcDbEntity
  8
0
100
AcDbLine
 10
9.352279795153
 20
1.574105202101
 30
0.0
 11
9.388866604804
 21
1.610692011752
 31
0.0
1001
ACAD
1000
TCW40_DEV_WIDTH
1002
{
1040
-3.0
1002
}
  0
LINE
  5
E6
100
AcDbEntity
  8
0
100
AcDbLine
 10
9.536096469673
 20
1.757921876621
 30
0.0
 11
9.553507248236
 21
1.775332655184
 31
0.0
1001
ACAD
1000
TCW40_DEV_WIDTH
1002
{
1040
-3.0
1002
}
  0
LINE
  5
E7
100
AcDbEntity
  8
0
100
AcDbLine
 10
9.419355612847
 20
1.641181019795
 30
0.0
 11
9.462040224107
 21
1.683865631055
 31
0.0
1001
ACAD
1000
TCW40_DEV_WIDTH
1002
{
1040
-3.0
1002
}
  0
LINE
  5
E8
100
AcDbEntity
  8
0
100
AcDbLine
 10
9.483823842869
 20
1.705649249816
 30
0.0
 11
9.497771268239
 21
1.719596675187
 31
0.0
1001
ACAD
1000
TCW40_DEV_WIDTH
1002
{
1040
-3.0
1002
}
  0
LINE
  5
E9
100
AcDbEntity
  8
0
100
AcDbLine
 10
9.337784471911
 20
1.577287548388
 30
0.0
 11
9.371188935275
 21
1.610692011752
 31
0.0
1001
ACAD
1000
TCW40_DEV_WIDTH
1002
{
1040
-3.0
1002
}
  0
LINE
  5
EA
100
AcDbEntity
  8
0
100
AcDbLine
 10
9.469020651978
 20
1.708523728456
 30
0.0
 11
9.503663824749
 21
1.743166901227
 31
0.0
1001
ACAD
1000
TCW40_DEV_WIDTH
1002
{
1040
-3.0
1002
}
  0
LINE
  5
EB
100
AcDbEntity
  8
0
100
AcDbLine
 10
9.407775744926
 20
1.647278821404
 30
0.0
 11
9.447544900865
 21
1.687047977343
 31
0.0
1001
ACAD
1000
TCW40_DEV_WIDTH
1002
{
1040
-3.0
1002
}
  0
LINE
  5
EC
100
AcDbEntity
  8
0
100
AcDbLine
 10
9.323022257702
 20
1.580203003709
 30
0.0
 11
9.359609067354
 21
1.616789813361
 31
0.0
1001
ACAD
1000
TCW40_DEV_WIDTH
1002
{
1040
-3.0
1002
}
  0
LINE
  5
ED
100
AcDbEntity
  8
0
100
AcDbLine
 10
9.457173893091
 20
1.714354639098
 30
0.0
 11
9.499509660021
 21
1.756690406028
 31
0.0
1001
ACAD
1000
TCW40_DEV_WIDTH
1002
{
1040
-3.0
1002
}
  0
LINE
  5
EE
100
AcDbEntity
  8
0
100
AcDbLine
 10
9.390098075397
 20
1.647278821404
 30
0.0
 11
9.432782686657
 21
1.689963432664
 31
0.0
1001
ACAD
1000
TCW40_DEV_WIDTH
1002
{
1040
-3.0
1002
}
  0
LINE
  5
EF
100
AcDbEntity
  8
0
100
AcDbLine
 10
9.305344588173
 20
1.580203003709
 30
0.0
 11
9.341931397824
 21
1.616789813361
 31
0.0
1001
ACAD
1000
TCW40_DEV_WIDTH
1002
{
1040
-3.0
1002
}
  0
LINE
  5
F0
100
AcDbEntity
  8
0
100
AcDbLine
 10
9.44559402517
 20
1.720452440707
 30
0.0
 11
9.482180834821
 21
1.757039250358
 31
0.0
1001
ACAD
1000
TCW40_DEV_WIDTH
1002
{
1040
-3.0
1002
}
  0
LINE
  5
F1
100
AcDbEntity
  8
0
100
AcDbLine
 10
9.372420405867
 20
1.647278821404
 30
0.0
 11
9.42023823911
 21
1.695096654647
 31
0.0
1001
ACAD
1000
TCW40_DEV_WIDTH
1002
{
1040
-3.0
1002
}
  0
LINE
  5
F2
100
AcDbEntity
  8
0
100
AcDbLine
 10
9.293764720251
 20
1.586300805318
 30
0.0
 11
9.330351529903
 21
1.62288761497
 31
0.0
1001
ACAD
1000
TCW40_DEV_WIDTH
1002
{
1040
-3.0
1002
}
  0
LINE
  5
F3
100
AcDbEntity
  8
0
100
AcDbLine
 10
9.430175098983
 20
1.72271118405
 30
0.0
 11
9.4706009669
 21
1.763137051967
 31
0.0
1001
ACAD
1000
TCW40_DEV_WIDTH
1002
{
1040
-3.0
1002
}
  0
LINE
  5
F4
100
AcDbEntity
  8
0
100
AcDbLine
 10
9.354742736337
 20
1.647278821404
 30
0.0
 11
9.403525149206
 21
1.696061234272
 31
0.0
1001
ACAD
1000
TCW40_DEV_WIDTH
1002
{
1040
-3.0
1002
}
  0
LINE
  5
F5
100
AcDbEntity
  8
0
100
AcDbLine
 10
9.279988802112
 20
1.590202556709
 30
0.0
 11
9.312673860373
 21
1.62288761497
 31
0.0
1001
ACAD
1000
TCW40_DEV_WIDTH
1002
{
1040
-3.0
1002
}
  0
LINE
  5
F6
100
AcDbEntity
  8
0
100
AcDbLine
 10
9.416336487719
 20
1.726550242315
 30
0.0
 11
9.45792307387
 21
1.768136828466
 31
0.0
1001
ACAD
1000
TCW40_DEV_WIDTH
1002
{
1040
-3.0
1002
}
  0
LINE
  5
F7
100
AcDbEntity
  8
0
100
AcDbLine
 10
9.343162868416
 20
1.653376623012
 30
0.0
 11
9.391945281285
 21
1.702159035881
 31
0.0
1001
ACAD
1000
TCW40_DEV_WIDTH
1002
{
1040
-3.0
1002
}
  0
LINE
  5
F8
100
AcDbEntity
  8
0
100
AcDbLine
 10
9.267793198895
 20
1.595684623021
 30
0.0
 11
9.301093992452
 21
1.628985416578
 31
0.0
1001
ACAD
1000
TCW40_DEV_WIDTH
1002
{
1040
-3.0
1002
}
  0
LINE
  5
F9
100
AcDbEntity
  8
0
100
AcDbLine
 10
9.400301826237
 20
1.728193250363
 30
0.0
 11
9.441343429449
 21
1.769234853575
 31
0.0
1001
ACAD
1000
TCW40_DEV_WIDTH
1002
{
1040
-3.0
1002
}
  0
LINE
  5
FA
100
AcDbEntity
  8
0
100
AcDbLine
 10
9.325485198886
 20
1.653376623012
 30
0.0
 11
9.374267611755
 21
1.702159035881
 31
0.0
1001
ACAD
1000
TCW40_DEV_WIDTH
1002
{
1040
-3.0
1002
}
  0
LINE
  5
FB
100
AcDbEntity
  8
0
100
AcDbLine
 10
9.265202630249
 20
1.610771723905
 30
0.0
 11
9.289514124531
 21
1.635083218187
 31
0.0
1001
ACAD
1000
TCW40_DEV_WIDTH
1002
{
1040
-3.0
1002
}
  0
LINE
  5
FC
100
AcDbEntity
  8
0
100
AcDbLine
 10
9.387078950268
 20
1.732648043924
 30
0.0
 11
9.425000900319
 21
1.770569993975
 31
0.0
1001
ACAD
1000
TCW40_DEV_WIDTH
1002
{
1040
-3.0
1002
}
  0
LINE
  5
FD
100
AcDbEntity
  8
0
100
AcDbLine
 10
9.313905330965
 20
1.659474424621
 30
0.0
 11
9.356589942225
 21
1.702159035881
 31
0.0
1001
ACAD
1000
TCW40_DEV_WIDTH
1002
{
1040
-3.0
1002
}
  0
LINE
  5
FE
100
AcDbEntity
  8
0
100
AcDbLine
 10
9.272273698061
 20
1.635520461246
 30
0.0
 11
9.27793425661
 21
1.641181019795
 31
0.0
1001
ACAD
1000
TCW40_DEV_WIDTH
1002
{
1040
-3.0
1002
}
  0
LINE
  5
FF
100
AcDbEntity
  8
0
100
AcDbLine
 10
9.369401280739
 20
1.732648043924
 30
0.0
 11
9.412085891999
 21
1.775332655184
 31
0.0
1001
ACAD
1000
TCW40_DEV_WIDTH
1002
{
1040
-3.0
1002
}
  0
LINE
  5
100
100
AcDbEntity
  8
0
100
AcDbLine
 10
9.297254934187
 20
1.660501697372
 30
0.0
 11
9.338912272696
 21
1.702159035881
 31
0.0
1001
ACAD
1000
TCW40_DEV_WIDTH
1002
{
1040
-3.0
1002
}
  0
LINE
  5
101
100
AcDbEntity
  8
0
100
AcDbLine
 10
9.284647793515
 20
1.66557222623
 30
0.0
 11
9.327332404775
 21
1.70825683749
 31
0.0
1001
ACAD
1000
TCW40_DEV_WIDTH
1002
{
1040
-3.0
1002
}
  0
LINE
  5
102
100
AcDbEntity
  8
0
100
AcDbLine
 10
9.355491917116
 20
1.736416349831
 30
0.0
 11
9.394408222469
 21
1.775332655184
 31
0.0
1001
ACAD
1000
TCW40_DEV_WIDTH
1002
{
1040
-3.0
1002
}
  0
LINE
  5
103
100
AcDbEntity
  8
0
100
AcDbLine
 10
9.273479463049
 20
1.672081565293
 30
0.0
 11
9.315752536854
 21
1.714354639098
 31
0.0
1001
ACAD
1000
TCW40_DEV_WIDTH
1002
{
1040
-3.0
1002
}
  0
LINE
  5
104
100
AcDbEntity
  8
0
100
AcDbLine
 10
9.340143743288
 20
1.738745845533
 30
0.0
 11
9.376730552939
 21
1.775332655184
 31
0.0
1001
ACAD
1000
TCW40_DEV_WIDTH
1002
{
1040
-3.0
1002
}
  0
LINE
  5
105
100
AcDbEntity
  8
0
100
AcDbLine
 10
9.264640628284
 20
1.680920400058
 30
0.0
 11
9.35905288341
 21
1.775332655184
 31
0.0
1001
ACAD
1000
TCW40_DEV_WIDTH
1002
{
1040
-3.0
1002
}
  0
LINE
  5
106
100
AcDbEntity
  8
0
100
AcDbLine
 10
9.255801793519
 20
1.689759234823
 30
0.0
 11
9.34137521388
 21
1.775332655184
 31
0.0
1001
ACAD
1000
TCW40_DEV_WIDTH
1002
{
1040
-3.0
1002
}
  0
LINE
  5
107
100
AcDbEntity
  8
0
100
AcDbLine
 10
9.250011859558
 20
1.701646970392
 30
0.0
 11
9.32369754435
 21
1.775332655184
 31
0.0
1001
ACAD
1000
TCW40_DEV_WIDTH
1002
{
1040
-3.0
1002
}
  0
LINE
  5
108
100
AcDbEntity
  8
0
100
AcDbLine
 10
9.249499794069
 20
1.718812574433
 30
0.0
 11
9.299922073212
 21
1.769234853575
 31
0.0
1001
ACAD
1000
TCW40_DEV_WIDTH
1002
{
1040
-3.0
1002
}
  0
LINE
  5
109
100
AcDbEntity
  8
0
100
AcDbLine
 10
9.261695397286
 20
1.748685847179
 30
0.0
 11
9.263950998857
 21
1.75094144875
 31
0.0
1001
ACAD
1000
TCW40_DEV_WIDTH
1002
{
1040
-3.0
1002
}
  0
LINE
  5
10A
100
AcDbEntity
  8
0
100
AcDbLine
 10
10.796536522365
 20
1.745569723177
 30
0.0
 11
10.807272112181
 21
1.756305312993
 31
0.0
1001
ACAD
1000
TCW40_DEV_WIDTH
1002
{
1040
-3.0
1002
}
  0
LINE
  5
10B
100
AcDbEntity
  8
0
100
AcDbLine
 10
10.807903617464
 20
1.756936818276
 30
0.0
 11
10.820201652763
 21
1.769234853575
 31
0.0
1001
ACAD
1000
TCW40_DEV_WIDTH
1002
{
1040
-3.0
1002
}
  0
LINE
  5
10C
100
AcDbEntity
  8
0
100
AcDbLine
 10
10.796536522365
 20
1.727892053648
 30
0.0
 11
10.818075132449
 21
1.749430663732
 31
0.0
1001
ACAD
1000
TCW40_DEV_WIDTH
1002
{
1040
-3.0
1002
}
  0
LINE
  5
10D
100
AcDbEntity
  8
0
100
AcDbLine
 10
10.819342109513
 20
1.750697640795
 30
0.0
 11
10.837879322293
 21
1.769234853575
 31
0.0
1001
ACAD
1000
TCW40_DEV_WIDTH
1002
{
1040
-3.0
1002
}
  0
LINE
  5
10E
100
AcDbEntity
  8
0
100
AcDbLine
 10
10.796536522365
 20
1.710214384118
 30
0.0
 11
10.828878152717
 21
1.74255601447
 31
0.0
1001
ACAD
1000
TCW40_DEV_WIDTH
1002
{
1040
-3.0
1002
}
  0
LINE
  5
10F
100
AcDbEntity
  8
0
100
AcDbLine
 10
10.830780601561
 20
1.744458463314
 30
0.0
 11
10.861654793431
 21
1.775332655184
 31
0.0
1001
ACAD
1000
TCW40_DEV_WIDTH
1002
{
1040
-3.0
1002
}
  0
LINE
  5
110
100
AcDbEntity
  8
0
100
AcDbLine
 10
10.796536522365
 20
1.692536714588
 30
0.0
 11
10.839681172985
 21
1.735681365209
 31
0.0
1001
ACAD
1000
TCW40_DEV_WIDTH
1002
{
1040
-3.0
1002
}
  0
LINE
  5
111
100
AcDbEntity
  8
0
100
AcDbLine
 10
10.84221909361
 20
1.738219285833
 30
0.0
 11
10.879332462961
 21
1.775332655184
 31
0.0
1001
ACAD
1000
TCW40_DEV_WIDTH
1002
{
1040
-3.0
1002
}
  0
LINE
  5
112
100
AcDbEntity
  8
0
100
AcDbLine
 10
10.796536522365
 20
1.674859045059
 30
0.0
 11
10.850484193253
 21
1.728806715947
 31
0.0
1001
ACAD
1000
TCW40_DEV_WIDTH
1002
{
1040
-3.0
1002
}
  0
LINE
  5
113
100
AcDbEntity
  8
0
100
AcDbLine
 10
10.853657585659
 20
1.731980108352
 30
0.0
 11
10.89701013249
 21
1.775332655184
 31
0.0
1001
ACAD
1000
TCW40_DEV_WIDTH
1002
{
1040
-3.0
1002
}
  0
LINE
  5
114
100
AcDbEntity
  8
0
100
AcDbLine
 10
10.796536522365
 20
1.657181375529
 30
0.0
 11
10.861287213522
 21
1.721932066685
 31
0.0
1001
ACAD
1000
TCW40_DEV_WIDTH
1002
{
1040
-3.0
1002
}
  0
LINE
  5
115
100
AcDbEntity
  8
0
100
AcDbLine
 10
10.865905389152
 20
1.726550242315
 30
0.0
 11
10.91468780202
 21
1.775332655184
 31
0.0
1001
ACAD
1000
TCW40_DEV_WIDTH
1002
{
1040
-3.0
1002
}
  0
LINE
  5
116
100
AcDbEntity
  8
0
100
AcDbLine
 10
10.796536522365
 20
1.639503705999
 30
0.0
 11
10.863612340059
 21
1.706579523694
 31
0.0
1001
ACAD
1000
TCW40_DEV_WIDTH
1002
{
1040
-3.0
1002
}
  0
LINE
  5
117
100
AcDbEntity
  8
0
100
AcDbLine
 10
10.88968086029
 20
1.732648043924
 30
0.0
 11
10.926267669941
 21
1.769234853575
 31
0.0
1001
ACAD
1000
TCW40_DEV_WIDTH
1002
{
1040
-3.0
1002
}
  0
LINE
  5
118
100
AcDbEntity
  8
0
100
AcDbLine
 10
10.796536522365
 20
1.62182603647
 30
0.0
 11
10.863612340059
 21
1.688901854164
 31
0.0
1001
ACAD
1000
TCW40_DEV_WIDTH
1002
{
1040
-3.0
1002
}
  0
LINE
  5
119
100
AcDbEntity
  8
0
100
AcDbLine
 10
10.907358529819
 20
1.732648043924
 30
0.0
 11
10.943945339471
 21
1.769234853575
 31
0.0
1001
ACAD
1000
TCW40_DEV_WIDTH
1002
{
1040
-3.0
1002
}
  0
LINE
  5
11A
100
AcDbEntity
  8
0
100
AcDbLine
 10
10.796536522365
 20
1.60414836694
 30
0.0
 11
10.863612340059
 21
1.671224184634
 31
0.0
1001
ACAD
1000
TCW40_DEV_WIDTH
1002
{
1040
-3.0
1002
}
  0
LINE
  5
11B
100
AcDbEntity
  8
0
100
AcDbLine
 10
10.925036199349
 20
1.732648043924
 30
0.0
 11
10.955525207392
 21
1.763137051967
 31
0.0
1001
ACAD
1000
TCW40_DEV_WIDTH
1002
{
1040
-3.0
1002
}
  0
LINE
  5
11C
100
AcDbEntity
  8
0
100
AcDbLine
 10
10.796536522365
 20
1.58647069741
 30
0.0
 11
10.863612340059
 21
1.653546515105
 31
0.0
1001
ACAD
1000
TCW40_DEV_WIDTH
1002
{
1040
-3.0
1002
}
  0
LINE
  5
11D
100
AcDbEntity
  8
0
100
AcDbLine
 10
10.936701013316
 20
1.726635188361
 30
0.0
 11
10.970238922163
 21
1.760173097209
 31
0.0
1001
ACAD
1000
TCW40_DEV_WIDTH
1002
{
1040
-3.0
1002
}
  0
LINE
  5
11E
100
AcDbEntity
  8
0
100
AcDbLine
 10
10.807946498194
 20
1.580203003709
 30
0.0
 11
10.863612340059
 21
1.635868845575
 31
0.0
1001
ACAD
1000
TCW40_DEV_WIDTH
1002
{
1040
-3.0
1002
}
  0
LINE
  5
11F
100
AcDbEntity
  8
0
100
AcDbLine
 10
10.95163764969
 20
1.723894155205
 30
0.0
 11
10.984782744843
 21
1.757039250358
 31
0.0
1001
ACAD
1000
TCW40_DEV_WIDTH
1002
{
1040
-3.0
1002
}
  0
LINE
  5
120
100
AcDbEntity
  8
0
100
AcDbLine
 10
10.819526366115
 20
1.574105202101
 30
0.0
 11
10.862210977375
 21
1.616789813361
 31
0.0
1001
ACAD
1000
TCW40_DEV_WIDTH
1002
{
1040
-3.0
1002
}
  0
LINE
  5
121
100
AcDbEntity
  8
0
100
AcDbLine
 10
10.963525385259
 20
1.718104221245
 30
0.0
 11
10.996362612764
 21
1.75094144875
 31
0.0
1001
ACAD
1000
TCW40_DEV_WIDTH
1002
{
1040
-3.0
1002
}
  0
LINE
  5
122
100
AcDbEntity
  8
0
100
AcDbLine
 10
10.837204035645
 20
1.574105202101
 30
0.0
 11
10.874799394286
 21
1.611700560743
 31
0.0
1001
ACAD
1000
TCW40_DEV_WIDTH
1002
{
1040
-3.0
1002
}
  0
LINE
  5
123
100
AcDbEntity
  8
0
100
AcDbLine
 10
10.972364220024
 20
1.70926538648
 30
0.0
 11
11.005902128871
 21
1.742803295327
 31
0.0
1001
ACAD
1000
TCW40_DEV_WIDTH
1002
{
1040
-3.0
1002
}
  0
LINE
  5
124
100
AcDbEntity
  8
0
100
AcDbLine
 10
10.848783903566
 20
1.568007400492
 30
0.0
 11
10.891468514826
 21
1.610692011752
 31
0.0
1001
ACAD
1000
TCW40_DEV_WIDTH
1002
{
1040
-3.0
1002
}
  0
LINE
  5
125
100
AcDbEntity
  8
0
100
AcDbLine
 10
10.984251955593
 20
1.703475452519
 30
0.0
 11
11.01778986444
 21
1.737013361367
 31
0.0
1001
ACAD
1000
TCW40_DEV_WIDTH
1002
{
1040
-3.0
1002
}
  0
LINE
  5
126
100
AcDbEntity
  8
0
100
AcDbLine
 10
10.866461573095
 20
1.568007400492
 30
0.0
 11
10.909146184355
 21
1.610692011752
 31
0.0
1001
ACAD
1000
TCW40_DEV_WIDTH
1002
{
1040
-3.0
1002
}
  0
LINE
  5
127
100
AcDbEntity
  8
0
100
AcDbLine
 10
10.990041889553
 20
1.69158771695
 30
0.0
 11
11.026628699205
 21
1.728174526602
 31
0.0
1001
ACAD
1000
TCW40_DEV_WIDTH
1002
{
1040
-3.0
1002
}
  0
LINE
  5
128
100
AcDbEntity
  8
0
100
AcDbLine
 10
10.884139242625
 20
1.568007400492
 30
0.0
 11
10.926823853885
 21
1.610692011752
 31
0.0
1001
ACAD
1000
TCW40_DEV_WIDTH
1002
{
1040
-3.0
1002
}
  0
LINE
  5
129
100
AcDbEntity
  8
0
100
AcDbLine
 10
11.07703539636
 20
1.760903554227
 30
0.0
 11
11.0792688941
 21
1.763137051967
 31
0.0
1001
ACAD
1000
TCW40_DEV_WIDTH
1002
{
1040
-3.0
1002
}
  0
LINE
  5
12A
100
AcDbEntity
  8
0
100
AcDbLine
 10
10.997763975448
 20
1.681632133315
 30
0.0
 11
11.03546753397
 21
1.719335691837
 31
0.0
1001
ACAD
1000
TCW40_DEV_WIDTH
1002
{
1040
-3.0
1002
}
  0
LINE
  5
12B
100
AcDbEntity
  8
0
100
AcDbLine
 10
10.901816912155
 20
1.568007400492
 30
0.0
 11
10.956697126632
 21
1.62288761497
 31
0.0
1001
ACAD
1000
TCW40_DEV_WIDTH
1002
{
1040
-3.0
1002
}
  0
LINE
  5
12C
100
AcDbEntity
  8
0
100
AcDbLine
 10
11.07703539636
 20
1.743225884697
 30
0.0
 11
11.103044365238
 21
1.769234853575
 31
0.0
1001
ACAD
1000
TCW40_DEV_WIDTH
1002
{
1040
-3.0
1002
}
  0
LINE
  5
12D
100
AcDbEntity
  8
0
100
AcDbLine
 10
10.997763975448
 20
1.663954463786
 30
0.0
 11
11.044306368734
 21
1.710496857072
 31
0.0
1001
ACAD
1000
TCW40_DEV_WIDTH
1002
{
1040
-3.0
1002
}
  0
LINE
  5
12E
100
AcDbEntity
  8
0
100
AcDbLine
 10
10.925592383293
 20
1.574105202101
 30
0.0
 11
11.050096302695
 21
1.698609121503
 31
0.0
1001
ACAD
1000
TCW40_DEV_WIDTH
1002
{
1040
-3.0
1002
}
  0
LINE
  5
12F
100
AcDbEntity
  8
0
100
AcDbLine
 10
11.07703539636
 20
1.725548215168
 30
0.0
 11
11.120722034768
 21
1.769234853575
 31
0.0
1001
ACAD
1000
TCW40_DEV_WIDTH
1002
{
1040
-3.0
1002
}
  0
LINE
  5
130
100
AcDbEntity
  8
0
100
AcDbLine
 10
10.943270052823
 20
1.574105202101
 30
0.0
 11
11.055886236656
 21
1.686721385934
 31
0.0
1001
ACAD
1000
TCW40_DEV_WIDTH
1002
{
1040
-3.0
1002
}
  0
LINE
  5
131
100
AcDbEntity
  8
0
100
AcDbLine
 10
11.07703539636
 20
1.707870545638
 30
0.0
 11
11.144497505906
 21
1.775332655184
 31
0.0
1001
ACAD
1000
TCW40_DEV_WIDTH
1002
{
1040
-3.0
1002
}
  0
LINE
  5
132
100
AcDbEntity
  8
0
100
AcDbLine
 10
10.967045523961
 20
1.580203003709
 30
0.0
 11
11.058741991534
 21
1.671899471283
 31
0.0
1001
ACAD
1000
TCW40_DEV_WIDTH
1002
{
1040
-3.0
1002
}
  0
LINE
  5
133
100
AcDbEntity
  8
0
100
AcDbLine
 10
11.07703539636
 20
1.690192876108
 30
0.0
 11
11.162175175435
 21
1.775332655184
 31
0.0
1001
ACAD
1000
TCW40_DEV_WIDTH
1002
{
1040
-3.0
1002
}
  0
LINE
  5
134
100
AcDbEntity
  8
0
100
AcDbLine
 10
10.996918796708
 20
1.592398606927
 30
0.0
 11
11.052644189925
 21
1.648124000144
 31
0.0
1001
ACAD
1000
TCW40_DEV_WIDTH
1002
{
1040
-3.0
1002
}
  0
LINE
  5
135
100
AcDbEntity
  8
0
100
AcDbLine
 10
11.07703539636
 20
1.672515206579
 30
0.0
 11
11.179852844965
 21
1.775332655184
 31
0.0
1001
ACAD
1000
TCW40_DEV_WIDTH
1002
{
1040
-3.0
1002
}
  0
LINE
  5
136
100
AcDbEntity
  8
0
100
AcDbLine
 10
11.07703539636
 20
1.654837537049
 30
0.0
 11
11.142650300018
 21
1.720452440707
 31
0.0
1001
ACAD
1000
TCW40_DEV_WIDTH
1002
{
1040
-3.0
1002
}
  0
LINE
  5
137
100
AcDbEntity
  8
0
100
AcDbLine
 10
11.144968743804
 20
1.722770884493
 30
0.0
 11
11.197530514495
 21
1.775332655184
 31
0.0
1001
ACAD
1000
TCW40_DEV_WIDTH
1002
{
1040
-3.0
1002
}
  0
LINE
  5
138
100
AcDbEntity
  8
0
100
AcDbLine
 10
11.07703539636
 20
1.637159867519
 30
0.0
 11
11.144111214054
 21
1.704235685214
 31
0.0
1001
ACAD
1000
TCW40_DEV_WIDTH
1002
{
1040
-3.0
1002
}
  0
LINE
  5
139
100
AcDbEntity
  8
0
100
AcDbLine
 10
11.166425771156
 20
1.726550242315
 30
0.0
 11
11.215208184024
 21
1.775332655184
 31
0.0
1001
ACAD
1000
TCW40_DEV_WIDTH
1002
{
1040
-3.0
1002
}
  0
LINE
  5
13A
100
AcDbEntity
  8
0
100
AcDbLine
 10
11.07703539636
 20
1.61948219799
 30
0.0
 11
11.144111214054
 21
1.686558015684
 31
0.0
1001
ACAD
1000
TCW40_DEV_WIDTH
1002
{
1040
-3.0
1002
}
  0
LINE
  5
13B
100
AcDbEntity
  8
0
100
AcDbLine
 10
11.184103440685
 20
1.726550242315
 30
0.0
 11
11.22813424426
 21
1.77058104589
 31
0.0
1001
ACAD
1000
TCW40_DEV_WIDTH
1002
{
1040
-3.0
1002
}
  0
LINE
  5
13C
100
AcDbEntity
  8
0
100
AcDbLine
 10
11.07703539636
 20
1.60180452846
 30
0.0
 11
11.139886573058
 21
1.664655705158
 31
0.0
1001
ACAD
1000
TCW40_DEV_WIDTH
1002
{
1040
-3.0
1002
}
  0
LINE
  5
13D
100
AcDbEntity
  8
0
100
AcDbLine
 10
11.201781110215
 20
1.726550242315
 30
0.0
 11
11.244465721475
 21
1.769234853575
 31
0.0
1001
ACAD
1000
TCW40_DEV_WIDTH
1002
{
1040
-3.0
1002
}
  0
LINE
  5
13E
100
AcDbEntity
  8
0
100
AcDbLine
 10
11.141970459068
 20
1.666739591168
 30
0.0
 11
11.151603856505
 21
1.676372988605
 31
0.0
1001
ACAD
1000
TCW40_DEV_WIDTH
1002
{
1040
-3.0
1002
}
  0
LINE
  5
13F
100
AcDbEntity
  8
0
100
AcDbLine
 10
11.07703539636
 20
1.58412685893
 30
0.0
 11
11.139445077707
 21
1.646536540277
 31
0.0
1001
ACAD
1000
TCW40_DEV_WIDTH
1002
{
1040
-3.0
1002
}
  0
LINE
  5
140
100
AcDbEntity
  8
0
100
AcDbLine
 10
11.219458779745
 20
1.726550242315
 30
0.0
 11
11.258007517007
 21
1.765098979577
 31
0.0
1001
ACAD
1000
TCW40_DEV_WIDTH
1002
{
1040
-3.0
1002
}
  0
LINE
  5
141
100
AcDbEntity
  8
0
100
AcDbLine
 10
11.142096281749
 20
1.64918774432
 30
0.0
 11
11.164578565268
 21
1.671670027838
 31
0.0
1001
ACAD
1000
TCW40_DEV_WIDTH
1002
{
1040
-3.0
1002
}
  0
LINE
  5
142
100
AcDbEntity
  8
0
100
AcDbLine
 10
11.08469140906
 20
1.574105202101
 30
0.0
 11
11.141841418796
 21
1.631255211837
 31
0.0
1001
ACAD
1000
TCW40_DEV_WIDTH
1002
{
1040
-3.0
1002
}
  0
LINE
  5
143
100
AcDbEntity
  8
0
100
AcDbLine
 10
11.233308442924
 20
1.722722235965
 30
0.0
 11
11.27294415338
 21
1.762357946421
 31
0.0
1001
ACAD
1000
TCW40_DEV_WIDTH
1002
{
1040
-3.0
1002
}
  0
LINE
  5
144
100
AcDbEntity
  8
0
100
AcDbLine
 10
11.144111214054
 20
1.633525007095
 30
0.0
 11
11.182256234797
 21
1.671670027838
 31
0.0
1001
ACAD
1000
TCW40_DEV_WIDTH
1002
{
1040
-3.0
1002
}
  0
LINE
  5
145
100
AcDbEntity
  8
0
100
AcDbLine
 10
11.10236907859
 20
1.574105202101
 30
0.0
 11
11.144111214054
 21
1.615847337565
 31
0.0
1001
ACAD
1000
TCW40_DEV_WIDTH
1002
{
1040
-3.0
1002
}
  0
LINE
  5
146
100
AcDbEntity
  8
0
100
AcDbLine
 10
11.248245079298
 20
1.719981202809
 30
0.0
 11
11.284831888949
 21
1.75656801246
 31
0.0
1001
ACAD
1000
TCW40_DEV_WIDTH
1002
{
1040
-3.0
1002
}
  0
LINE
  5
147
100
AcDbEntity
  8
0
100
AcDbLine
 10
11.157249293067
 20
1.628985416578
 30
0.0
 11
11.169912092601
 21
1.641648216113
 31
0.0
1001
ACAD
1000
TCW40_DEV_WIDTH
1002
{
1040
-3.0
1002
}
  0
LINE
  5
148
100
AcDbEntity
  8
0
100
AcDbLine
 10
11.175542697893
 20
1.647278821404
 30
0.0
 11
11.199933904327
 21
1.671670027838
 31
0.0
1001
ACAD
1000
TCW40_DEV_WIDTH
1002
{
1040
-3.0
1002
}
  0
LINE
  5
149
100
AcDbEntity
  8
0
100
AcDbLine
 10
11.169912092601
 20
1.641648216113
 30
0.0
 11
11.175542697893
 21
1.647278821404
 31
0.0
1001
ACAD
1000
TCW40_DEV_WIDTH
1002
{
1040
-3.0
1002
}
  0
LINE
  5
14A
100
AcDbEntity
  8
0
100
AcDbLine
 10
11.120046748119
 20
1.574105202101
 30
0.0
 11
11.144111214054
 21
1.598169668036
 31
0.0
1001
ACAD
1000
TCW40_DEV_WIDTH
1002
{
1040
-3.0
1002
}
  0
LINE
  5
14B
100
AcDbEntity
  8
0
100
AcDbLine
 10
11.260132814867
 20
1.714191268848
 30
0.0
 11
11.296719624518
 21
1.7507780785
 31
0.0
1001
ACAD
1000
TCW40_DEV_WIDTH
1002
{
1040
-3.0
1002
}
  0
LINE
  5
14C
100
AcDbEntity
  8
0
100
AcDbLine
 10
11.171714691542
 20
1.625773145524
 30
0.0
 11
11.180013618047
 21
1.634072072029
 31
0.0
1001
ACAD
1000
TCW40_DEV_WIDTH
1002
{
1040
-3.0
1002
}
  0
LINE
  5
14D
100
AcDbEntity
  8
0
100
AcDbLine
 10
11.193220367422
 20
1.647278821404
 30
0.0
 11
11.217611573857
 21
1.671670027838
 31
0.0
1001
ACAD
1000
TCW40_DEV_WIDTH
1002
{
1040
-3.0
1002
}
  0
LINE
  5
14E
100
AcDbEntity
  8
0
100
AcDbLine
 10
11.180013618047
 20
1.634072072029
 30
0.0
 11
11.193220367422
 21
1.647278821404
 31
0.0
1001
ACAD
1000
TCW40_DEV_WIDTH
1002
{
1040
-3.0
1002
}
  0
LINE
  5
14F
100
AcDbEntity
  8
0
100
AcDbLine
 10
11.137724417649
 20
1.574105202101
 30
0.0
 11
11.144111214054
 21
1.580491998506
 31
0.0
1001
ACAD
1000
TCW40_DEV_WIDTH
1002
{
1040
-3.0
1002
}
  0
LINE
  5
150
100
AcDbEntity
  8
0
100
AcDbLine
 10
11.268971649632
 20
1.705352434084
 30
0.0
 11
11.308462862689
 21
1.744843647141
 31
0.0
1001
ACAD
1000
TCW40_DEV_WIDTH
1002
{
1040
-3.0
1002
}
  0
LINE
  5
151
100
AcDbEntity
  8
0
100
AcDbLine
 10
11.186506830518
 20
1.62288761497
 30
0.0
 11
11.190115143492
 21
1.626495927944
 31
0.0
1001
ACAD
1000
TCW40_DEV_WIDTH
1002
{
1040
-3.0
1002
}
  0
LINE
  5
152
100
AcDbEntity
  8
0
100
AcDbLine
 10
11.210898036952
 20
1.647278821404
 30
0.0
 11
11.241387044995
 21
1.677767829447
 31
0.0
1001
ACAD
1000
TCW40_DEV_WIDTH
1002
{
1040
-3.0
1002
}
  0
LINE
  5
153
100
AcDbEntity
  8
0
100
AcDbLine
 10
11.190115143492
 20
1.626495927944
 30
0.0
 11
11.210898036952
 21
1.647278821404
 31
0.0
1001
ACAD
1000
TCW40_DEV_WIDTH
1002
{
1040
-3.0
1002
}
  0
LINE
  5
154
100
AcDbEntity
  8
0
100
AcDbLine
 10
11.200216668938
 20
1.61891978386
 30
0.0
 11
11.204184500047
 21
1.62288761497
 31
0.0
1001
ACAD
1000
TCW40_DEV_WIDTH
1002
{
1040
-3.0
1002
}
  0
LINE
  5
155
100
AcDbEntity
  8
0
100
AcDbLine
 10
11.351436468746
 20
1.770139583668
 30
0.0
 11
11.356629540262
 21
1.775332655184
 31
0.0
1001
ACAD
1000
TCW40_DEV_WIDTH
1002
{
1040
-3.0
1002
}
  0
LINE
  5
156
100
AcDbEntity
  8
0
100
AcDbLine
 10
11.204184500047
 20
1.62288761497
 30
0.0
 11
11.228575706482
 21
1.647278821404
 31
0.0
1001
ACAD
1000
TCW40_DEV_WIDTH
1002
{
1040
-3.0
1002
}
  0
LINE
  5
157
100
AcDbEntity
  8
0
100
AcDbLine
 10
11.228575706482
 20
1.647278821404
 30
0.0
 11
11.317446194852
 21
1.736149309775
 31
0.0
1001
ACAD
1000
TCW40_DEV_WIDTH
1002
{
1040
-3.0
1002
}
  0
LINE
  5
158
100
AcDbEntity
  8
0
100
AcDbLine
 10
11.210318194383
 20
1.611343639776
 30
0.0
 11
11.221862169577
 21
1.62288761497
 31
0.0
1001
ACAD
1000
TCW40_DEV_WIDTH
1002
{
1040
-3.0
1002
}
  0
LINE
  5
159
100
AcDbEntity
  8
0
100
AcDbLine
 10
11.351436468746
 20
1.752461914138
 30
0.0
 11
11.374307209791
 21
1.775332655184
 31
0.0
1001
ACAD
1000
TCW40_DEV_WIDTH
1002
{
1040
-3.0
1002
}
  0
LINE
  5
15A
100
AcDbEntity
  8
0
100
AcDbLine
 10
11.221862169577
 20
1.62288761497
 30
0.0
 11
11.239312849348
 21
1.64033829474
 31
0.0
1001
ACAD
1000
TCW40_DEV_WIDTH
1002
{
1040
-3.0
1002
}
  0
LINE
  5
15B
100
AcDbEntity
  8
0
100
AcDbLine
 10
11.239312849348
 20
1.64033829474
 30
0.0
 11
11.326285029617
 21
1.72731047501
 31
0.0
1001
ACAD
1000
TCW40_DEV_WIDTH
1002
{
1040
-3.0
1002
}
  0
LINE
  5
15C
100
AcDbEntity
  8
0
100
AcDbLine
 10
11.220419719829
 20
1.603767495692
 30
0.0
 11
11.245637640715
 21
1.628985416578
 31
0.0
1001
ACAD
1000
TCW40_DEV_WIDTH
1002
{
1040
-3.0
1002
}
  0
LINE
  5
15D
100
AcDbEntity
  8
0
100
AcDbLine
 10
11.351436468746
 20
1.734784244609
 30
0.0
 11
11.391984879321
 21
1.775332655184
 31
0.0
1001
ACAD
1000
TCW40_DEV_WIDTH
1002
{
1040
-3.0
1002
}
  0
LINE
  5
15E
100
AcDbEntity
  8
0
100
AcDbLine
 10
11.245637640715
 20
1.628985416578
 30
0.0
 11
11.249675621141
 21
1.633023397004
 31
0.0
1001
ACAD
1000
TCW40_DEV_WIDTH
1002
{
1040
-3.0
1002
}
  0
LINE
  5
15F
100
AcDbEntity
  8
0
100
AcDbLine
 10
11.249675621141
 20
1.633023397004
 30
0.0
 11
11.33314306392
 21
1.716490839783
 31
0.0
1001
ACAD
1000
TCW40_DEV_WIDTH
1002
{
1040
-3.0
1002
}
  0
LINE
  5
160
100
AcDbEntity
  8
0
100
AcDbLine
 10
11.230521245275
 20
1.596191351608
 30
0.0
 11
11.260038392934
 21
1.625708499267
 31
0.0
1001
ACAD
1000
TCW40_DEV_WIDTH
1002
{
1040
-3.0
1002
}
  0
LINE
  5
161
100
AcDbEntity
  8
0
100
AcDbLine
 10
11.351436468746
 20
1.717106575079
 30
0.0
 11
11.409662548851
 21
1.775332655184
 31
0.0
1001
ACAD
1000
TCW40_DEV_WIDTH
1002
{
1040
-3.0
1002
}
  0
LINE
  5
162
100
AcDbEntity
  8
0
100
AcDbLine
 10
11.263315310245
 20
1.628985416578
 30
0.0
 11
11.338323553535
 21
1.703993659868
 31
0.0
1001
ACAD
1000
TCW40_DEV_WIDTH
1002
{
1040
-3.0
1002
}
  0
LINE
  5
163
100
AcDbEntity
  8
0
100
AcDbLine
 10
11.24062277072
 20
1.588615207524
 30
0.0
 11
11.270401164727
 21
1.618393601531
 31
0.0
1001
ACAD
1000
TCW40_DEV_WIDTH
1002
{
1040
-3.0
1002
}
  0
LINE
  5
164
100
AcDbEntity
  8
0
100
AcDbLine
 10
11.351436468746
 20
1.699428905549
 30
0.0
 11
11.42734021838
 21
1.775332655184
 31
0.0
1001
ACAD
1000
TCW40_DEV_WIDTH
1002
{
1040
-3.0
1002
}
  0
LINE
  5
165
100
AcDbEntity
  8
0
100
AcDbLine
 10
11.293188582992
 20
1.641181019795
 30
0.0
 11
11.339240865529
 21
1.687233302332
 31
0.0
1001
ACAD
1000
TCW40_DEV_WIDTH
1002
{
1040
-3.0
1002
}
  0
LINE
  5
166
100
AcDbEntity
  8
0
100
AcDbLine
 10
11.250724296166
 20
1.58103906344
 30
0.0
 11
11.280763936521
 21
1.611078703795
 31
0.0
1001
ACAD
1000
TCW40_DEV_WIDTH
1002
{
1040
-3.0
1002
}
  0
LINE
  5
167
100
AcDbEntity
  8
0
100
AcDbLine
 10
11.443533312672
 20
1.773848079946
 30
0.0
 11
11.44501788791
 21
1.775332655184
 31
0.0
1001
ACAD
1000
TCW40_DEV_WIDTH
1002
{
1040
-3.0
1002
}
  0
LINE
  5
168
100
AcDbEntity
  8
0
100
AcDbLine
 10
11.351436468746
 20
1.68175123602
 30
0.0
 11
11.430707889657
 21
1.761022656931
 31
0.0
1001
ACAD
1000
TCW40_DEV_WIDTH
1002
{
1040
-3.0
1002
}
  0
LINE
  5
169
100
AcDbEntity
  8
0
100
AcDbLine
 10
11.261468104357
 20
1.574105202101
 30
0.0
 11
11.291126708314
 21
1.603763806058
 31
0.0
1001
ACAD
1000
TCW40_DEV_WIDTH
1002
{
1040
-3.0
1002
}
  0
LINE
  5
16A
100
AcDbEntity
  8
0
100
AcDbLine
 10
11.448799001468
 20
1.761436099213
 30
0.0
 11
11.46269555744
 21
1.775332655184
 31
0.0
1001
ACAD
1000
TCW40_DEV_WIDTH
1002
{
1040
-3.0
1002
}
  0
LINE
  5
16B
100
AcDbEntity
  8
0
100
AcDbLine
 10
11.351436468746
 20
1.66407356649
 30
0.0
 11
11.430707889657
 21
1.743344987402
 31
0.0
1001
ACAD
1000
TCW40_DEV_WIDTH
1002
{
1040
-3.0
1002
}
  0
LINE
  5
16C
100
AcDbEntity
  8
0
100
AcDbLine
 10
11.279145773886
 20
1.574105202101
 30
0.0
 11
11.301489480107
 21
1.596448908322
 31
0.0
1001
ACAD
1000
TCW40_DEV_WIDTH
1002
{
1040
-3.0
1002
}
  0
LINE
  5
16D
100
AcDbEntity
  8
0
100
AcDbLine
 10
11.454064690264
 20
1.749024118479
 30
0.0
 11
11.480373226969
 21
1.775332655184
 31
0.0
1001
ACAD
1000
TCW40_DEV_WIDTH
1002
{
1040
-3.0
1002
}
  0
LINE
  5
16E
100
AcDbEntity
  8
0
100
AcDbLine
 10
11.351436468746
 20
1.64639589696
 30
0.0
 11
11.430707889657
 21
1.725667317872
 31
0.0
1001
ACAD
1000
TCW40_DEV_WIDTH
1002
{
1040
-3.0
1002
}
  0
LINE
  5
16F
100
AcDbEntity
  8
0
100
AcDbLine
 10
11.296823443416
 20
1.574105202101
 30
0.0
 11
11.3118522519
 21
1.589134010585
 31
0.0
1001
ACAD
1000
TCW40_DEV_WIDTH
1002
{
1040
-3.0
1002
}
  0
LINE
  5
170
100
AcDbEntity
  8
0
100
AcDbLine
 10
11.45933037906
 20
1.736612137745
 30
0.0
 11
11.498050896499
 21
1.775332655184
 31
0.0
1001
ACAD
1000
TCW40_DEV_WIDTH
1002
{
1040
-3.0
1002
}
  0
LINE
  5
171
100
AcDbEntity
  8
0
100
AcDbLine
 10
11.351436468746
 20
1.628718227431
 30
0.0
 11
11.430707889657
 21
1.707989648342
 31
0.0
1001
ACAD
1000
TCW40_DEV_WIDTH
1002
{
1040
-3.0
1002
}
  0
LINE
  5
172
100
AcDbEntity
  8
0
100
AcDbLine
 10
11.314501112946
 20
1.574105202101
 30
0.0
 11
11.322215023694
 21
1.581819112849
 31
0.0
1001
ACAD
1000
TCW40_DEV_WIDTH
1002
{
1040
-3.0
1002
}
  0
LINE
  5
173
100
AcDbEntity
  8
0
100
AcDbLine
 10
11.464596067857
 20
1.724200157012
 30
0.0
 11
11.511682793668
 21
1.771286882823
 31
0.0
1001
ACAD
1000
TCW40_DEV_WIDTH
1002
{
1040
-3.0
1002
}
  0
LINE
  5
174
100
AcDbEntity
  8
0
100
AcDbLine
 10
11.351436468746
 20
1.611040557901
 30
0.0
 11
11.430707889657
 21
1.690311978813
 31
0.0
1001
ACAD
1000
TCW40_DEV_WIDTH
1002
{
1040
-3.0
1002
}
  0
LINE
  5
175
100
AcDbEntity
  8
0
100
AcDbLine
 10
11.332178782475
 20
1.574105202101
 30
0.0
 11
11.332577795487
 21
1.574504215113
 31
0.0
1001
ACAD
1000
TCW40_DEV_WIDTH
1002
{
1040
-3.0
1002
}
  0
LINE
  5
176
100
AcDbEntity
  8
0
100
AcDbLine
 10
11.469861756653
 20
1.711788176278
 30
0.0
 11
11.516920621677
 21
1.758847041302
 31
0.0
1001
ACAD
1000
TCW40_DEV_WIDTH
1002
{
1040
-3.0
1002
}
  0
LINE
  5
177
100
AcDbEntity
  8
0
100
AcDbLine
 10
11.351436468746
 20
1.593362888371
 30
0.0
 11
11.430707889657
 21
1.672634309283
 31
0.0
1001
ACAD
1000
TCW40_DEV_WIDTH
1002
{
1040
-3.0
1002
}
  0
LINE
  5
178
100
AcDbEntity
  8
0
100
AcDbLine
 10
11.351436468746
 20
1.575685218842
 30
0.0
 11
11.430707889657
 21
1.654956639753
 31
0.0
1001
ACAD
1000
TCW40_DEV_WIDTH
1002
{
1040
-3.0
1002
}
  0
LINE
  5
179
100
AcDbEntity
  8
0
100
AcDbLine
 10
11.475127445449
 20
1.699376195545
 30
0.0
 11
11.522158449686
 21
1.746407199782
 31
0.0
1001
ACAD
1000
TCW40_DEV_WIDTH
1002
{
1040
-3.0
1002
}
  0
LINE
  5
17A
100
AcDbEntity
  8
0
100
AcDbLine
 10
11.361436319926
 20
1.568007400492
 30
0.0
 11
11.430707889657
 21
1.637278970224
 31
0.0
1001
ACAD
1000
TCW40_DEV_WIDTH
1002
{
1040
-3.0
1002
}
  0
LINE
  5
17B
100
AcDbEntity
  8
0
100
AcDbLine
 10
11.480393134245
 20
1.686964214811
 30
0.0
 11
11.527396277694
 21
1.733967358261
 31
0.0
1001
ACAD
1000
TCW40_DEV_WIDTH
1002
{
1040
-3.0
1002
}
  0
LINE
  5
17C
100
AcDbEntity
  8
0
100
AcDbLine
 10
11.379113989456
 20
1.568007400492
 30
0.0
 11
11.430707889657
 21
1.619601300694
 31
0.0
1001
ACAD
1000
TCW40_DEV_WIDTH
1002
{
1040
-3.0
1002
}
  0
LINE
  5
17D
100
AcDbEntity
  8
0
100
AcDbLine
 10
11.485658823041
 20
1.674552234077
 30
0.0
 11
11.532634105703
 21
1.72152751674
 31
0.0
1001
ACAD
1000
TCW40_DEV_WIDTH
1002
{
1040
-3.0
1002
}
  0
LINE
  5
17E
100
AcDbEntity
  8
0
100
AcDbLine
 10
11.396791658985
 20
1.568007400492
 30
0.0
 11
11.430707889657
 21
1.601923631164
 31
0.0
1001
ACAD
1000
TCW40_DEV_WIDTH
1002
{
1040
-3.0
1002
}
  0
LINE
  5
17F
100
AcDbEntity
  8
0
100
AcDbLine
 10
11.490924511837
 20
1.662140253344
 30
0.0
 11
11.537871933712
 21
1.709087675219
 31
0.0
1001
ACAD
1000
TCW40_DEV_WIDTH
1002
{
1040
-3.0
1002
}
  0
LINE
  5
180
100
AcDbEntity
  8
0
100
AcDbLine
 10
11.414469328515
 20
1.568007400492
 30
0.0
 11
11.430707889657
 21
1.584245961635
 31
0.0
1001
ACAD
1000
TCW40_DEV_WIDTH
1002
{
1040
-3.0
1002
}
  0
LINE
  5
181
100
AcDbEntity
  8
0
100
AcDbLine
 10
11.597180174924
 20
1.750718246901
 30
0.0
 11
11.621794583207
 21
1.775332655184
 31
0.0
1001
ACAD
1000
TCW40_DEV_WIDTH
1002
{
1040
-3.0
1002
}
  0
LINE
  5
182
100
AcDbEntity
  8
0
100
AcDbLine
 10
11.496190200633
 20
1.64972827261
 30
0.0
 11
11.543109761721
 21
1.696647833698
 31
0.0
1001
ACAD
1000
TCW40_DEV_WIDTH
1002
{
1040
-3.0
1002
}
  0
LINE
  5
183
100
AcDbEntity
  8
0
100
AcDbLine
 10
11.501455889429
 20
1.637316291877
 30
0.0
 11
11.54834758973
 21
1.684207992177
 31
0.0
1001
ACAD
1000
TCW40_DEV_WIDTH
1002
{
1040
-3.0
1002
}
  0
LINE
  5
184
100
AcDbEntity
  8
0
100
AcDbLine
 10
11.584323687993
 20
1.720184090441
 30
0.0
 11
11.639472252736
 21
1.775332655184
 31
0.0
1001
ACAD
1000
TCW40_DEV_WIDTH
1002
{
1040
-3.0
1002
}
  0
LINE
  5
185
100
AcDbEntity
  8
0
100
AcDbLine
 10
11.506721578225
 20
1.624904311143
 30
0.0
 11
11.553585417738
 21
1.671768150656
 31
0.0
1001
ACAD
1000
TCW40_DEV_WIDTH
1002
{
1040
-3.0
1002
}
  0
LINE
  5
186
100
AcDbEntity
  8
0
100
AcDbLine
 10
11.571467201062
 20
1.68964993398
 30
0.0
 11
11.657149922266
 21
1.775332655184
 31
0.0
1001
ACAD
1000
TCW40_DEV_WIDTH
1002
{
1040
-3.0
1002
}
  0
LINE
  5
187
100
AcDbEntity
  8
0
100
AcDbLine
 10
11.511987267021
 20
1.61249233041
 30
0.0
 11
11.67446695773
 21
1.774972021119
 31
0.0
1001
ACAD
1000
TCW40_DEV_WIDTH
1002
{
1040
-3.0
1002
}
  0
LINE
  5
188
100
AcDbEntity
  8
0
100
AcDbLine
 10
11.517252955817
 20
1.600080349676
 30
0.0
 11
11.661441306498
 21
1.744268700357
 31
0.0
1001
ACAD
1000
TCW40_DEV_WIDTH
1002
{
1040
-3.0
1002
}
  0
LINE
  5
189
100
AcDbEntity
  8
0
100
AcDbLine
 10
11.522518644613
 20
1.587668368942
 30
0.0
 11
11.648415655266
 21
1.713565379595
 31
0.0
1001
ACAD
1000
TCW40_DEV_WIDTH
1002
{
1040
-3.0
1002
}
  0
LINE
  5
18A
100
AcDbEntity
  8
0
100
AcDbLine
 10
11.699011160435
 20
1.764160884764
 30
0.0
 11
11.710182930855
 21
1.775332655184
 31
0.0
1001
ACAD
1000
TCW40_DEV_WIDTH
1002
{
1040
-3.0
1002
}
  0
LINE
  5
18B
100
AcDbEntity
  8
0
100
AcDbLine
 10
11.527784333409
 20
1.575256388209
 30
0.0
 11
11.635390004033
 21
1.682862058832
 31
0.0
1001
ACAD
1000
TCW40_DEV_WIDTH
1002
{
1040
-3.0
1002
}
  0
LINE
  5
18C
100
AcDbEntity
  8
0
100
AcDbLine
 10
11.699011160435
 20
1.746483215234
 30
0.0
 11
11.727860600385
 21
1.775332655184
 31
0.0
1001
ACAD
1000
TCW40_DEV_WIDTH
1002
{
1040
-3.0
1002
}
  0
LINE
  5
18D
100
AcDbEntity
  8
0
100
AcDbLine
 10
11.544310816831
 20
1.574105202101
 30
0.0
 11
11.622364352801
 21
1.65215873807
 31
0.0
1001
ACAD
1000
TCW40_DEV_WIDTH
1002
{
1040
-3.0
1002
}
  0
LINE
  5
18E
100
AcDbEntity
  8
0
100
AcDbLine
 10
11.699011160435
 20
1.728805545704
 30
0.0
 11
11.745538269914
 21
1.775332655184
 31
0.0
1001
ACAD
1000
TCW40_DEV_WIDTH
1002
{
1040
-3.0
1002
}
  0
LINE
  5
18F
100
AcDbEntity
  8
0
100
AcDbLine
 10
11.561988486361
 20
1.574105202101
 30
0.0
 11
11.609338701568
 21
1.621455417308
 31
0.0
1001
ACAD
1000
TCW40_DEV_WIDTH
1002
{
1040
-3.0
1002
}
  0
LINE
  5
190
100
AcDbEntity
  8
0
100
AcDbLine
 10
11.699011160435
 20
1.711127876175
 30
0.0
 11
11.763215939444
 21
1.775332655184
 31
0.0
1001
ACAD
1000
TCW40_DEV_WIDTH
1002
{
1040
-3.0
1002
}
  0
LINE
  5
191
100
AcDbEntity
  8
0
100
AcDbLine
 10
11.579666155891
 20
1.574105202101
 30
0.0
 11
11.596313050336
 21
1.590752096546
 31
0.0
1001
ACAD
1000
TCW40_DEV_WIDTH
1002
{
1040
-3.0
1002
}
  0
LINE
  5
192
100
AcDbEntity
  8
0
100
AcDbLine
 10
11.699011160435
 20
1.693450206645
 30
0.0
 11
11.780893608974
 21
1.775332655184
 31
0.0
1001
ACAD
1000
TCW40_DEV_WIDTH
1002
{
1040
-3.0
1002
}
  0
LINE
  5
193
100
AcDbEntity
  8
0
100
AcDbLine
 10
11.699011160435
 20
1.675772537115
 30
0.0
 11
11.798571278503
 21
1.775332655184
 31
0.0
1001
ACAD
1000
TCW40_DEV_WIDTH
1002
{
1040
-3.0
1002
}
  0
LINE
  5
194
100
AcDbEntity
  8
0
100
AcDbLine
 10
11.699011160435
 20
1.658094867586
 30
0.0
 11
11.759989176521
 21
1.719072883672
 31
0.0
1001
ACAD
1000
TCW40_DEV_WIDTH
1002
{
1040
-3.0
1002
}
  0
LINE
  5
195
100
AcDbEntity
  8
0
100
AcDbLine
 10
11.773564336773
 20
1.732648043924
 30
0.0
 11
11.816248948033
 21
1.775332655184
 31
0.0
1001
ACAD
1000
TCW40_DEV_WIDTH
1002
{
1040
-3.0
1002
}
  0
LINE
  5
196
100
AcDbEntity
  8
0
100
AcDbLine
 10
11.699011160435
 20
1.640417198056
 30
0.0
 11
11.759989176521
 21
1.701395214142
 31
0.0
1001
ACAD
1000
TCW40_DEV_WIDTH
1002
{
1040
-3.0
1002
}
  0
LINE
  5
197
100
AcDbEntity
  8
0
100
AcDbLine
 10
11.791242006303
 20
1.732648043924
 30
0.0
 11
11.833926617563
 21
1.775332655184
 31
0.0
1001
ACAD
1000
TCW40_DEV_WIDTH
1002
{
1040
-3.0
1002
}
  0
LINE
  5
198
100
AcDbEntity
  8
0
100
AcDbLine
 10
11.699011160435
 20
1.622739528526
 30
0.0
 11
11.772332866181
 21
1.696061234272
 31
0.0
1001
ACAD
1000
TCW40_DEV_WIDTH
1002
{
1040
-3.0
1002
}
  0
LINE
  5
199
100
AcDbEntity
  8
0
100
AcDbLine
 10
11.808919675832
 20
1.732648043924
 30
0.0
 11
11.851604287092
 21
1.775332655184
 31
0.0
1001
ACAD
1000
TCW40_DEV_WIDTH
1002
{
1040
-3.0
1002
}
  0
LINE
  5
19A
100
AcDbEntity
  8
0
100
AcDbLine
 10
11.699011160435
 20
1.605061858997
 30
0.0
 11
11.79001053571
 21
1.696061234272
 31
0.0
1001
ACAD
1000
TCW40_DEV_WIDTH
1002
{
1040
-3.0
1002
}
  0
LINE
  5
19B
100
AcDbEntity
  8
0
100
AcDbLine
 10
11.826597345362
 20
1.732648043924
 30
0.0
 11
11.869281956622
 21
1.775332655184
 31
0.0
1001
ACAD
1000
TCW40_DEV_WIDTH
1002
{
1040
-3.0
1002
}
  0
LINE
  5
19C
100
AcDbEntity
  8
0
100
AcDbLine
 10
11.699011160435
 20
1.587384189467
 30
0.0
 11
11.759989176521
 21
1.648362205553
 31
0.0
1001
ACAD
1000
TCW40_DEV_WIDTH
1002
{
1040
-3.0
1002
}
  0
LINE
  5
19D
100
AcDbEntity
  8
0
100
AcDbLine
 10
11.844275014892
 20
1.732648043924
 30
0.0
 11
11.886959626152
 21
1.775332655184
 31
0.0
1001
ACAD
1000
TCW40_DEV_WIDTH
1002
{
1040
-3.0
1002
}
  0
LINE
  5
19E
100
AcDbEntity
  8
0
100
AcDbLine
 10
11.76500359398
 20
1.653376623012
 30
0.0
 11
11.80768820524
 21
1.696061234272
 31
0.0
1001
ACAD
1000
TCW40_DEV_WIDTH
1002
{
1040
-3.0
1002
}
  0
LINE
  5
19F
100
AcDbEntity
  8
0
100
AcDbLine
 10
11.703409842598
 20
1.574105202101
 30
0.0
 11
11.759989176521
 21
1.630684536023
 31
0.0
1001
ACAD
1000
TCW40_DEV_WIDTH
1002
{
1040
-3.0
1002
}
  0
LINE
  5
1A0
100
AcDbEntity
  8
0
100
AcDbLine
 10
11.861952684421
 20
1.732648043924
 30
0.0
 11
11.888043010301
 21
1.758738369803
 31
0.0
1001
ACAD
1000
TCW40_DEV_WIDTH
1002
{
1040
-3.0
1002
}
  0
LINE
  5
1A1
100
AcDbEntity
  8
0
100
AcDbLine
 10
11.78268126351
 20
1.653376623012
 30
0.0
 11
11.82536587477
 21
1.696061234272
 31
0.0
1001
ACAD
1000
TCW40_DEV_WIDTH
1002
{
1040
-3.0
1002
}
  0
LINE
  5
1A2
100
AcDbEntity
  8
0
100
AcDbLine
 10
11.721087512128
 20
1.574105202101
 30
0.0
 11
11.763772123388
 21
1.616789813361
 31
0.0
1001
ACAD
1000
TCW40_DEV_WIDTH
1002
{
1040
-3.0
1002
}
  0
LINE
  5
1A3
100
AcDbEntity
  8
0
100
AcDbLine
 10
11.879630353951
 20
1.732648043924
 30
0.0
 11
11.888043010301
 21
1.741060700274
 31
0.0
1001
ACAD
1000
TCW40_DEV_WIDTH
1002
{
1040
-3.0
1002
}
  0
LINE
  5
1A4
100
AcDbEntity
  8
0
100
AcDbLine
 10
11.800358933039
 20
1.653376623012
 30
0.0
 11
11.843043544299
 21
1.696061234272
 31
0.0
1001
ACAD
1000
TCW40_DEV_WIDTH
1002
{
1040
-3.0
1002
}
  0
LINE
  5
1A5
100
AcDbEntity
  8
0
100
AcDbLine
 10
11.738765181658
 20
1.574105202101
 30
0.0
 11
11.781449792918
 21
1.616789813361
 31
0.0
1001
ACAD
1000
TCW40_DEV_WIDTH
1002
{
1040
-3.0
1002
}
  0
LINE
  5
1A6
100
AcDbEntity
  8
0
100
AcDbLine
 10
11.818036602569
 20
1.653376623012
 30
0.0
 11
11.860721213829
 21
1.696061234272
 31
0.0
1001
ACAD
1000
TCW40_DEV_WIDTH
1002
{
1040
-3.0
1002
}
  0
LINE
  5
1A7
100
AcDbEntity
  8
0
100
AcDbLine
 10
11.756442851187
 20
1.574105202101
 30
0.0
 11
11.799127462447
 21
1.616789813361
 31
0.0
1001
ACAD
1000
TCW40_DEV_WIDTH
1002
{
1040
-3.0
1002
}
  0
LINE
  5
1A8
100
AcDbEntity
  8
0
100
AcDbLine
 10
11.942923224778
 20
1.760585575692
 30
0.0
 11
11.945474701053
 21
1.763137051967
 31
0.0
1001
ACAD
1000
TCW40_DEV_WIDTH
1002
{
1040
-3.0
1002
}
  0
LINE
  5
1A9
100
AcDbEntity
  8
0
100
AcDbLine
 10
11.835714272099
 20
1.653376623012
 30
0.0
 11
11.878398883359
 21
1.696061234272
 31
0.0
1001
ACAD
1000
TCW40_DEV_WIDTH
1002
{
1040
-3.0
1002
}
  0
LINE
  5
1AA
100
AcDbEntity
  8
0
100
AcDbLine
 10
11.918532018344
 20
1.736194369257
 30
0.0
 11
11.939376899445
 21
1.757039250358
 31
0.0
1001
ACAD
1000
TCW40_DEV_WIDTH
1002
{
1040
-3.0
1002
}
  0
LINE
  5
1AB
100
AcDbEntity
  8
0
100
AcDbLine
 10
11.774120520717
 20
1.574105202101
 30
0.0
 11
11.816805131977
 21
1.616789813361
 31
0.0
1001
ACAD
1000
TCW40_DEV_WIDTH
1002
{
1040
-3.0
1002
}
  0
LINE
  5
1AC
100
AcDbEntity
  8
0
100
AcDbLine
 10
11.912434216735
 20
1.712418898119
 30
0.0
 11
11.969250172191
 21
1.769234853575
 31
0.0
1001
ACAD
1000
TCW40_DEV_WIDTH
1002
{
1040
-3.0
1002
}
  0
LINE
  5
1AD
100
AcDbEntity
  8
0
100
AcDbLine
 10
11.853391941628
 20
1.653376623012
 30
0.0
 11
11.888043010301
 21
1.688027691685
 31
0.0
1001
ACAD
1000
TCW40_DEV_WIDTH
1002
{
1040
-3.0
1002
}
  0
LINE
  5
1AE
100
AcDbEntity
  8
0
100
AcDbLine
 10
11.791798190247
 20
1.574105202101
 30
0.0
 11
11.834482801507
 21
1.616789813361
 31
0.0
1001
ACAD
1000
TCW40_DEV_WIDTH
1002
{
1040
-3.0
1002
}
  0
LINE
  5
1AF
100
AcDbEntity
  8
0
100
AcDbLine
 10
11.916143120381
 20
1.698450132235
 30
0.0
 11
11.99302564333
 21
1.775332655184
 31
0.0
1001
ACAD
1000
TCW40_DEV_WIDTH
1002
{
1040
-3.0
1002
}
  0
LINE
  5
1B0
100
AcDbEntity
  8
0
100
AcDbLine
 10
11.871069611158
 20
1.653376623012
 30
0.0
 11
11.888043010301
 21
1.670350022155
 31
0.0
1001
ACAD
1000
TCW40_DEV_WIDTH
1002
{
1040
-3.0
1002
}
  0
LINE
  5
1B1
100
AcDbEntity
  8
0
100
AcDbLine
 10
11.809475859776
 20
1.574105202101
 30
0.0
 11
11.852160471036
 21
1.616789813361
 31
0.0
1001
ACAD
1000
TCW40_DEV_WIDTH
1002
{
1040
-3.0
1002
}
  0
LINE
  5
1B2
100
AcDbEntity
  8
0
100
AcDbLine
 10
11.921933054341
 20
1.686562396666
 30
0.0
 11
12.010703312859
 21
1.775332655184
 31
0.0
1001
ACAD
1000
TCW40_DEV_WIDTH
1002
{
1040
-3.0
1002
}
  0
LINE
  5
1B3
100
AcDbEntity
  8
0
100
AcDbLine
 10
11.827153529306
 20
1.574105202101
 30
0.0
 11
11.869838140566
 21
1.616789813361
 31
0.0
1001
ACAD
1000
TCW40_DEV_WIDTH
1002
{
1040
-3.0
1002
}
  0
LINE
  5
1B4
100
AcDbEntity
  8
0
100
AcDbLine
 10
11.991794172737
 20
1.738745845533
 30
0.0
 11
12.028380982389
 21
1.775332655184
 31
0.0
1001
ACAD
1000
TCW40_DEV_WIDTH
1002
{
1040
-3.0
1002
}
  0
LINE
  5
1B5
100
AcDbEntity
  8
0
100
AcDbLine
 10
11.930771889106
 20
1.677723561901
 30
0.0
 11
11.973412232821
 21
1.720363905616
 31
0.0
1001
ACAD
1000
TCW40_DEV_WIDTH
1002
{
1040
-3.0
1002
}
  0
LINE
  5
1B6
100
AcDbEntity
  8
0
100
AcDbLine
 10
11.844831198836
 20
1.574105202101
 30
0.0
 11
11.887515810096
 21
1.616789813361
 31
0.0
1001
ACAD
1000
TCW40_DEV_WIDTH
1002
{
1040
-3.0
1002
}
  0
LINE
  5
1B7
100
AcDbEntity
  8
0
100
AcDbLine
 10
12.009471842267
 20
1.738745845533
 30
0.0
 11
12.046058651919
 21
1.775332655184
 31
0.0
1001
ACAD
1000
TCW40_DEV_WIDTH
1002
{
1040
-3.0
1002
}
  0
LINE
  5
1B8
100
AcDbEntity
  8
0
100
AcDbLine
 10
11.942396024573
 20
1.671670027838
 30
0.0
 11
11.979510034429
 21
1.708784037695
 31
0.0
1001
ACAD
1000
TCW40_DEV_WIDTH
1002
{
1040
-3.0
1002
}
  0
LINE
  5
1B9
100
AcDbEntity
  8
0
100
AcDbLine
 10
11.862508868365
 20
1.574105202101
 30
0.0
 11
11.888043010301
 21
1.599639344036
 31
0.0
1001
ACAD
1000
TCW40_DEV_WIDTH
1002
{
1040
-3.0
1002
}
  0
LINE
  5
1BA
100
AcDbEntity
  8
0
100
AcDbLine
 10
12.021623177939
 20
1.733219511675
 30
0.0
 11
12.063736321448
 21
1.775332655184
 31
0.0
1001
ACAD
1000
TCW40_DEV_WIDTH
1002
{
1040
-3.0
1002
}
  0
LINE
  5
1BB
100
AcDbEntity
  8
0
100
AcDbLine
 10
11.953975892494
 20
1.66557222623
 30
0.0
 11
11.991705637647
 21
1.703301971382
 31
0.0
1001
ACAD
1000
TCW40_DEV_WIDTH
1002
{
1040
-3.0
1002
}
  0
LINE
  5
1BC
100
AcDbEntity
  8
0
100
AcDbLine
 10
11.880186537895
 20
1.574105202101
 30
0.0
 11
11.888043010301
 21
1.581961674507
 31
0.0
1001
ACAD
1000
TCW40_DEV_WIDTH
1002
{
1040
-3.0
1002
}
  0
LINE
  5
1BD
100
AcDbEntity
  8
0
100
AcDbLine
 10
12.038729379718
 20
1.732648043924
 30
0.0
 11
12.081413990978
 21
1.775332655184
 31
0.0
1001
ACAD
1000
TCW40_DEV_WIDTH
1002
{
1040
-3.0
1002
}
  0
LINE
  5
1BE
100
AcDbEntity
  8
0
100
AcDbLine
 10
11.932650650201
 20
1.626569314407
 30
0.0
 11
11.942923224778
 21
1.636841888984
 31
0.0
1001
ACAD
1000
TCW40_DEV_WIDTH
1002
{
1040
-3.0
1002
}
  0
LINE
  5
1BF
100
AcDbEntity
  8
0
100
AcDbLine
 10
11.965555760415
 20
1.659474424621
 30
0.0
 11
12.008240371675
 21
1.702159035881
 31
0.0
1001
ACAD
1000
TCW40_DEV_WIDTH
1002
{
1040
-3.0
1002
}
  0
LINE
  5
1C0
100
AcDbEntity
  8
0
100
AcDbLine
 10
11.92557958239
 20
1.601820577066
 30
0.0
 11
11.955118827995
 21
1.631359822671
 31
0.0
1001
ACAD
1000
TCW40_DEV_WIDTH
1002
{
1040
-3.0
1002
}
  0
LINE
  5
1C1
100
AcDbEntity
  8
0
100
AcDbLine
 10
12.056407049248
 20
1.732648043924
 30
0.0
 11
12.092993858899
 21
1.769234853575
 31
0.0
1001
ACAD
1000
TCW40_DEV_WIDTH
1002
{
1040
-3.0
1002
}
  0
LINE
  5
1C2
100
AcDbEntity
  8
0
100
AcDbLine
 10
11.979510034429
 20
1.655751029106
 30
0.0
 11
12.025918041205
 21
1.702159035881
 31
0.0
1001
ACAD
1000
TCW40_DEV_WIDTH
1002
{
1040
-3.0
1002
}
  0
LINE
  5
1C3
100
AcDbEntity
  8
0
100
AcDbLine
 10
11.93383528178
 20
1.592398606927
 30
0.0
 11
11.970422091431
 21
1.628985416578
 31
0.0
1001
ACAD
1000
TCW40_DEV_WIDTH
1002
{
1040
-3.0
1002
}
  0
LINE
  5
1C4
100
AcDbEntity
  8
0
100
AcDbLine
 10
12.067986917169
 20
1.726550242315
 30
0.0
 11
12.110671528429
 21
1.769234853575
 31
0.0
1001
ACAD
1000
TCW40_DEV_WIDTH
1002
{
1040
-3.0
1002
}
  0
LINE
  5
1C5
100
AcDbEntity
  8
0
100
AcDbLine
 10
11.994813297866
 20
1.653376623012
 30
0.0
 11
12.043595710734
 21
1.702159035881
 31
0.0
1001
ACAD
1000
TCW40_DEV_WIDTH
1002
{
1040
-3.0
1002
}
  0
LINE
  5
1C6
100
AcDbEntity
  8
0
100
AcDbLine
 10
11.945415149701
 20
1.586300805318
 30
0.0
 11
11.982001959352
 21
1.62288761497
 31
0.0
1001
ACAD
1000
TCW40_DEV_WIDTH
1002
{
1040
-3.0
1002
}
  0
LINE
  5
1C7
100
AcDbEntity
  8
0
100
AcDbLine
 10
12.085664586698
 20
1.726550242315
 30
0.0
 11
12.124054334693
 21
1.76493999031
 31
0.0
1001
ACAD
1000
TCW40_DEV_WIDTH
1002
{
1040
-3.0
1002
}
  0
LINE
  5
1C8
100
AcDbEntity
  8
0
100
AcDbLine
 10
12.009999042472
 20
1.650884698089
 30
0.0
 11
12.060027417802
 21
1.70091307342
 31
0.0
1001
ACAD
1000
TCW40_DEV_WIDTH
1002
{
1040
-3.0
1002
}
  0
LINE
  5
1C9
100
AcDbEntity
  8
0
100
AcDbLine
 10
11.962154724417
 20
1.585362710505
 30
0.0
 11
11.997803439255
 21
1.621011425343
 31
0.0
1001
ACAD
1000
TCW40_DEV_WIDTH
1002
{
1040
-3.0
1002
}
  0
LINE
  5
1CA
100
AcDbEntity
  8
0
100
AcDbLine
 10
12.097244454619
 20
1.720452440707
 30
0.0
 11
12.139929065879
 21
1.763137051967
 31
0.0
1001
ACAD
1000
TCW40_DEV_WIDTH
1002
{
1040
-3.0
1002
}
  0
LINE
  5
1CB
100
AcDbEntity
  8
0
100
AcDbLine
 10
12.024070835316
 20
1.647278821404
 30
0.0
 11
12.072853248185
 21
1.696061234272
 31
0.0
1001
ACAD
1000
TCW40_DEV_WIDTH
1002
{
1040
-3.0
1002
}
  0
LINE
  5
1CC
100
AcDbEntity
  8
0
100
AcDbLine
 10
11.974672687152
 20
1.580203003709
 30
0.0
 11
12.011259496803
 21
1.616789813361
 31
0.0
1001
ACAD
1000
TCW40_DEV_WIDTH
1002
{
1040
-3.0
1002
}
  0
LINE
  5
1CD
100
AcDbEntity
  8
0
100
AcDbLine
 10
12.113661669818
 20
1.719191986376
 30
0.0
 11
12.151508933801
 21
1.757039250358
 31
0.0
1001
ACAD
1000
TCW40_DEV_WIDTH
1002
{
1040
-3.0
1002
}
  0
LINE
  5
1CE
100
AcDbEntity
  8
0
100
AcDbLine
 10
12.041748504846
 20
1.647278821404
 30
0.0
 11
12.084433116106
 21
1.689963432664
 31
0.0
1001
ACAD
1000
TCW40_DEV_WIDTH
1002
{
1040
-3.0
1002
}
  0
LINE
  5
1CF
100
AcDbEntity
  8
0
100
AcDbLine
 10
11.992350356681
 20
1.580203003709
 30
0.0
 11
12.028292447298
 21
1.616145094326
 31
0.0
1001
ACAD
1000
TCW40_DEV_WIDTH
1002
{
1040
-3.0
1002
}
  0
LINE
  5
1D0
100
AcDbEntity
  8
0
100
AcDbLine
 10
12.12650199207
 20
1.714354639098
 30
0.0
 11
12.163088801722
 21
1.75094144875
 31
0.0
1001
ACAD
1000
TCW40_DEV_WIDTH
1002
{
1040
-3.0
1002
}
  0
LINE
  5
1D1
100
AcDbEntity
  8
0
100
AcDbLine
 10
12.059426174376
 20
1.647278821404
 30
0.0
 11
12.102110785636
 21
1.689963432664
 31
0.0
1001
ACAD
1000
TCW40_DEV_WIDTH
1002
{
1040
-3.0
1002
}
  0
LINE
  5
1D2
100
AcDbEntity
  8
0
100
AcDbLine
 10
12.003930224602
 20
1.574105202101
 30
0.0
 11
12.040517034254
 21
1.610692011752
 31
0.0
1001
ACAD
1000
TCW40_DEV_WIDTH
1002
{
1040
-3.0
1002
}
  0
LINE
  5
1D3
100
AcDbEntity
  8
0
100
AcDbLine
 10
12.138081859991
 20
1.70825683749
 30
0.0
 11
12.164467021977
 21
1.734641999475
 31
0.0
1001
ACAD
1000
TCW40_DEV_WIDTH
1002
{
1040
-3.0
1002
}
  0
LINE
  5
1D4
100
AcDbEntity
  8
0
100
AcDbLine
 10
12.074040451232
 20
1.64421542873
 30
0.0
 11
12.113690653557
 21
1.683865631055
 31
0.0
1001
ACAD
1000
TCW40_DEV_WIDTH
1002
{
1040
-3.0
1002
}
  0
LINE
  5
1D5
100
AcDbEntity
  8
0
100
AcDbLine
 10
12.021607894132
 20
1.574105202101
 30
0.0
 11
12.058194703784
 21
1.610692011752
 31
0.0
1001
ACAD
1000
TCW40_DEV_WIDTH
1002
{
1040
-3.0
1002
}
  0
LINE
  5
1D6
100
AcDbEntity
  8
0
100
AcDbLine
 10
12.149955103691
 20
1.70245241166
 30
0.0
 11
12.158574465467
 21
1.711071773436
 31
0.0
1001
ACAD
1000
TCW40_DEV_WIDTH
1002
{
1040
-3.0
1002
}
  0
LINE
  5
1D7
100
AcDbEntity
  8
0
100
AcDbLine
 10
12.088683711827
 20
1.641181019795
 30
0.0
 11
12.131368323087
 21
1.683865631055
 31
0.0
1001
ACAD
1000
TCW40_DEV_WIDTH
1002
{
1040
-3.0
1002
}
  0
LINE
  5
1D8
100
AcDbEntity
  8
0
100
AcDbLine
 10
12.039285563662
 20
1.574105202101
 30
0.0
 11
12.075872373313
 21
1.610692011752
 31
0.0
1001
ACAD
1000
TCW40_DEV_WIDTH
1002
{
1040
-3.0
1002
}
  0
LINE
  5
1D9
100
AcDbEntity
  8
0
100
AcDbLine
 10
12.100263579748
 20
1.635083218187
 30
0.0
 11
12.142948191008
 21
1.677767829447
 31
0.0
1001
ACAD
1000
TCW40_DEV_WIDTH
1002
{
1040
-3.0
1002
}
  0
LINE
  5
1DA
100
AcDbEntity
  8
0
100
AcDbLine
 10
12.056963233191
 20
1.574105202101
 30
0.0
 11
12.093550042843
 21
1.610692011752
 31
0.0
1001
ACAD
1000
TCW40_DEV_WIDTH
1002
{
1040
-3.0
1002
}
  0
LINE
  5
1DB
100
AcDbEntity
  8
0
100
AcDbLine
 10
12.111843447669
 20
1.628985416578
 30
0.0
 11
12.154528058929
 21
1.671670027838
 31
0.0
1001
ACAD
1000
TCW40_DEV_WIDTH
1002
{
1040
-3.0
1002
}
  0
LINE
  5
1DC
100
AcDbEntity
  8
0
100
AcDbLine
 10
12.074640902721
 20
1.574105202101
 30
0.0
 11
12.164276004768
 21
1.663740304148
 31
0.0
1001
ACAD
1000
TCW40_DEV_WIDTH
1002
{
1040
-3.0
1002
}
  0
LINE
  5
1DD
100
AcDbEntity
  8
0
100
AcDbLine
 10
12.092318572251
 20
1.574105202101
 30
0.0
 11
12.174639685904
 21
1.656426315754
 31
0.0
1001
ACAD
1000
TCW40_DEV_WIDTH
1002
{
1040
-3.0
1002
}
  0
LINE
  5
1DE
100
AcDbEntity
  8
0
100
AcDbLine
 10
12.116094043389
 20
1.580203003709
 30
0.0
 11
12.180737487513
 21
1.644846447833
 31
0.0
1001
ACAD
1000
TCW40_DEV_WIDTH
1002
{
1040
-3.0
1002
}
  0
LINE
  5
1DF
100
AcDbEntity
  8
0
100
AcDbLine
 10
12.139869514527
 20
1.586300805318
 30
0.0
 11
12.180737487513
 21
1.627168778303
 31
0.0
1001
ACAD
1000
TCW40_DEV_WIDTH
1002
{
1040
-3.0
1002
}
  0
ENDBLK
  5
1E0
100
AcDbEntity
  8
0
100
AcDbBlockEnd
  0
BLOCK
  5
1E2
100
AcDbEntity
  8
0
100
AcDbBlockBegin
  2
Fuse
 70
           2
 10
0.0
 20
0.0
 30
0.0
  3
Fuse
  1

  0
ATTDEF
  5
1E4
100
AcDbEntity
  8
0
  6
Continuous
100
AcDbText
 10
0.0
 20
0.0
 30
0.0
 40
0.000080200195
  1

  7
_TCW_TXTSTY_1
100
AcDbAttributeDefinition
  3

  2
ESTCODE
 70
           9
  0
ARC
  5
1E5
100
AcDbEntity
  8
0
100
AcDbCircle
 10
0.275
 20
0.0
 30
0.0
 40
0.07500000298
100
AcDbArc
 50
0.0
 51
180.000008651422
1001
ACAD
1000
TCW40_DEV_WIDTH
1002
{
1040
-3.0
1002
}
  0
ARC
  5
1E6
100
AcDbEntity
  8
0
100
AcDbCircle
 10
0.125
 20
0.0
 30
0.0
 40
0.07500000298
100
AcDbArc
 50
180.0
 51
360.0
1001
ACAD
1000
TCW40_DEV_WIDTH
1002
{
1040
-3.0
1002
}
  0
LINE
  5
1E7
100
AcDbEntity
  8
0
100
AcDbLine
 10
0.0
 20
0.0
 30
0.0
 11
0.05
 21
0.0
 31
0.0
1001
ACAD
1000
TCW40_DEV_WIDTH
1002
{
1040
-3.0
1002
}
  0
LINE
  5
1E8
100
AcDbEntity
  8
0
100
AcDbLine
 10
0.35
 20
0.0
 30
0.0
 11
0.4
 21
0.0
 31
0.0
1001
ACAD
1000
TCW40_DEV_WIDTH
1002
{
1040
-3.0
1002
}
  0
ENDBLK
  5
1E9
100
AcDbEntity
  8
0
100
AcDbBlockEnd
  0
BLOCK
  5
1EB
100
AcDbEntity
  8
0
100
AcDbBlockBegin
  2
Lamp 1
 70
           2
 10
0.0
 20
0.0
 30
0.0
  3
Lamp 1
  1

  0
ATTDEF
  5
1EC
100
AcDbEntity
  8
0
  6
Continuous
100
AcDbText
 10
0.0
 20
0.0
 30
0.0
 40
0.000080200195
  1

  7
_TCW_TXTSTY_1
100
AcDbAttributeDefinition
  3

  2
ESTCODE
 70
           9
  0
CIRCLE
  5
1ED
100
AcDbEntity
  8
0
100
AcDbCircle
 10
0.2
 20
0.0
 30
0.0
 40
0.15000000596
  0
ARC
  5
1EE
100
AcDbEntity
  8
0
100
AcDbCircle
 10
0.141667
 20
0.008333
 30
0.0
 40
0.067185476422
100
AcDbArc
 50
-29.744900099515
 51
187.125002446391
1001
ACAD
1000
TCW40_DEV_WIDTH
1002
{
1040
-3.0
1002
}
  0
ARC
  5
1EF
100
AcDbEntity
  8
0
100
AcDbCircle
 10
0.258088
 20
0.009558
 30
0.0
 40
0.067591093481
100
AcDbArc
 50
-8.130099673792
 51
210.749998408061
1001
ACAD
1000
TCW40_DEV_WIDTH
1002
{
1040
-3.0
1002
}
  0
LINE
  5
1F0
100
AcDbEntity
  8
0
100
AcDbLine
 10
0.0
 20
0.0
 30
0.0
 11
0.075
 21
0.0
 31
0.0
1001
ACAD
1000
TCW40_DEV_WIDTH
1002
{
1040
-3.0
1002
}
  0
LINE
  5
1F1
100
AcDbEntity
  8
0
100
AcDbLine
 10
0.325
 20
0.0
 30
0.0
 11
0.4
 21
0.0
 31
0.0
1001
ACAD
1000
TCW40_DEV_WIDTH
1002
{
1040
-3.0
1002
}
  0
ENDBLK
  5
1F2
100
AcDbEntity
  8
0
100
AcDbBlockEnd
  0
BLOCK
  5
1F4
100
AcDbEntity
  8
0
100
AcDbBlockBegin
  2
Transformer
 70
           2
 10
0.0
 20
0.0
 30
0.0
  3
Transformer
  1

  0
ATTDEF
  5
1F5
100
AcDbEntity
  8
0
  6
Continuous
100
AcDbText
 10
0.0
 20
0.0
 30
0.0
 40
0.000102310177
  1

  7
_TCW_TXTSTY_1
100
AcDbAttributeDefinition
  3

  2
ESTCODE
 70
           9
  0
ARC
  5
1F6
100
AcDbEntity
  8
0
100
AcDbCircle
 10
0.229167365204
 20
0.249999990332
 30
0.0
 40
0.054166670889
100
AcDbArc
 50
67.380137181067
 51
292.619896969879
1001
ACAD
1000
TCW40_DEV_WIDTH
1002
{
1040
-3.0
1002
}
  0
ARC
  5
1F7
100
AcDbEntity
  8
0
100
AcDbCircle
 10
0.020833365204
 20
0.249999990332
 30
0.0
 40
0.054166670889
100
AcDbArc
 50
-112.619901978835
 51
112.619901978835
1001
ACAD
1000
TCW40_DEV_WIDTH
1002
{
1040
-3.0
1002
}
  0
ARC
  5
1F8
100
AcDbEntity
  8
0
100
AcDbCircle
 10
0.229167365204
 20
0.349999990332
 30
0.0
 40
0.054166670889
100
AcDbArc
 50
67.380137181067
 51
292.619896969879
1001
ACAD
1000
TCW40_DEV_WIDTH
1002
{
1040
-3.0
1002
}
  0
ARC
  5
1F9
100
AcDbEntity
  8
0
100
AcDbCircle
 10
0.020833365204
 20
0.349999990332
 30
0.0
 40
0.054166670889
100
AcDbArc
 50
-112.619901978835
 51
112.619901978835
1001
ACAD
1000
TCW40_DEV_WIDTH
1002
{
1040
-3.0
1002
}
  0
ARC
  5
1FA
100
AcDbEntity
  8
0
100
AcDbCircle
 10
0.229167365204
 20
0.049999990332
 30
0.0
 40
0.054166670889
100
AcDbArc
 50
67.380137181067
 51
292.619896969879
1001
ACAD
1000
TCW40_DEV_WIDTH
1002
{
1040
-3.0
1002
}
  0
ARC
  5
1FB
100
AcDbEntity
  8
0
100
AcDbCircle
 10
0.020833365204
 20
0.049999990332
 30
0.0
 40
0.054166670889
100
AcDbArc
 50
-112.619901978835
 51
112.619901978835
1001
ACAD
1000
TCW40_DEV_WIDTH
1002
{
1040
-3.0
1002
}
  0
ARC
  5
1FC
100
AcDbEntity
  8
0
100
AcDbCircle
 10
0.229167365204
 20
0.149999990332
 30
0.0
 40
0.054166670889
100
AcDbArc
 50
67.380137181067
 51
292.619896969879
1001
ACAD
1000
TCW40_DEV_WIDTH
1002
{
1040
-3.0
1002
}
  0
LINE
  5
1FD
100
AcDbEntity
  8
0
100
AcDbLine
 10
0.150000365204
 20
0.399999990332
 30
0.0
 11
0.150000365204
 21
-0.000000009668
 31
0.0
1001
ACAD
1000
TCW40_DEV_WIDTH
1002
{
1040
-3.0
1002
}
  0
LINE
  5
1FE
100
AcDbEntity
  8
0
100
AcDbLine
 10
0.100000365204
 20
-0.000000009668
 30
0.0
 11
0.100000365204
 21
0.399999990332
 31
0.0
1001
ACAD
1000
TCW40_DEV_WIDTH
1002
{
1040
-3.0
1002
}
  0
ARC
  5
1FF
100
AcDbEntity
  8
0
100
AcDbCircle
 10
0.020833365204
 20
0.149999990332
 30
0.0
 40
0.054166670889
100
AcDbArc
 50
-112.619901978835
 51
112.619901978835
1001
ACAD
1000
TCW40_DEV_WIDTH
1002
{
1040
-3.0
1002
}
  0
ENDBLK
  5
200
100
AcDbEntity
  8
0
100
AcDbBlockEnd
  0
BLOCK
  5
202
100
AcDbEntity
  8
0
100
AcDbBlockBegin
  2
3-Phase Delta
 70
           2
 10
0.0
 20
0.0
 30
0.0
  3
3-Phase Delta
  1

  0
ATTDEF
  5
203
100
AcDbEntity
  8
0
  6
Continuous
100
AcDbText
 10
0.0
 20
0.0
 30
0.0
 40
0.000080200195
  1

  7
_TCW_TXTSTY_1
100
AcDbAttributeDefinition
  3

  2
ESTCODE
 70
           9
  0
LINE
  5
204
100
AcDbEntity
  8
0
100
AcDbLine
 10
0.16218
 20
-0.109395
 30
0.0
 11
0.0
 21
0.2
 31
0.0
1001
ACAD
1000
TCW40_DEV_WIDTH
1002
{
1040
-3.0
1002
}
  0
LINE
  5
205
100
AcDbEntity
  8
0
100
AcDbLine
 10
-0.16219
 20
-0.109395
 30
0.0
 11
0.16218
 21
-0.109395
 31
0.0
1001
ACAD
1000
TCW40_DEV_WIDTH
1002
{
1040
-3.0
1002
}
  0
LINE
  5
206
100
AcDbEntity
  8
0
100
AcDbLine
 10
0.0
 20
0.2
 30
0.0
 11
-0.16219
 21
-0.109395
 31
0.0
1001
ACAD
1000
TCW40_DEV_WIDTH
1002
{
1040
-3.0
1002
}
  0
LINE
  5
207
100
AcDbEntity
  8
0
100
AcDbLine
 10
0.07492
 20
-0.185437
 30
0.0
 11
0.0
 21
-0.2
 31
0.0
1001
ACAD
1000
TCW40_DEV_WIDTH
1002
{
1040
-3.0
1002
}
  0
LINE
  5
208
100
AcDbEntity
  8
0
100
AcDbLine
 10
0.13893
 20
-0.143868
 30
0.0
 11
0.07492
 21
-0.185437
 31
0.0
1001
ACAD
1000
TCW40_DEV_WIDTH
1002
{
1040
-3.0
1002
}
  0
LINE
  5
209
100
AcDbEntity
  8
0
100
AcDbLine
 10
0.18543
 20
-0.074921
 30
0.0
 11
0.13893
 21
-0.143868
 31
0.0
1001
ACAD
1000
TCW40_DEV_WIDTH
1002
{
1040
-3.0
1002
}
  0
LINE
  5
20A
100
AcDbEntity
  8
0
100
AcDbLine
 10
0.2
 20
-0.000001
 30
0.0
 11
0.18543
 21
-0.074921
 31
0.0
1001
ACAD
1000
TCW40_DEV_WIDTH
1002
{
1040
-3.0
1002
}
  0
LINE
  5
20B
100
AcDbEntity
  8
0
100
AcDbLine
 10
0.07492
 20
0.185437
 30
0.0
 11
0.0
 21
0.2
 31
0.0
1001
ACAD
1000
TCW40_DEV_WIDTH
1002
{
1040
-3.0
1002
}
  0
LINE
  5
20C
100
AcDbEntity
  8
0
100
AcDbLine
 10
0.13893
 20
0.143868
 30
0.0
 11
0.07492
 21
0.185437
 31
0.0
1001
ACAD
1000
TCW40_DEV_WIDTH
1002
{
1040
-3.0
1002
}
  0
LINE
  5
20D
100
AcDbEntity
  8
0
100
AcDbLine
 10
0.18543
 20
0.074921
 30
0.0
 11
0.13893
 21
0.143868
 31
0.0
1001
ACAD
1000
TCW40_DEV_WIDTH
1002
{
1040
-3.0
1002
}
  0
LINE
  5
20E
100
AcDbEntity
  8
0
100
AcDbLine
 10
0.2
 20
0.0
 30
0.0
 11
0.18543
 21
0.074921
 31
0.0
1001
ACAD
1000
TCW40_DEV_WIDTH
1002
{
1040
-3.0
1002
}
  0
LINE
  5
20F
100
AcDbEntity
  8
0
100
AcDbLine
 10
-0.07492
 20
-0.185437
 30
0.0
 11
0.0
 21
-0.2
 31
0.0
1001
ACAD
1000
TCW40_DEV_WIDTH
1002
{
1040
-3.0
1002
}
  0
LINE
  5
210
100
AcDbEntity
  8
0
100
AcDbLine
 10
-0.13893
 20
-0.143868
 30
0.0
 11
-0.07492
 21
-0.185437
 31
0.0
1001
ACAD
1000
TCW40_DEV_WIDTH
1002
{
1040
-3.0
1002
}
  0
LINE
  5
211
100
AcDbEntity
  8
0
100
AcDbLine
 10
-0.18544
 20
-0.074921
 30
0.0
 11
-0.13893
 21
-0.143868
 31
0.0
1001
ACAD
1000
TCW40_DEV_WIDTH
1002
{
1040
-3.0
1002
}
  0
LINE
  5
212
100
AcDbEntity
  8
0
100
AcDbLine
 10
-0.2
 20
-0.000001
 30
0.0
 11
-0.18544
 21
-0.074921
 31
0.0
1001
ACAD
1000
TCW40_DEV_WIDTH
1002
{
1040
-3.0
1002
}
  0
LINE
  5
213
100
AcDbEntity
  8
0
100
AcDbLine
 10
-0.07492
 20
0.185437
 30
0.0
 11
0.0
 21
0.2
 31
0.0
1001
ACAD
1000
TCW40_DEV_WIDTH
1002
{
1040
-3.0
1002
}
  0
LINE
  5
214
100
AcDbEntity
  8
0
100
AcDbLine
 10
-0.13893
 20
0.143868
 30
0.0
 11
-0.07492
 21
0.185437
 31
0.0
1001
ACAD
1000
TCW40_DEV_WIDTH
1002
{
1040
-3.0
1002
}
  0
LINE
  5
215
100
AcDbEntity
  8
0
100
AcDbLine
 10
-0.18544
 20
0.074921
 30
0.0
 11
-0.13893
 21
0.143868
 31
0.0
1001
ACAD
1000
TCW40_DEV_WIDTH
1002
{
1040
-3.0
1002
}
  0
LINE
  5
216
100
AcDbEntity
  8
0
100
AcDbLine
 10
-0.2
 20
0.0
 30
0.0
 11
-0.18544
 21
0.074921
 31
0.0
1001
ACAD
1000
TCW40_DEV_WIDTH
1002
{
1040
-3.0
1002
}
  0
ENDBLK
  5
217
100
AcDbEntity
  8
0
100
AcDbBlockEnd
  0
BLOCK
  5
219
100
AcDbEntity
  8
0
100
AcDbBlockBegin
  2
Inductor
 70
           2
 10
0.0
 20
0.0
 30
0.0
  3
Inductor
  1

  0
ATTDEF
  5
21A
100
AcDbEntity
  8
0
  6
Continuous
100
AcDbText
 10
0.0
 20
0.0
 30
0.0
 40
0.000080200195
  1

  7
_TCW_TXTSTY_1
100
AcDbAttributeDefinition
  3

  2
ESTCODE
 70
           9
  0
ARC
  5
21B
100
AcDbEntity
  8
0
100
AcDbCircle
 10
0.2
 20
0.0375
 30
0.0
 40
0.0625
100
AcDbArc
 50
-36.869900724673
 51
216.869902545906
1001
ACAD
1000
TCW40_DEV_WIDTH
1002
{
1040
-3.0
1002
}
  0
ARC
  5
21C
100
AcDbEntity
  8
0
100
AcDbCircle
 10
0.1
 20
0.0375
 30
0.0
 40
0.0625
100
AcDbArc
 50
-36.869900724673
 51
216.869902545906
1001
ACAD
1000
TCW40_DEV_WIDTH
1002
{
1040
-3.0
1002
}
  0
LINE
  5
21D
100
AcDbEntity
  8
0
100
AcDbLine
 10
0.0
 20
0.0
 30
0.0
 11
0.05
 21
0.0
 31
0.0
1001
ACAD
1000
TCW40_DEV_WIDTH
1002
{
1040
-3.0
1002
}
  0
ARC
  5
21E
100
AcDbEntity
  8
0
100
AcDbCircle
 10
0.3
 20
0.0375
 30
0.0
 40
0.0625
100
AcDbArc
 50
-36.869900724673
 51
216.869902545906
1001
ACAD
1000
TCW40_DEV_WIDTH
1002
{
1040
-3.0
1002
}
  0
LINE
  5
21F
100
AcDbEntity
  8
0
100
AcDbLine
 10
0.35
 20
0.0
 30
0.0
 11
0.4
 21
0.0
 31
0.0
1001
ACAD
1000
TCW40_DEV_WIDTH
1002
{
1040
-3.0
1002
}
  0
ENDBLK
  5
220
100
AcDbEntity
  8
0
100
AcDbBlockEnd
  0
BLOCK
  5
222
100
AcDbEntity
  8
0
100
AcDbBlockBegin
  2
Resistor
 70
           2
 10
0.0
 20
0.0
 30
0.0
  3
Resistor
  1

  0
ATTDEF
  5
223
100
AcDbEntity
  8
0
  6
Continuous
100
AcDbText
 10
0.0
 20
0.0
 30
0.0
 40
0.000080200195
  1

  7
_TCW_TXTSTY_1
100
AcDbAttributeDefinition
  3

  2
ESTCODE
 70
           9
  0
LWPOLYLINE
  5
224
100
AcDbEntity
  8
0
100
AcDbPolyline
 90
       10
 70
           0
 10
0.0
 20
0.0
 10
0.05
 20
0.0
 10
0.075
 20
0.025
 10
0.125
 20
-0.025
 10
0.175
 20
0.025
 10
0.225
 20
-0.025
 10
0.275
 20
0.025
 10
0.325
 20
-0.025
 10
0.35
 20
0.0
 10
0.4
 20
0.0
1001
ACAD
1000
TCW40_DEV_WIDTH
1002
{
1040
-3.0
1002
}
  0
ENDBLK
  5
225
100
AcDbEntity
  8
0
100
AcDbBlockEnd
  0
BLOCK
  5
227
100
AcDbEntity
  8
0
100
AcDbBlockBegin
  2
Capacitor
 70
           2
 10
0.0
 20
0.0
 30
0.0
  3
Capacitor
  1

  0
ATTDEF
  5
228
100
AcDbEntity
  8
0
  6
Continuous
100
AcDbText
 10
0.0
 20
0.0
 30
0.0
 40
0.000080200195
  1

  7
_TCW_TXTSTY_1
100
AcDbAttributeDefinition
  3

  2
ESTCODE
 70
           9
  0
LINE
  5
229
100
AcDbEntity
  8
0
100
AcDbLine
 10
0.15
 20
-0.1
 30
0.0
 11
0.15
 21
0.1
 31
0.0
1001
ACAD
1000
TCW40_DEV_WIDTH
1002
{
1040
-3.0
1002
}
  0
LINE
  5
22A
100
AcDbEntity
  8
0
100
AcDbLine
 10
0.15
 20
0.0
 30
0.0
 11
0.0
 21
0.0
 31
0.0
1001
ACAD
1000
TCW40_DEV_WIDTH
1002
{
1040
-3.0
1002
}
  0
ARC
  5
22B
100
AcDbEntity
  8
0
100
AcDbCircle
 10
0.4375
 20
0.0
 30
0.0
 40
0.21250000596
100
AcDbArc
 50
151.927504048475
 51
208.072495951525
1001
ACAD
1000
TCW40_DEV_WIDTH
1002
{
1040
-3.0
1002
}
  0
LINE
  5
22C
100
AcDbEntity
  8
0
100
AcDbLine
 10
0.225
 20
0.0
 30
0.0
 11
0.4
 21
0.0
 31
0.0
1001
ACAD
1000
TCW40_DEV_WIDTH
1002
{
1040
-3.0
1002
}
  0
ENDBLK
  5
22D
100
AcDbEntity
  8
0
100
AcDbBlockEnd
  0
BLOCK
  5
22F
100
AcDbEntity
  8
0
100
AcDbBlockBegin
  2
Locking Switch Open
 70
           2
 10
0.0
 20
0.0
 30
0.0
  3
Locking Switch Open
  1

  0
ATTDEF
  5
230
100
AcDbEntity
  8
0
  6
Continuous
100
AcDbText
 10
0.0
 20
0.0
 30
0.0
 40
0.000082214357
  1

  7
_TCW_TXTSTY_1
100
AcDbAttributeDefinition
  3

  2
ESTCODE
 70
           9
  0
ARC
  5
231
100
AcDbEntity
  8
0
100
AcDbCircle
 10
0.35
 20
0.0
 30
0.0
 40
0.025000000373
100
AcDbArc
 50
90.0
 51
179.99989572593
1001
ACAD
1000
TCW40_DEV_WIDTH
1002
{
1040
-3.0
1002
}
  0
ARC
  5
232
100
AcDbEntity
  8
0
100
AcDbCircle
 10
0.35
 20
0.0
 30
0.0
 40
0.025000000373
100
AcDbArc
 50
0.000126585896
 51
90.000002504478
1001
ACAD
1000
TCW40_DEV_WIDTH
1002
{
1040
-3.0
1002
}
  0
ARC
  5
233
100
AcDbEntity
  8
0
100
AcDbCircle
 10
0.35
 20
0.0
 30
0.0
 40
0.025000000373
100
AcDbArc
 50
-179.99989572593
 51
-90.000002504478
1001
ACAD
1000
TCW40_DEV_WIDTH
1002
{
1040
-3.0
1002
}
  0
ARC
  5
234
100
AcDbEntity
  8
0
100
AcDbCircle
 10
0.35
 20
0.0
 30
0.0
 40
0.025000000373
100
AcDbArc
 50
-90.0
 51
-0.000099999997
1001
ACAD
1000
TCW40_DEV_WIDTH
1002
{
1040
-3.0
1002
}
  0
ARC
  5
235
100
AcDbEntity
  8
0
100
AcDbCircle
 10
0.0
 20
0.0
 30
0.0
 40
0.025000000373
100
AcDbArc
 50
90.0
 51
179.99989572593
1001
ACAD
1000
TCW40_DEV_WIDTH
1002
{
1040
-3.0
1002
}
  0
ARC
  5
236
100
AcDbEntity
  8
0
100
AcDbCircle
 10
0.0
 20
0.0
 30
0.0
 40
0.025000000373
100
AcDbArc
 50
0.000126585896
 51
90.000002504478
1001
ACAD
1000
TCW40_DEV_WIDTH
1002
{
1040
-3.0
1002
}
  0
ARC
  5
237
100
AcDbEntity
  8
0
100
AcDbCircle
 10
0.0
 20
0.0
 30
0.0
 40
0.025000000373
100
AcDbArc
 50
-179.99989572593
 51
-90.000002504478
1001
ACAD
1000
TCW40_DEV_WIDTH
1002
{
1040
-3.0
1002
}
  0
ARC
  5
238
100
AcDbEntity
  8
0
100
AcDbCircle
 10
0.0
 20
0.0
 30
0.0
 40
0.025000000373
100
AcDbArc
 50
-90.0
 51
-0.000099999997
1001
ACAD
1000
TCW40_DEV_WIDTH
1002
{
1040
-3.0
1002
}
  0
LINE
  5
239
100
AcDbEntity
  8
0
100
AcDbLine
 10
0.023056
 20
0.009223
 30
0.0
 11
0.375
 21
0.1
 31
0.0
1001
ACAD
1000
TCW40_DEV_WIDTH
1002
{
1040
-3.0
1002
}
  0
ENDBLK
  5
23A
100
AcDbEntity
  8
0
100
AcDbBlockEnd
  0
BLOCK
  5
23C
100
AcDbEntity
  8
0
100
AcDbBlockBegin
  2
Power Ground
 70
           2
 10
0.0
 20
0.0
 30
0.0
  3
Power Ground
  1

  0
ATTDEF
  5
23D
100
AcDbEntity
  8
0
  6
Continuous
100
AcDbText
 10
0.0
 20
0.0
 30
0.0
 40
0.000042114255
  1

  7
_TCW_TXTSTY_1
100
AcDbAttributeDefinition
  3

  2
ESTCODE
 70
           9
  0
LINE
  5
23E
100
AcDbEntity
  8
0
100
AcDbLine
 10
-0.05
 20
-0.1
 30
0.0
 11
0.05
 21
-0.1
 31
0.0
1001
ACAD
1000
TCW40_DEV_WIDTH
1002
{
1040
-3.0
1002
}
  0
LINE
  5
23F
100
AcDbEntity
  8
0
100
AcDbLine
 10
0.075
 20
-0.05
 30
0.0
 11
-0.075
 21
-0.05
 31
0.0
1001
ACAD
1000
TCW40_DEV_WIDTH
1002
{
1040
-3.0
1002
}
  0
LINE
  5
240
100
AcDbEntity
  8
0
100
AcDbLine
 10
-0.1
 20
0.0
 30
0.0
 11
0.1
 21
0.0
 31
0.0
1001
ACAD
1000
TCW40_DEV_WIDTH
1002
{
1040
-3.0
1002
}
  0
ENDBLK
  5
241
100
AcDbEntity
  8
0
100
AcDbBlockEnd
  0
BLOCK
  5
243
100
AcDbEntity
  8
0
100
AcDbBlockBegin
  2
A$C03040EC0
 70
           0
 10
0.0
 20
0.0
 30
0.0
  3
A$C03040EC0
  1

  0
INSERT
  5
244
100
AcDbEntity
  8
0
100
AcDbBlockReference
  2
Resistor
 10
0.0
 20
0.024999997276
 30
0.0
  0
ENDBLK
  5
245
100
AcDbEntity
  8
0
100
AcDbBlockEnd
  0
BLOCK
  5
247
100
AcDbEntity
  8
0
100
AcDbBlockBegin
  2
A$C6A19271A
 70
           0
 10
0.0
 20
0.0
 30
0.0
  3
A$C6A19271A
  1

  0
CIRCLE
  5
248
100
AcDbEntity
  8
0
100
AcDbCircle
 10
0.024999990254
 20
0.025000003034
 30
0.0
 40
0.025000000373
  0
ENDBLK
  5
249
100
AcDbEntity
  8
0
100
AcDbBlockEnd
  0
BLOCK
  5
24B
100
AcDbEntity
  8
0
100
AcDbBlockBegin
  2
Ohm Symbol
 70
           2
 10
0.0
 20
0.0
 30
0.0
  3
Ohm Symbol
  1

  0
ATTDEF
  5
24C
100
AcDbEntity
  8
0
  6
Continuous
100
AcDbText
 10
0.0
 20
0.0
 30
0.0
 40
0.000018539426
  1

  7
_TCW_TXTSTY_1
100
AcDbAttributeDefinition
  3

  2
ESTCODE
 70
           9
  0
LINE
  5
24D
100
AcDbEntity
  8
0
100
AcDbLine
 10
0.05
 20
0.0
 30
0.0
 11
0.07
 21
0.0
 31
0.0
1001
ACAD
1000
TCW40_DEV_WIDTH
1002
{
1040
-3.0
1002
}
  0
LINE
  5
24E
100
AcDbEntity
  8
0
100
AcDbLine
 10
0.0
 20
0.0
 30
0.0
 11
0.02
 21
0.0
 31
0.0
1001
ACAD
1000
TCW40_DEV_WIDTH
1002
{
1040
-3.0
1002
}
  0
ARC
  5
24F
100
AcDbEntity
  8
0
100
AcDbCircle
 10
0.035
 20
0.033393
 30
0.0
 40
0.036607138813
100
AcDbArc
 50
-65.810498238095
 51
245.810500059328
1001
ACAD
1000
TCW40_DEV_WIDTH
1002
{
1040
-3.0
1002
}
  0
ENDBLK
  5
250
100
AcDbEntity
  8
0
100
AcDbBlockEnd
  0
BLOCK
  5
252
100
AcDbEntity
  8
0
100
AcDbBlockBegin
  2
Rheostat
 70
           2
 10
0.0
 20
0.0
 30
0.0
  3
Rheostat
  1

  0
ATTDEF
  5
253
100
AcDbEntity
  8
0
  6
Continuous
100
AcDbText
 10
0.0
 20
0.0
 30
0.0
 40
0.000080200195
  1

  7
_TCW_TXTSTY_1
100
AcDbAttributeDefinition
  3

  2
ESTCODE
 70
           9
  0
LINE
  5
254
100
AcDbEntity
  8
0
100
AcDbLine
 10
0.350001
 20
0.0
 30
0.0
 11
0.400002
 21
0.0
 31
0.0
1001
ACAD
1000
TCW40_DEV_WIDTH
1002
{
1040
-3.0
1002
}
  0
LINE
  5
255
100
AcDbEntity
  8
0
100
AcDbLine
 10
0.350001
 20
0.0
 30
0.0
 11
0.325
 21
-0.025001
 31
0.0
1001
ACAD
1000
TCW40_DEV_WIDTH
1002
{
1040
-3.0
1002
}
  0
LINE
  5
256
100
AcDbEntity
  8
0
100
AcDbLine
 10
0.275001
 20
0.025
 30
0.0
 11
0.325
 21
-0.025001
 31
0.0
1001
ACAD
1000
TCW40_DEV_WIDTH
1002
{
1040
-3.0
1002
}
  0
LINE
  5
257
100
AcDbEntity
  8
0
100
AcDbLine
 10
0.2
 20
0.075
 30
0.0
 11
0.2
 21
0.15
 31
0.0
1001
ACAD
1000
TCW40_DEV_WIDTH
1002
{
1040
-3.0
1002
}
  0
LINE
  5
258
100
AcDbEntity
  8
0
100
AcDbLine
 10
0.175001
 20
0.075
 30
0.0
 11
0.225001
 21
0.075
 31
0.0
1001
ACAD
1000
TCW40_DEV_WIDTH
1002
{
1040
-3.0
1002
}
  0
LINE
  5
259
100
AcDbEntity
  8
0
100
AcDbLine
 10
0.175001
 20
0.025
 30
0.0
 11
0.225001
 21
-0.025001
 31
0.0
1001
ACAD
1000
TCW40_DEV_WIDTH
1002
{
1040
-3.0
1002
}
  0
LINE
  5
25A
100
AcDbEntity
  8
0
100
AcDbLine
 10
0.125
 20
-0.025001
 30
0.0
 11
0.175001
 21
0.025
 31
0.0
1001
ACAD
1000
TCW40_DEV_WIDTH
1002
{
1040
-3.0
1002
}
  0
LINE
  5
25B
100
AcDbEntity
  8
0
100
AcDbLine
 10
0.225001
 20
0.075
 30
0.0
 11
0.2
 21
0.0
 31
0.0
1001
ACAD
1000
TCW40_DEV_WIDTH
1002
{
1040
-3.0
1002
}
  0
LINE
  5
25C
100
AcDbEntity
  8
0
100
AcDbLine
 10
0.2
 20
0.0
 30
0.0
 11
0.175001
 21
0.075
 31
0.0
1001
ACAD
1000
TCW40_DEV_WIDTH
1002
{
1040
-3.0
1002
}
  0
LINE
  5
25D
100
AcDbEntity
  8
0
100
AcDbLine
 10
0.225001
 20
-0.025001
 30
0.0
 11
0.275001
 21
0.025
 31
0.0
1001
ACAD
1000
TCW40_DEV_WIDTH
1002
{
1040
-3.0
1002
}
  0
LINE
  5
25E
100
AcDbEntity
  8
0
100
AcDbLine
 10
0.050001
 20
0.0
 30
0.0
 11
0.075
 21
0.025
 31
0.0
1001
ACAD
1000
TCW40_DEV_WIDTH
1002
{
1040
-3.0
1002
}
  0
LINE
  5
25F
100
AcDbEntity
  8
0
100
AcDbLine
 10
0.0
 20
0.0
 30
0.0
 11
0.050001
 21
0.0
 31
0.0
1001
ACAD
1000
TCW40_DEV_WIDTH
1002
{
1040
-3.0
1002
}
  0
LINE
  5
260
100
AcDbEntity
  8
0
100
AcDbLine
 10
0.075
 20
0.025
 30
0.0
 11
0.125
 21
-0.025001
 31
0.0
1001
ACAD
1000
TCW40_DEV_WIDTH
1002
{
1040
-3.0
1002
}
  0
ENDBLK
  5
261
100
AcDbEntity
  8
0
100
AcDbBlockEnd
  0
BLOCK
  5
263
100
AcDbEntity
  8
0
100
AcDbBlockBegin
  2
A$C08006EF5
 70
           0
 10
0.0
 20
0.0
 30
0.0
  3
A$C08006EF5
  1

  0
LWPOLYLINE
  5
264
100
AcDbEntity
  8
0
100
AcDbPolyline
 90
        4
 70
           1
 10
1.199999993192
 20
1.474999996337
 10
-0.000000006808
 20
1.474999996337
 10
-0.000000006808
 20
0.174999996337
 10
1.199999993192
 20
0.174999996337
1001
ACAD
1000
TCW40_DEV_WIDTH
1002
{
1040
-3.0
1002
}
  0
LINE
  5
265
100
AcDbEntity
  8
0
100
AcDbLine
 10
0.599999993192
 20
1.574999996337
 30
0.0
 11
0.599999993192
 21
0.874999996337
 31
0.0
1001
ACAD
1000
TCW40_DEV_WIDTH
1002
{
1040
-3.0
1002
}
  0
LINE
  5
266
100
AcDbEntity
  8
0
100
AcDbLine
 10
0.999999993192
 20
1.574999996337
 30
0.0
 11
0.999999993192
 21
0.874999996337
 31
0.0
1001
ACAD
1000
TCW40_DEV_WIDTH
1002
{
1040
-3.0
1002
}
  0
INSERT
  5
267
100
AcDbEntity
  8
0
100
AcDbBlockReference
  2
Rheostat
 10
0.599999993192
 20
1.174999996337
 30
0.0
  0
TEXT
  5
269
100
AcDbEntity
  8
0
  6
Continuous
100
AcDbText
 10
0.699999993192
 20
-0.025000003663
 30
0.0
 40
0.075
  1
L1
  7
_TCW_TXTSTY_2
100
AcDbText
1001
TCAD
1000
TCW40_TEXT
1002
{
1000
txt.shx
1070
           0
1070
        1025
1002
}
  0
TEXT
  5
26A
100
AcDbEntity
  8
0
  6
Continuous
100
AcDbText
 10
0.677056417113
 20
1.009082394457
 30
0.0
 40
0.075
  1
15k
  7
_TCW_TXTSTY_2
100
AcDbText
1001
TCAD
1000
TCW40_TEXT
1002
{
1000
txt.shx
1070
           0
1070
        1025
1002
}
  0
LINE
  5
26B
100
AcDbEntity
  8
0
100
AcDbLine
 10
0.599999993192
 20
0.474999996337
 30
0.0
 11
0.599999993192
 21
0.074999996337
 31
0.0
1001
ACAD
1000
TCW40_DEV_WIDTH
1002
{
1040
-3.0
1002
}
  0
LINE
  5
26C
100
AcDbEntity
  8
0
100
AcDbLine
 10
0.199999993192
 20
0.474999996337
 30
0.0
 11
0.199999993192
 21
0.074999996337
 31
0.0
1001
ACAD
1000
TCW40_DEV_WIDTH
1002
{
1040
-3.0
1002
}
  0
TEXT
  5
26D
100
AcDbEntity
  8
0
  6
Continuous
100
AcDbText
 10
0.299999993192
 20
-0.025000003663
 30
0.0
 40
0.075
  1
P2
  7
_TCW_TXTSTY_2
100
AcDbText
1001
TCAD
1000
TCW40_TEXT
1002
{
1000
txt.shx
1070
           0
1070
        1025
1002
}
  0
CIRCLE
  5
26E
100
AcDbEntity
  8
0
100
AcDbCircle
 10
0.199999993192
 20
0.049999996337
 30
0.0
 40
0.025000000373
  0
CIRCLE
  5
26F
100
AcDbEntity
  8
0
100
AcDbCircle
 10
0.599999993192
 20
0.049999996337
 30
0.0
 40
0.025000000373
  0
LINE
  5
270
100
AcDbEntity
  8
0
100
AcDbLine
 10
0.199999993192
 20
1.174999996337
 30
0.0
 11
0.599999993192
 21
1.174999996337
 31
0.0
1001
ACAD
1000
TCW40_DEV_WIDTH
1002
{
1040
-3.0
1002
}
  0
LINE
  5
271
100
AcDbEntity
  8
0
100
AcDbLine
 10
0.099999988126
 20
0.474999997623
 30
0.0
 11
0.175423403372
 21
0.854581642007
 31
0.0
1001
ACAD
1000
TCW40_DEV_WIDTH
1002
{
1040
-3.0
1002
}
  0
CIRCLE
  5
272
100
AcDbEntity
  8
0
100
AcDbCircle
 10
0.199999988126
 20
0.499999997623
 30
0.0
 40
0.025000000373
  0
LINE
  5
273
100
AcDbEntity
  8
0
100
AcDbLine
 10
0.199999993192
 20
0.874999996337
 30
0.0
 11
0.199999993192
 21
1.174999996337
 31
0.0
1001
ACAD
1000
TCW40_DEV_WIDTH
1002
{
1040
-3.0
1002
}
  0
CIRCLE
  5
274
100
AcDbEntity
  8
0
100
AcDbCircle
 10
0.199999988126
 20
0.849999995819
 30
0.0
 40
0.025000000373
  0
LINE
  5
275
100
AcDbEntity
  8
0
100
AcDbLine
 10
0.499999988126
 20
0.474999997623
 30
0.0
 11
0.575423403372
 21
0.854581642007
 31
0.0
1001
ACAD
1000
TCW40_DEV_WIDTH
1002
{
1040
-3.0
1002
}
  0
CIRCLE
  5
276
100
AcDbEntity
  8
0
100
AcDbCircle
 10
0.599999988126
 20
0.499999997623
 30
0.0
 40
0.025000000373
  0
CIRCLE
  5
277
100
AcDbEntity
  8
0
100
AcDbCircle
 10
0.599999988126
 20
0.849999995819
 30
0.0
 40
0.025000000373
  0
LINE
  5
278
100
AcDbEntity
  8
0
100
AcDbLine
 10
0.999999993192
 20
0.474999996337
 30
0.0
 11
0.999999993192
 21
0.074999996337
 31
0.0
1001
ACAD
1000
TCW40_DEV_WIDTH
1002
{
1040
-3.0
1002
}
  0
CIRCLE
  5
279
100
AcDbEntity
  8
0
100
AcDbCircle
 10
0.999999993192
 20
0.049999996337
 30
0.0
 40
0.025000000373
  0
TEXT
  5
27A
100
AcDbEntity
  8
0
  6
Continuous
100
AcDbText
 10
1.099999993192
 20
-0.025000003663
 30
0.0
 40
0.075
  1
L2
  7
_TCW_TXTSTY_2
100
AcDbText
1001
TCAD
1000
TCW40_TEXT
1002
{
1000
txt.shx
1070
           0
1070
        1025
1002
}
  0
LINE
  5
27B
100
AcDbEntity
  8
0
100
AcDbLine
 10
0.899999996723
 20
0.474999996337
 30
0.0
 11
0.975423411968
 21
0.854581640721
 31
0.0
1001
ACAD
1000
TCW40_DEV_WIDTH
1002
{
1040
-3.0
1002
}
  0
CIRCLE
  5
27C
100
AcDbEntity
  8
0
100
AcDbCircle
 10
0.999999996723
 20
0.499999996337
 30
0.0
 40
0.025000000373
  0
CIRCLE
  5
27D
100
AcDbEntity
  8
0
100
AcDbCircle
 10
0.999999996723
 20
0.849999994533
 30
0.0
 40
0.025000000373
  0
INSERT
  5
27E
100
AcDbEntity
  8
0
100
AcDbBlockReference
  2
Ohm Symbol
 10
0.874965595097
 20
1.035514288424
 30
0.0
  0
TEXT
  5
27F
100
AcDbEntity
  8
0
  6
Continuous
100
AcDbText
 10
0.699999993192
 20
1.574999996337
 30
0.0
 40
0.075
  1
H1
  7
_TCW_TXTSTY_2
100
AcDbText
1001
TCAD
1000
TCW40_TEXT
1002
{
1000
txt.shx
1070
           0
1070
        1025
1002
}
  0
CIRCLE
  5
280
100
AcDbEntity
  8
0
100
AcDbCircle
 10
0.599999993192
 20
1.599999996337
 30
0.0
 40
0.025000000373
  0
CIRCLE
  5
281
100
AcDbEntity
  8
0
100
AcDbCircle
 10
0.999999993192
 20
1.599999996337
 30
0.0
 40
0.025000000373
  0
TEXT
  5
282
100
AcDbEntity
  8
0
  6
Continuous
100
AcDbText
 10
1.099999993192
 20
1.574999996337
 30
0.0
 40
0.075
  1
H2
  7
_TCW_TXTSTY_2
100
AcDbText
1001
TCAD
1000
TCW40_TEXT
1002
{
1000
txt.shx
1070
           0
1070
        1025
1002
}
  0
ENDBLK
  5
283
100
AcDbEntity
  8
0
100
AcDbBlockEnd
  0
BLOCK
  5
285
100
AcDbEntity
  8
0
100
AcDbBlockBegin
  2
A$C26A43B7E
 70
           0
 10
0.0
 20
0.0
 30
0.0
  3
A$C26A43B7E
  1

  0
LINE
  5
286
100
AcDbEntity
  8
0
100
AcDbLine
 10
0.09999998706
 20
-0.000000005112
 30
0.0
 11
0.100000001573
 21
0.099999993245
 31
0.0
1001
ACAD
1000
TCW40_DEV_WIDTH
1002
{
1040
-3.0
1002
}
  0
LINE
  5
287
100
AcDbEntity
  8
0
100
AcDbLine
 10
0.49999998706
 20
-0.000000005112
 30
0.0
 11
0.500000001573
 21
0.099999993245
 31
0.0
1001
ACAD
1000
TCW40_DEV_WIDTH
1002
{
1040
-3.0
1002
}
  0
ARC
  5
288
100
AcDbEntity
  8
0
100
AcDbCircle
 10
0.500000001573
 20
0.199999993245
 30
0.0
 40
0.10000000149
100
AcDbArc
 50
90.0
 51
269.999997495522
1001
ACAD
1000
TCW40_DEV_WIDTH
1002
{
1040
-3.0
1002
}
  0
ARC
  5
289
100
AcDbEntity
  8
0
100
AcDbCircle
 10
0.100000001573
 20
0.199999993245
 30
0.0
 40
0.10000000149
100
AcDbArc
 50
90.0
 51
269.999997495522
1001
ACAD
1000
TCW40_DEV_WIDTH
1002
{
1040
-3.0
1002
}
  0
ENDBLK
  5
28A
100
AcDbEntity
  8
0
100
AcDbBlockEnd
  0
BLOCK
  5
28C
100
AcDbEntity
  8
0
100
AcDbBlockBegin
  2
A$C06E97278
 70
           0
 10
0.0
 20
0.0
 30
0.0
  3
A$C06E97278
  1

  0
LINE
  5
28D
100
AcDbEntity
  8
0
100
AcDbLine
 10
0.100000001735
 20
0.700000000871
 30
0.0
 11
0.100000001735
 21
0.799999998358
 31
0.0
1001
ACAD
1000
TCW40_DEV_WIDTH
1002
{
1040
-3.0
1002
}
  0
LINE
  5
28E
100
AcDbEntity
  8
0
100
AcDbLine
 10
0.100000014513
 20
-0.000000001642
 30
0.0
 11
0.100000014513
 21
0.199999998358
 31
0.0
1001
ACAD
1000
TCW40_DEV_WIDTH
1002
{
1040
-3.0
1002
}
  0
LINE
  5
28F
100
AcDbEntity
  8
0
100
AcDbLine
 10
0.100000024216
 20
0.399999999615
 30
0.0
 11
0.100000024216
 21
0.499999999615
 31
0.0
1001
ACAD
1000
TCW40_DEV_WIDTH
1002
{
1040
-3.0
1002
}
  0
ARC
  5
290
100
AcDbEntity
  8
0
100
AcDbCircle
 10
0.100000014513
 20
0.299999998358
 30
0.0
 40
0.10000000149
100
AcDbArc
 50
90.0
 51
269.999997495522
1001
ACAD
1000
TCW40_DEV_WIDTH
1002
{
1040
-3.0
1002
}
  0
ARC
  5
291
100
AcDbEntity
  8
0
100
AcDbCircle
 10
0.100000024216
 20
0.599999999615
 30
0.0
 40
0.10000000149
100
AcDbArc
 50
90.0
 51
269.999997495522
1001
ACAD
1000
TCW40_DEV_WIDTH
1002
{
1040
-3.0
1002
}
  0
ARC
  5
292
100
AcDbEntity
  8
0
100
AcDbCircle
 10
0.100000011438
 20
1.199999999615
 30
0.0
 40
0.10000000149
100
AcDbArc
 50
90.0
 51
269.999997495522
1001
ACAD
1000
TCW40_DEV_WIDTH
1002
{
1040
-3.0
1002
}
  0
ARC
  5
293
100
AcDbEntity
  8
0
100
AcDbCircle
 10
0.100000001735
 20
0.899999998358
 30
0.0
 40
0.10000000149
100
AcDbArc
 50
90.0
 51
269.999997495522
1001
ACAD
1000
TCW40_DEV_WIDTH
1002
{
1040
-3.0
1002
}
  0
LINE
  5
294
100
AcDbEntity
  8
0
100
AcDbLine
 10
0.100000011438
 20
0.999999999615
 30
0.0
 11
0.100000011438
 21
1.099999999615
 31
0.0
1001
ACAD
1000
TCW40_DEV_WIDTH
1002
{
1040
-3.0
1002
}
  0
ENDBLK
  5
295
100
AcDbEntity
  8
0
100
AcDbBlockEnd
  0
BLOCK
  5
297
100
AcDbEntity
  8
0
100
AcDbBlockBegin
  2
A$C3881095A
 70
           0
 10
0.0
 20
0.0
 30
0.0
  3
A$C3881095A
  1

  0
LWPOLYLINE
  5
298
100
AcDbEntity
  8
0
100
AcDbPolyline
 90
        4
 70
           1
 10
0.000000001627
 20
1.800000004483
 10
1.200000001627
 20
1.800000004483
 10
1.200000001627
 20
0.000000004483
 10
0.000000001627
 20
0.000000004483
1001
ACAD
1000
TCW40_DEV_WIDTH
1002
{
1040
-3.0
1002
}
  0
LINE
  5
299
100
AcDbEntity
  8
0
100
AcDbLine
 10
0.400000001627
 20
1.800000004483
 30
0.0
 11
0.400000001627
 21
3.000000004483
 31
0.0
1001
ACAD
1000
TCW40_DEV_WIDTH
1002
{
1040
-3.0
1002
}
  0
LINE
  5
29A
100
AcDbEntity
  8
0
100
AcDbLine
 10
0.800000001627
 20
3.000000004483
 30
0.0
 11
0.800000001627
 21
1.800000004483
 31
0.0
1001
ACAD
1000
TCW40_DEV_WIDTH
1002
{
1040
-3.0
1002
}
  0
TEXT
  5
29B
100
AcDbEntity
  8
0
  6
Continuous
100
AcDbText
 10
0.100000001627
 20
1.300000004483
 30
0.0
 40
0.075
  1
1
  7
_TCW_TXTSTY_2
100
AcDbText
1001
TCAD
1000
TCW40_TEXT
1002
{
1000
txt.shx
1070
           0
1070
        1025
1002
}
  0
ENDBLK
  5
29C
100
AcDbEntity
  8
0
100
AcDbBlockEnd
  0
BLOCK
  5
29E
100
AcDbEntity
  8
0
100
AcDbBlockBegin
  2
A$C7C7A5DC8
 70
           0
 10
0.0
 20
0.0
 30
0.0
  3
A$C7C7A5DC8
  1

  0
TEXT
  5
29F
100
AcDbEntity
  8
0
  6
Continuous
100
AcDbText
 10
0.0
 20
-0.024999997923
 30
0.0
 40
0.075
  1
3
  7
_TCW_TXTSTY_2
100
AcDbText
1001
TCAD
1000
TCW40_TEXT
1002
{
1000
txt.shx
1070
           0
1070
        1025
1002
}
  0
ENDBLK
  5
2A0
100
AcDbEntity
  8
0
100
AcDbBlockEnd
  0
BLOCK
  5
2A2
100
AcDbEntity
  8
0
100
AcDbBlockBegin
  2
A$C4FB532C2
 70
           0
 10
0.0
 20
0.0
 30
0.0
  3
A$C4FB532C2
  1

  0
LINE
  5
2A3
100
AcDbEntity
  8
0
100
AcDbLine
 10
-0.000000011067
 20
0.899999998243
 30
0.0
 11
7.899999988933
 21
0.899999998243
 31
0.0
1001
ACAD
1000
TCW40_DEV_WIDTH
1002
{
1040
-3.0
1002
}
  0
LINE
  5
2A4
100
AcDbEntity
  8
0
100
AcDbLine
 10
0.399999988933
 20
0.599999998243
 30
0.0
 11
7.899999988933
 21
0.599999998243
 31
0.0
1001
ACAD
1000
TCW40_DEV_WIDTH
1002
{
1040
-3.0
1002
}
  0
LINE
  5
2A5
100
AcDbEntity
  8
0
100
AcDbLine
 10
3.399999988933
 20
0.299999998243
 30
0.0
 11
7.899999988933
 21
0.299999998243
 31
0.0
1001
ACAD
1000
TCW40_DEV_WIDTH
1002
{
1040
-3.0
1002
}
  0
LINE
  5
2A6
100
AcDbEntity
  8
0
100
AcDbLine
 10
6.399999988933
 20
-0.000000001757
 30
0.0
 11
7.899999988933
 21
-0.000000001757
 31
0.0
1001
ACAD
1000
TCW40_DEV_WIDTH
1002
{
1040
-3.0
1002
}
  0
CIRCLE
  5
2A7
100
AcDbEntity
  8
0
100
AcDbCircle
 10
8.840536342616
 20
1.083146054612
 30
0.0
 40
0.025000000373
  0
ENDBLK
  5
2A8
100
AcDbEntity
  8
0
100
AcDbBlockEnd
  0
BLOCK
  5
2AA
100
AcDbEntity
  8
0
100
AcDbBlockBegin
  2
A$C581B394E
 70
           0
 10
0.0
 20
0.0
 30
0.0
  3
A$C581B394E
  1

  0
TEXT
  5
2AB
100
AcDbEntity
  8
0
  6
Continuous
100
AcDbText
 10
0.0
 20
-0.025000002877
 30
0.0
 40
0.075
  1
1
  7
_TCW_TXTSTY_2
100
AcDbText
1001
TCAD
1000
TCW40_TEXT
1002
{
1000
txt.shx
1070
           0
1070
        1025
1002
}
  0
TEXT
  5
2AC
100
AcDbEntity
  8
0
  6
Continuous
100
AcDbText
 10
0.191746627716
 20
-0.025000002877
 30
0.0
 40
0.075
  1
2
  7
_TCW_TXTSTY_2
100
AcDbText
1001
TCAD
1000
TCW40_TEXT
1002
{
1000
txt.shx
1070
           0
1070
        1025
1002
}
  0
TEXT
  5
2AD
100
AcDbEntity
  8
0
  6
Continuous
100
AcDbText
 10
0.399640324072
 20
-0.025000002877
 30
0.0
 40
0.075
  1
3
  7
_TCW_TXTSTY_2
100
AcDbText
1001
TCAD
1000
TCW40_TEXT
1002
{
1000
txt.shx
1070
           0
1070
        1025
1002
}
  0
TEXT
  5
2AE
100
AcDbEntity
  8
0
  6
Continuous
100
AcDbText
 10
0.595423724549
 20
-0.025000002877
 30
0.0
 40
0.075
  1
4
  7
_TCW_TXTSTY_2
100
AcDbText
1001
TCAD
1000
TCW40_TEXT
1002
{
1000
txt.shx
1070
           0
1070
        1025
1002
}
  0
ENDBLK
  5
2AF
100
AcDbEntity
  8
0
100
AcDbBlockEnd
  0
BLOCK
  5
2B1
100
AcDbEntity
  8
0
100
AcDbBlockBegin
  2
A$C25FD3304
 70
           0
 10
0.0
 20
0.0
 30
0.0
  3
A$C25FD3304
  1

  0
TEXT
  5
2B2
100
AcDbEntity
  8
0
  6
Continuous
100
AcDbText
 10
0.0
 20
-0.025000005448
 30
0.0
 40
0.075
  1
10
  7
_TCW_TXTSTY_2
100
AcDbText
1001
TCAD
1000
TCW40_TEXT
1002
{
1000
txt.shx
1070
           0
1070
        1025
1002
}
  0
ENDBLK
  5
2B3
100
AcDbEntity
  8
0
100
AcDbBlockEnd
  0
BLOCK
  5
2B5
100
AcDbEntity
  8
0
100
AcDbBlockBegin
  2
A$C79987CD6
 70
           0
 10
0.0
 20
0.0
 30
0.0
  3
A$C79987CD6
  1

  0
TEXT
  5
2B6
100
AcDbEntity
  8
0
  6
Continuous
100
AcDbText
 10
0.0
 20
-0.025000005448
 30
0.0
 40
0.075
  1
10
  7
_TCW_TXTSTY_2
100
AcDbText
1001
TCAD
1000
TCW40_TEXT
1002
{
1000
txt.shx
1070
           0
1070
        1025
1002
}
  0
ENDBLK
  5
2B7
100
AcDbEntity
  8
0
100
AcDbBlockEnd
  0
BLOCK
  5
2B9
100
AcDbEntity
  8
0
100
AcDbBlockBegin
  2
A$C16C43627
 70
           0
 10
0.0
 20
0.0
 30
0.0
  3
A$C16C43627
  1

  0
LINE
  5
2BA
100
AcDbEntity
  8
0
100
AcDbLine
 10
0.049999989811
 20
0.249999990322
 30
0.0
 11
0.049999989811
 21
-0.000000009678
 31
0.0
1001
ACAD
1000
TCW40_DEV_WIDTH
1002
{
1040
-3.0
1002
}
  0
ARC
  5
2BB
100
AcDbEntity
  8
0
100
AcDbCircle
 10
0.049999989811
 20
0.299999990322
 30
0.0
 40
0.050000000745
100
AcDbArc
 50
90.0
 51
269.999997495522
1001
ACAD
1000
TCW40_DEV_WIDTH
1002
{
1040
-3.0
1002
}
  0
ENDBLK
  5
2BC
100
AcDbEntity
  8
0
100
AcDbBlockEnd
  0
BLOCK
  5
2BE
100
AcDbEntity
  8
0
100
AcDbBlockBegin
  2
A$C4FC73B81
 70
           0
 10
0.0
 20
0.0
 30
0.0
  3
A$C4FC73B81
  1

  0
ARC
  5
2BF
100
AcDbEntity
  8
0
100
AcDbCircle
 10
0.049999989811
 20
0.049999991069
 30
0.0
 40
0.050000000745
100
AcDbArc
 50
90.0
 51
269.999997495522
1001
ACAD
1000
TCW40_DEV_WIDTH
1002
{
1040
-3.0
1002
}
  0
ENDBLK
  5
2C0
100
AcDbEntity
  8
0
100
AcDbBlockEnd
  0
BLOCK
  5
2C2
100
AcDbEntity
  8
0
100
AcDbBlockBegin
  2
A$C2EB3516B
 70
           0
 10
0.0
 20
0.0
 30
0.0
  3
A$C2EB3516B
  1

  0
LINE
  5
2C3
100
AcDbEntity
  8
0
100
AcDbLine
 10
0.050000001218
 20
0.10000000892
 30
0.0
 11
0.050000001218
 21
0.30000000892
 31
0.0
1001
ACAD
1000
TCW40_DEV_WIDTH
1002
{
1040
-3.0
1002
}
  0
ARC
  5
2C4
100
AcDbEntity
  8
0
100
AcDbCircle
 10
0.050000002038
 20
0.05000000892
 30
0.0
 40
0.050000000745
100
AcDbArc
 50
90.0
 51
269.999997495522
1001
ACAD
1000
TCW40_DEV_WIDTH
1002
{
1040
-3.0
1002
}
  0
ENDBLK
  5
2C5
100
AcDbEntity
  8
0
100
AcDbBlockEnd
  0
BLOCK
  5
2C7
100
AcDbEntity
  8
0
100
AcDbBlockBegin
  2
A$C40435073
 70
           0
 10
0.0
 20
0.0
 30
0.0
  3
A$C40435073
  1

  0
LINE
  5
2C8
100
AcDbEntity
  8
0
100
AcDbLine
 10
5.27500000286
 20
0.400000008386
 30
0.0
 11
6.12500000286
 21
0.400000008386
 31
0.0
1001
ACAD
1000
TCW40_DEV_WIDTH
1002
{
1040
-3.0
1002
}
  0
LINE
  5
2C9
100
AcDbEntity
  8
0
100
AcDbLine
 10
5.27500000286
 20
0.000000008386
 30
0.0
 11
7.02500000286
 21
0.000000008386
 31
0.0
1001
ACAD
1000
TCW40_DEV_WIDTH
1002
{
1040
-3.0
1002
}
  0
INSERT
  5
2CA
100
AcDbEntity
  8
0
100
AcDbBlockReference
  2
Fuse
 10
0.07500000286
 20
4.400000008386
 30
0.0
 50
-90.0
  0
ENDBLK
  5
2CB
100
AcDbEntity
  8
0
100
AcDbBlockEnd
  0
BLOCK
  5
2CD
100
AcDbEntity
  8
0
100
AcDbBlockBegin
  2
Thermal Overload Switch
 70
           2
 10
0.0
 20
0.0
 30
0.0
  3
Thermal Overload Switch
  1

  0
ATTDEF
  5
2CE
100
AcDbEntity
  8
0
  6
Continuous
100
AcDbText
 10
0.0
 20
0.0
 30
0.0
 40
0.000120117188
  1

  7
_TCW_TXTSTY_1
100
AcDbAttributeDefinition
  3

  2
ESTCODE
 70
           9
  0
LINE
  5
2CF
100
AcDbEntity
  8
0
100
AcDbLine
 10
0.450001
 20
0.0
 30
0.0
 11
0.6
 21
0.0
 31
0.0
1001
ACAD
1000
TCW40_DEV_WIDTH
1002
{
1040
-3.0
1002
}
  0
ARC
  5
2D0
100
AcDbEntity
  8
0
100
AcDbCircle
 10
0.375
 20
0.0
 30
0.0
 40
0.07500000298
100
AcDbArc
 50
0.0
 51
269.999997495522
1001
ACAD
1000
TCW40_DEV_WIDTH
1002
{
1040
-3.0
1002
}
  0
LINE
  5
2D1
100
AcDbEntity
  8
0
100
AcDbLine
 10
0.150001
 20
0.0
 30
0.0
 11
0.0
 21
0.0
 31
0.0
1001
ACAD
1000
TCW40_DEV_WIDTH
1002
{
1040
-3.0
1002
}
  0
ARC
  5
2D2
100
AcDbEntity
  8
0
100
AcDbCircle
 10
0.225
 20
0.0
 30
0.0
 40
0.07500000298
100
AcDbArc
 50
180.0
 51
449.999961523343
1001
ACAD
1000
TCW40_DEV_WIDTH
1002
{
1040
-3.0
1002
}
  0
ENDBLK
  5
2D3
100
AcDbEntity
  8
0
100
AcDbBlockEnd
  0
BLOCK
  5
2D5
100
AcDbEntity
  8
0
100
AcDbBlockBegin
  2
Momentary Switch NO
 70
           2
 10
0.0
 20
0.0
 30
0.0
  3
Momentary Switch NO
  1

  0
ATTDEF
  5
2D6
100
AcDbEntity
  8
0
  6
Continuous
100
AcDbText
 10
0.0
 20
0.0
 30
0.0
 40
0.000060058589
  1

  7
_TCW_TXTSTY_1
100
AcDbAttributeDefinition
  3

  2
ESTCODE
 70
           9
  0
CIRCLE
  5
2D7
100
AcDbEntity
  8
0
100
AcDbCircle
 10
0.25
 20
0.0
 30
0.0
 40
0.025000000373
  0
CIRCLE
  5
2D8
100
AcDbEntity
  8
0
100
AcDbCircle
 10
0.0
 20
0.0
 30
0.0
 40
0.025000000373
  0
LINE
  5
2D9
100
AcDbEntity
  8
0
100
AcDbLine
 10
-0.025
 20
-0.075
 30
0.0
 11
0.275
 21
-0.075
 31
0.0
1001
ACAD
1000
TCW40_DEV_WIDTH
1002
{
1040
-3.0
1002
}
  0
LINE
  5
2DA
100
AcDbEntity
  8
0
100
AcDbLine
 10
0.125
 20
-0.075
 30
0.0
 11
0.125
 21
0.025
 31
0.0
1001
ACAD
1000
TCW40_DEV_WIDTH
1002
{
1040
-3.0
1002
}
  0
ENDBLK
  5
2DB
100
AcDbEntity
  8
0
100
AcDbBlockEnd
  0
BLOCK
  5
2DD
100
AcDbEntity
  8
0
100
AcDbBlockBegin
  2
Block_2
 70
           2
 10
0.0
 20
0.0
 30
0.0
  3
Block_2
  1

  0
ATTDEF
  5
2DE
100
AcDbEntity
  8
0
  6
Continuous
100
AcDbText
 10
0.0
 20
0.0
 30
0.0
 40
0.000042114255
  1

  7
_TCW_TXTSTY_1
100
AcDbAttributeDefinition
  3

  2
ESTCODE
 70
           9
  0
LINE
  5
2DF
100
AcDbEntity
  8
0
100
AcDbLine
 10
-0.05
 20
-0.1
 30
0.0
 11
0.05
 21
-0.1
 31
0.0
1001
ACAD
1000
TCW40_DEV_WIDTH
1002
{
1040
-3.0
1002
}
  0
LINE
  5
2E0
100
AcDbEntity
  8
0
100
AcDbLine
 10
0.075
 20
-0.05
 30
0.0
 11
-0.075
 21
-0.05
 31
0.0
1001
ACAD
1000
TCW40_DEV_WIDTH
1002
{
1040
-3.0
1002
}
  0
LINE
  5
2E1
100
AcDbEntity
  8
0
100
AcDbLine
 10
-0.1
 20
0.0
 30
0.0
 11
0.1
 21
0.0
 31
0.0
1001
ACAD
1000
TCW40_DEV_WIDTH
1002
{
1040
-3.0
1002
}
  0
ENDBLK
  5
2E2
100
AcDbEntity
  8
0
100
AcDbBlockEnd
  0
BLOCK
  5
2E8
100
AcDbEntity
  8
0
100
AcDbBlockBegin
  2
*D34
 70
           1
 10
0.0
 20
0.0
 30
0.0
  3
*D34
  1

  0
LINE
  5
2E9
100
AcDbEntity
  8
0
  6
Continuous
 62
           7
100
AcDbLine
 10
-1.494514199723
 20
-5.926534272891
 30
0.0
 11
2.791671937516
 21
-5.926534272891
 31
0.0
1001
ACAD
1000
TCW40_DEV_WIDTH
1002
{
1040
-3.0
1002
}
1001
TCAD
1000
TCW_ATTRIBUTE
1002
{
1000
5.51
1002
}
  0
LINE
  5
2EA
100
AcDbEntity
  8
0
  6
Continuous
 62
           7
100
AcDbLine
 10
2.514864150965
 20
-0.410534272891
 30
0.0
 11
2.391671937516
 21
-0.410534272891
 31
0.0
1001
ACAD
1000
TCW40_DEV_WIDTH
1002
{
1040
-3.0
1002
}
1001
TCAD
1000
TCW_ATTRIBUTE
1002
{
1000
5.51
1002
}
  0
LWPOLYLINE
  5
2EB
100
AcDbEntity
  8
0
  6
Continuous
 62
           7
100
AcDbPolyline
 90
        4
 70
           0
 10
2.591671937516
 20
-5.486534272891
 10
2.591671937516
 20
-5.486534272891
 10
2.591671937516
 20
-5.486534272891
 10
2.591671937516
 20
-3.168534272891
1001
ACAD
1000
TCW40_DEV_WIDTH
1002
{
1040
-3.0
1002
}
1001
TCAD
1000
TCW_ATTRIBUTE
1002
{
1000
5.51
1002
}
  0
LWPOLYLINE
  5
2EC
100
AcDbEntity
  8
0
  6
Continuous
 62
           7
100
AcDbPolyline
 90
        4
 70
           0
 10
2.591671937516
 20
-0.850534272891
 10
2.591671937516
 20
-0.850534272891
 10
2.591671937516
 20
-0.850534272891
 10
2.591671937516
 20
-3.168534272891
1001
ACAD
1000
TCW40_DEV_WIDTH
1002
{
1040
-3.0
1002
}
1001
TCAD
1000
TCW_ATTRIBUTE
1002
{
1000
5.51
1002
}
  0
LWPOLYLINE
  5
2EE
102
{ACAD_REACTORS
330
2ED
102
}
100
AcDbEntity
  8
0
  6
Continuous
 62
           7
100
AcDbPolyline
 90
        4
 70
           0
 10
2.591671937516
 20
-5.926534272891
 10
2.648871937516
 20
-5.486534272891
 10
2.534471937516
 20
-5.486534272891
 10
2.591671937516
 20
-5.926534272891
1001
ACAD
1000
TCW40_DEV_WIDTH
1002
{
1040
-3.0
1002
}
1001
TCAD
1000
TCW_ATTRIBUTE
1002
{
1000
5.51
1002
}
  0
HATCH
  5
2ED
100
AcDbEntity
  8
0
  6
Continuous
 62
           7
100
AcDbHatch
 10
0.0
 20
0.0
 30
0.0
210
0.0
220
0.0
230
1.0
  2
SOLID
 70
           1
 71
           1
 91
        1
 92
        3
 72
           0
 73
           1
 93
        3
 10
2.5916719375162325
 20
-5.9265342728907644
 10
2.6488719375162324
 20
-5.486534272890764
 10
2.5344719375162326
 20
-5.486534272890764
 97
        1
330
2EE
 75
           0
 76
           0
 98
        0
1001
TCAD
1000
TCW_ATTRIBUTE
1002
{
1000
5.51
1002
}
  0
LWPOLYLINE
  5
2F0
102
{ACAD_REACTORS
330
2EF
102
}
100
AcDbEntity
  8
0
  6
Continuous
 62
           7
100
AcDbPolyline
 90
        4
 70
           0
 10
2.591671937516
 20
-0.410534272891
 10
2.534471937516
 20
-0.850534272891
 10
2.648871937516
 20
-0.850534272891
 10
2.591671937516
 20
-0.410534272891
1001
ACAD
1000
TCW40_DEV_WIDTH
1002
{
1040
-3.0
1002
}
1001
TCAD
1000
TCW_ATTRIBUTE
1002
{
1000
5.51
1002
}
  0
HATCH
  5
2EF
100
AcDbEntity
  8
0
  6
Continuous
 62
           7
100
AcDbHatch
 10
0.0
 20
0.0
 30
0.0
210
0.0
220
0.0
230
1.0
  2
SOLID
 70
           1
 71
           1
 91
        1
 92
        3
 72
           0
 73
           1
 93
        3
 10
2.5916719375162325
 20
-0.4105342728907644
 10
2.5344719375162326
 20
-0.8505342728907643
 10
2.6488719375162324
 20
-0.8505342728907643
 97
        1
330
2F0
 75
           0
 76
           0
 98
        0
1001
TCAD
1000
TCW_ATTRIBUTE
1002
{
1000
5.51
1002
}
  0
MTEXT
  5
2F1
100
AcDbEntity
  8
0
  6
Continuous
 62
           7
100
AcDbMText
 10
1.968026094249
 20
-3.161514149391
 30
0.0
 40
0.500000012305
 41
0.0
 71
           5
 72
           1
  1
\A1;5.51
 11
0.0
 21
1.0
 31
0.0
 73
           1
 44
1.0
1001
TCAD
1000
TCW_REFPOINT
1002
{
1010
1.968026094249
1020
-3.161514149391
1030
0.0
1002
}
1000
TCW_ATTRIBUTE
1002
{
1000
5.51
1002
}
  0
ENDBLK
  5
2F2
100
AcDbEntity
  8
0
100
AcDbBlockEnd
  0
BLOCK
  5
2F5
100
AcDbEntity
  8
0
100
AcDbBlockBegin
  2
*D35
 70
           1
 10
0.0
 20
0.0
 30
0.0
  3
*D35
  1

  0
LINE
  5
2F6
100
AcDbEntity
  8
0
  6
Continuous
 62
           7
100
AcDbLine
 10
-1.494514199723
 20
-5.926534272891
 30
0.0
 11
4.694171826087
 21
-5.926534272891
 31
0.0
1001
ACAD
1000
TCW40_DEV_WIDTH
1002
{
1040
-3.0
1002
}
1001
TCAD
1000
TCW_ATTRIBUTE
1002
{
1000
9.25
1002
}
  0
LINE
  5
2F7
100
AcDbEntity
  8
0
  6
Continuous
 62
           7
100
AcDbLine
 10
-5.828514199723
 20
3.329465727109
 30
0.0
 11
4.694171826087
 21
3.329465727109
 31
0.0
1001
ACAD
1000
TCW40_DEV_WIDTH
1002
{
1040
-3.0
1002
}
1001
TCAD
1000
TCW_ATTRIBUTE
1002
{
1000
9.25
1002
}
  0
LWPOLYLINE
  5
2F8
100
AcDbEntity
  8
0
  6
Continuous
 62
           7
100
AcDbPolyline
 90
        4
 70
           0
 10
4.494171826087
 20
-5.486534272891
 10
4.494171826087
 20
-5.486534272891
 10
4.494171826087
 20
-5.486534272891
 10
4.494171826087
 20
-1.298534272891
1001
ACAD
1000
TCW40_DEV_WIDTH
1002
{
1040
-3.0
1002
}
1001
TCAD
1000
TCW_ATTRIBUTE
1002
{
1000
9.25
1002
}
  0
LWPOLYLINE
  5
2F9
100
AcDbEntity
  8
0
  6
Continuous
 62
           7
100
AcDbPolyline
 90
        4
 70
           0
 10
4.494171826087
 20
2.889465727109
 10
4.494171826087
 20
2.889465727109
 10
4.494171826087
 20
2.889465727109
 10
4.494171826087
 20
-1.298534272891
1001
ACAD
1000
TCW40_DEV_WIDTH
1002
{
1040
-3.0
1002
}
1001
TCAD
1000
TCW_ATTRIBUTE
1002
{
1000
9.25
1002
}
  0
LWPOLYLINE
  5
2FB
102
{ACAD_REACTORS
330
2FA
102
}
100
AcDbEntity
  8
0
  6
Continuous
 62
           7
100
AcDbPolyline
 90
        4
 70
           0
 10
4.494171826087
 20
-5.926534272891
 10
4.551371826087
 20
-5.486534272891
 10
4.436971826087
 20
-5.486534272891
 10
4.494171826087
 20
-5.926534272891
1001
ACAD
1000
TCW40_DEV_WIDTH
1002
{
1040
-3.0
1002
}
1001
TCAD
1000
TCW_ATTRIBUTE
1002
{
1000
9.25
1002
}
  0
HATCH
  5
2FA
100
AcDbEntity
  8
0
  6
Continuous
 62
           7
100
AcDbHatch
 10
0.0
 20
0.0
 30
0.0
210
0.0
220
0.0
230
1.0
  2
SOLID
 70
           1
 71
           1
 91
        1
 92
        3
 72
           0
 73
           1
 93
        3
 10
4.4941718260869346
 20
-5.9265342728907644
 10
4.5513718260869345
 20
-5.486534272890764
 10
4.4369718260869346
 20
-5.486534272890764
 97
        1
330
2FB
 75
           0
 76
           0
 98
        0
1001
TCAD
1000
TCW_ATTRIBUTE
1002
{
1000
9.25
1002
}
  0
LWPOLYLINE
  5
2FD
102
{ACAD_REACTORS
330
2FC
102
}
100
AcDbEntity
  8
0
  6
Continuous
 62
           7
100
AcDbPolyline
 90
        4
 70
           0
 10
4.494171826087
 20
3.329465727109
 10
4.436971826087
 20
2.889465727109
 10
4.551371826087
 20
2.889465727109
 10
4.494171826087
 20
3.329465727109
1001
ACAD
1000
TCW40_DEV_WIDTH
1002
{
1040
-3.0
1002
}
1001
TCAD
1000
TCW_ATTRIBUTE
1002
{
1000
9.25
1002
}
  0
HATCH
  5
2FC
100
AcDbEntity
  8
0
  6
Continuous
 62
           7
100
AcDbHatch
 10
0.0
 20
0.0
 30
0.0
210
0.0
220
0.0
230
1.0
  2
SOLID
 70
           1
 71
           1
 91
        1
 92
        3
 72
           0
 73
           1
 93
        3
 10
4.4941718260869346
 20
3.3294657271092363
 10
4.4369718260869346
 20
2.8894657271092363
 10
4.5513718260869345
 20
2.8894657271092363
 97
        1
330
2FD
 75
           0
 76
           0
 98
        0
1001
TCAD
1000
TCW_ATTRIBUTE
1002
{
1000
9.25
1002
}
  0
MTEXT
  5
2FE
100
AcDbEntity
  8
0
  6
Continuous
 62
           7
100
AcDbMText
 10
3.870525982819
 20
-1.302253204824
 30
0.0
 40
0.500000012305
 41
0.0
 71
           5
 72
           1
  1
\A1;9.25
 11
0.0
 21
1.0
 31
0.0
 73
           1
 44
1.0
1001
TCAD
1000
TCW_REFPOINT
1002
{
1010
3.870525982819
1020
-1.302253204824
1030
0.0
1002
}
1000
TCW_ATTRIBUTE
1002
{
1000
9.25
1002
}
  0
ENDBLK
  5
2FF
100
AcDbEntity
  8
0
100
AcDbBlockEnd
  0
BLOCK
  5
30E
100
AcDbEntity
  8
0
100
AcDbBlockBegin
  2
*D36
 70
           1
 10
0.0
 20
0.0
 30
0.0
  3
*D36
  1

  0
LINE
  5
30F
100
AcDbEntity
  8
0
  6
Continuous
 62
           7
100
AcDbLine
 10
-9.574514199723
 20
-8.324617283226
 30
0.0
 11
-9.574514199723
 21
-7.946085327288
 31
0.0
1001
ACAD
1000
TCW40_DEV_WIDTH
1002
{
1040
-3.0
1002
}
  0
LINE
  5
310
100
AcDbEntity
  8
0
  6
Continuous
 62
           7
100
AcDbLine
 10
-2.482514199723
 20
-8.324617283226
 30
0.0
 11
-2.482514199723
 21
-7.946085327288
 31
0.0
1001
ACAD
1000
TCW40_DEV_WIDTH
1002
{
1040
-3.0
1002
}
  0
LWPOLYLINE
  5
311
100
AcDbEntity
  8
0
  6
Continuous
 62
           7
100
AcDbPolyline
 90
        4
 70
           0
 10
-9.134514199723
 20
-8.146085327288
 10
-9.134514199723
 20
-8.146085327288
 10
-9.134514199723
 20
-8.146085327288
 10
-6.028514199723
 20
-8.146085327288
1001
ACAD
1000
TCW40_DEV_WIDTH
1002
{
1040
-3.0
1002
}
  0
LWPOLYLINE
  5
312
100
AcDbEntity
  8
0
  6
Continuous
 62
           7
100
AcDbPolyline
 90
        4
 70
           0
 10
-2.922514199723
 20
-8.146085327288
 10
-2.922514199723
 20
-8.146085327288
 10
-2.922514199723
 20
-8.146085327288
 10
-6.028514199723
 20
-8.146085327288
1001
ACAD
1000
TCW40_DEV_WIDTH
1002
{
1040
-3.0
1002
}
  0
LWPOLYLINE
  5
314
102
{ACAD_REACTORS
330
313
102
}
100
AcDbEntity
  8
0
  6
Continuous
 62
           7
100
AcDbPolyline
 90
        4
 70
           0
 10
-9.574514199723
 20
-8.146085327288
 10
-9.134514199723
 20
-8.203285327288
 10
-9.134514199723
 20
-8.088885327288
 10
-9.574514199723
 20
-8.146085327288
1001
ACAD
1000
TCW40_DEV_WIDTH
1002
{
1040
-3.0
1002
}
  0
HATCH
  5
313
100
AcDbEntity
  8
0
  6
Continuous
 62
           7
100
AcDbHatch
 10
0.0
 20
0.0
 30
0.0
210
0.0
220
0.0
230
1.0
  2
SOLID
 70
           1
 71
           1
 91
        1
 92
        3
 72
           0
 73
           1
 93
        3
 10
-9.5745141997233461
 20
-8.1460853272879294
 10
-9.1345141997233466
 20
-8.2032853272879294
 10
-9.1345141997233466
 20
-8.0888853272879295
 97
        1
330
314
 75
           0
 76
           0
 98
        0
  0
LWPOLYLINE
  5
316
102
{ACAD_REACTORS
330
315
102
}
100
AcDbEntity
  8
0
  6
Continuous
 62
           7
100
AcDbPolyline
 90
        4
 70
           0
 10
-2.482514199723
 20
-8.146085327288
 10
-2.922514199723
 20
-8.088885327288
 10
-2.922514199723
 20
-8.203285327288
 10
-2.482514199723
 20
-8.146085327288
1001
ACAD
1000
TCW40_DEV_WIDTH
1002
{
1040
-3.0
1002
}
  0
HATCH
  5
315
100
AcDbEntity
  8
0
  6
Continuous
 62
           7
100
AcDbHatch
 10
0.0
 20
0.0
 30
0.0
210
0.0
220
0.0
230
1.0
  2
SOLID
 70
           1
 71
           1
 91
        1
 92
        3
 72
           0
 73
           1
 93
        3
 10
-2.4825141997233331
 20
-8.1460853272879294
 10
-2.922514199723333
 20
-8.0888853272879295
 10
-2.922514199723333
 20
-8.2032853272879294
 97
        1
330
316
 75
           0
 76
           0
 98
        0
  0
MTEXT
  5
317
100
AcDbEntity
  8
0
  6
Continuous
 62
           7
100
AcDbMText
 10
-6.012589605921
 20
-7.52243948402
 30
0.0
 40
0.500000012305
 41
0.0
 71
           5
 72
           1
  1
\A1;7.09
 73
           1
 44
1.0
1001
TCAD
1000
TCW_REFPOINT
1002
{
1010
-6.012589605921
1020
-7.52243948402
1030
0.0
1002
}
  0
ENDBLK
  5
318
100
AcDbEntity
  8
0
100
AcDbBlockEnd
  0
BLOCK
  5
31B
100
AcDbEntity
  8
0
100
AcDbBlockBegin
  2
*D37
 70
           1
 10
0.0
 20
0.0
 30
0.0
  3
*D37
  1

  0
LINE
  5
31C
100
AcDbEntity
  8
0
  6
Continuous
 62
           7
100
AcDbLine
 10
-10.362514199723
 20
-6.126534272891
 30
0.0
 11
-10.362514199723
 21
-10.378301011878
 31
0.0
1001
ACAD
1000
TCW40_DEV_WIDTH
1002
{
1040
-3.0
1002
}
1001
TCAD
1000
TCW_ATTRIBUTE
1002
{
1000
8.66
1002
}
  0
LINE
  5
31D
100
AcDbEntity
  8
0
  6
Continuous
 62
           7
100
AcDbLine
 10
-1.694514199723
 20
-6.126534272891
 30
0.0
 11
-1.694514199723
 21
-10.378301011878
 31
0.0
1001
ACAD
1000
TCW40_DEV_WIDTH
1002
{
1040
-3.0
1002
}
1001
TCAD
1000
TCW_ATTRIBUTE
1002
{
1000
8.66
1002
}
  0
LWPOLYLINE
  5
31E
100
AcDbEntity
  8
0
  6
Continuous
 62
           7
100
AcDbPolyline
 90
        4
 70
           0
 10
-9.922514199723
 20
-10.178301011878
 10
-9.922514199723
 20
-10.178301011878
 10
-9.922514199723
 20
-10.178301011878
 10
-6.028514199723
 20
-10.178301011878
1001
ACAD
1000
TCW40_DEV_WIDTH
1002
{
1040
-3.0
1002
}
1001
TCAD
1000
TCW_ATTRIBUTE
1002
{
1000
8.66
1002
}
  0
LWPOLYLINE
  5
31F
100
AcDbEntity
  8
0
  6
Continuous
 62
           7
100
AcDbPolyline
 90
        4
 70
           0
 10
-2.134514199723
 20
-10.178301011878
 10
-2.134514199723
 20
-10.178301011878
 10
-2.134514199723
 20
-10.178301011878
 10
-6.028514199723
 20
-10.178301011878
1001
ACAD
1000
TCW40_DEV_WIDTH
1002
{
1040
-3.0
1002
}
1001
TCAD
1000
TCW_ATTRIBUTE
1002
{
1000
8.66
1002
}
  0
LWPOLYLINE
  5
321
102
{ACAD_REACTORS
330
320
102
}
100
AcDbEntity
  8
0
  6
Continuous
 62
           7
100
AcDbPolyline
 90
        4
 70
           0
 10
-10.362514199723
 20
-10.178301011878
 10
-9.922514199723
 20
-10.235501011878
 10
-9.922514199723
 20
-10.121101011878
 10
-10.362514199723
 20
-10.178301011878
1001
ACAD
1000
TCW40_DEV_WIDTH
1002
{
1040
-3.0
1002
}
1001
TCAD
1000
TCW_ATTRIBUTE
1002
{
1000
8.66
1002
}
  0
HATCH
  5
320
100
AcDbEntity
  8
0
  6
Continuous
 62
           7
100
AcDbHatch
 10
0.0
 20
0.0
 30
0.0
210
0.0
220
0.0
230
1.0
  2
SOLID
 70
           1
 71
           1
 91
        1
 92
        3
 72
           0
 73
           1
 93
        3
 10
-10.362514199723343
 20
-10.178301011877517
 10
-9.9225141997233433
 20
-10.235501011877517
 10
-9.9225141997233433
 20
-10.121101011877517
 97
        1
330
321
 75
           0
 76
           0
 98
        0
1001
TCAD
1000
TCW_ATTRIBUTE
1002
{
1000
8.66
1002
}
  0
LWPOLYLINE
  5
323
102
{ACAD_REACTORS
330
322
102
}
100
AcDbEntity
  8
0
  6
Continuous
 62
           7
100
AcDbPolyline
 90
        4
 70
           0
 10
-1.694514199723
 20
-10.178301011878
 10
-2.134514199723
 20
-10.121101011878
 10
-2.134514199723
 20
-10.235501011878
 10
-1.694514199723
 20
-10.178301011878
1001
ACAD
1000
TCW40_DEV_WIDTH
1002
{
1040
-3.0
1002
}
1001
TCAD
1000
TCW_ATTRIBUTE
1002
{
1000
8.66
1002
}
  0
HATCH
  5
322
100
AcDbEntity
  8
0
  6
Continuous
 62
           7
100
AcDbHatch
 10
0.0
 20
0.0
 30
0.0
210
0.0
220
0.0
230
1.0
  2
SOLID
 70
           1
 71
           1
 91
        1
 92
        3
 72
           0
 73
           1
 93
        3
 10
-1.6945141997233222
 20
-10.178301011877517
 10
-2.1345141997233221
 20
-10.121101011877517
 10
-2.1345141997233221
 20
-10.235501011877517
 97
        1
330
323
 75
           0
 76
           0
 98
        0
1001
TCAD
1000
TCW_ATTRIBUTE
1002
{
1000
8.66
1002
}
  0
MTEXT
  5
324
100
AcDbEntity
  8
0
  6
Continuous
 62
           7
100
AcDbMText
 10
-6.049651354425
 20
-9.55465516861
 30
0.0
 40
0.500000012305
 41
0.0
 71
           5
 72
           1
  1
\A1;8.66
 73
           1
 44
1.0
1001
TCAD
1000
TCW_REFPOINT
1002
{
1010
-6.049651354425
1020
-9.55465516861
1030
0.0
1002
}
1000
TCW_ATTRIBUTE
1002
{
1000
8.66
1002
}
  0
ENDBLK
  5
325
100
AcDbEntity
  8
0
100
AcDbBlockEnd
  0
BLOCK
  5
341
100
AcDbEntity
  8
0
100
AcDbBlockBegin
  2
*D38
 70
           1
 10
0.0
 20
0.0
 30
0.0
  3
*D38
  1

  0
LINE
  5
342
100
AcDbEntity
  8
0
  6
Continuous
 62
           7
100
AcDbLine
 10
-1.494514199723
 20
-5.926534272891
 30
0.0
 11
1.111542342211
 21
-5.926534272891
 31
0.0
1001
ACAD
1000
TCW40_DEV_WIDTH
1002
{
1040
-3.0
1002
}
  0
LINE
  5
343
100
AcDbEntity
  8
0
  6
Continuous
 62
           7
100
AcDbLine
 10
-1.494514199723
 20
-5.059734272891
 30
0.0
 11
1.111542342211
 21
-5.059734272891
 31
0.0
1001
ACAD
1000
TCW40_DEV_WIDTH
1002
{
1040
-3.0
1002
}
  0
LWPOLYLINE
  5
344
100
AcDbEntity
  8
0
  6
Continuous
 62
           7
100
AcDbPolyline
 90
        2
 70
           0
 10
0.911542342211
 20
-6.806534272891
 10
0.911542342211
 20
-6.366534272891
1001
ACAD
1000
TCW40_DEV_WIDTH
1002
{
1040
-3.0
1002
}
  0
LWPOLYLINE
  5
345
100
AcDbEntity
  8
0
  6
Continuous
 62
           7
100
AcDbPolyline
 90
        2
 70
           0
 10
0.911542342211
 20
-5.926534272891
 40
0.0
 41
0.0
 10
0.911542342211
 20
-5.059734272891
 40
0.0
 41
0.0
1001
ACAD
1000
TCW40_DEV_WIDTH
1002
{
1040
-3.0
1002
}
  0
LWPOLYLINE
  5
346
100
AcDbEntity
  8
0
  6
Continuous
 62
           7
100
AcDbPolyline
 90
        3
 70
           0
 10
0.911542342211
 20
-2.137429977606
 10
0.911542342211
 20
-2.758575831641
 10
0.911542342211
 20
-4.619734272891
1001
ACAD
1000
TCW40_DEV_WIDTH
1002
{
1040
-3.0
1002
}
  0
LWPOLYLINE
  5
348
102
{ACAD_REACTORS
330
347
102
}
100
AcDbEntity
  8
0
  6
Continuous
 62
           7
100
AcDbPolyline
 90
        4
 70
           0
 10
0.911542342211
 20
-5.059734272891
 10
0.968742342211
 20
-4.619734272891
 10
0.854342342211
 20
-4.619734272891
 10
0.911542342211
 20
-5.059734272891
1001
ACAD
1000
TCW40_DEV_WIDTH
1002
{
1040
-3.0
1002
}
  0
HATCH
  5
347
100
AcDbEntity
  8
0
  6
Continuous
 62
           7
100
AcDbHatch
 10
0.0
 20
0.0
 30
0.0
210
0.0
220
0.0
230
1.0
  2
SOLID
 70
           1
 71
           1
 91
        1
 92
        3
 72
           0
 73
           1
 93
        3
 10
0.9115423422114415
 20
-5.0597342728907631
 10
0.9687423422114415
 20
-4.6197342728907627
 10
0.8543423422114415
 20
-4.6197342728907627
 97
        1
330
348
 75
           0
 76
           0
 98
        0
  0
LWPOLYLINE
  5
34A
102
{ACAD_REACTORS
330
349
102
}
100
AcDbEntity
  8
0
  6
Continuous
 62
           7
100
AcDbPolyline
 90
        4
 70
           0
 10
0.911542342211
 20
-5.926534272891
 10
0.854342342211
 20
-6.366534272891
 10
0.968742342211
 20
-6.366534272891
 10
0.911542342211
 20
-5.926534272891
1001
ACAD
1000
TCW40_DEV_WIDTH
1002
{
1040
-3.0
1002
}
  0
HATCH
  5
349
100
AcDbEntity
  8
0
  6
Continuous
 62
           7
100
AcDbHatch
 10
0.0
 20
0.0
 30
0.0
210
0.0
220
0.0
230
1.0
  2
SOLID
 70
           1
 71
           1
 91
        1
 92
        3
 72
           0
 73
           1
 93
        3
 10
0.9115423422114415
 20
-5.9265342728907644
 10
0.8543423422114415
 20
-6.3665342728907648
 10
0.9687423422114415
 20
-6.3665342728907648
 97
        1
330
34A
 75
           0
 76
           0
 98
        0
  0
MTEXT
  5
34B
100
AcDbEntity
  8
0
  6
Continuous
 62
           7
100
AcDbMText
 10
0.287896498944
 20
-3.198575831641
 30
0.0
 40
0.500000012305
 41
0.0
 71
           5
 72
           1
  1
\A1;0.87
 11
0.0
 21
1.0
 31
0.0
 73
           1
 44
1.0
1001
TCAD
1000
TCW_REFPOINT
1002
{
1010
0.287896498944
1020
-3.198575831641
1030
0.0
1002
}
  0
ENDBLK
  5
34C
100
AcDbEntity
  8
0
100
AcDbBlockEnd
  0
BLOCK
  5
373
100
AcDbEntity
  8
0
100
AcDbBlockBegin
  2
*D39
 70
           1
 10
0.0
 20
0.0
 30
0.0
  3
*D39
  1

  0
LINE
  5
374
100
AcDbEntity
  8
0
  6
Continuous
 62
           7
100
AcDbLine
 10
9.221283299141
 20
0.558803373076
 30
0.0
 11
9.221283299141
 21
4.339861480071
 31
0.0
1001
ACAD
1000
TCW40_DEV_WIDTH
1002
{
1040
-3.0
1002
}
  0
LINE
  5
375
100
AcDbEntity
  8
0
  6
Continuous
 62
           7
100
AcDbLine
 10
11.721283299141
 20
0.579803373076
 30
0.0
 11
11.721283299141
 21
4.339861480071
 31
0.0
1001
ACAD
1000
TCW40_DEV_WIDTH
1002
{
1040
-3.0
1002
}
  0
LWPOLYLINE
  5
376
100
AcDbEntity
  8
0
  6
Continuous
 62
           7
100
AcDbPolyline
 90
        2
 70
           0
 10
8.341283299141
 20
4.139861480071
 10
8.781283299141
 20
4.139861480071
1001
ACAD
1000
TCW40_DEV_WIDTH
1002
{
1040
-3.0
1002
}
  0
LWPOLYLINE
  5
377
100
AcDbEntity
  8
0
  6
Continuous
 62
           7
100
AcDbPolyline
 90
        2
 70
           0
 10
9.221283299141
 20
4.139861480071
 40
0.0
 41
0.0
 10
10.471283299141
 20
4.139861480071
 40
0.0
 41
0.0
1001
ACAD
1000
TCW40_DEV_WIDTH
1002
{
1040
-3.0
1002
}
  0
LWPOLYLINE
  5
378
100
AcDbEntity
  8
0
  6
Continuous
 62
           7
100
AcDbPolyline
 90
        2
 70
           0
 10
12.601283299141
 20
4.139861480071
 10
12.161283299141
 20
4.139861480071
1001
ACAD
1000
TCW40_DEV_WIDTH
1002
{
1040
-3.0
1002
}
  0
LWPOLYLINE
  5
379
100
AcDbEntity
  8
0
  6
Continuous
 62
           7
100
AcDbPolyline
 90
        2
 70
           0
 10
11.721283299141
 20
4.139861480071
 40
0.0
 41
0.0
 10
10.471283299141
 20
4.139861480071
 40
0.0
 41
0.0
1001
ACAD
1000
TCW40_DEV_WIDTH
1002
{
1040
-3.0
1002
}
  0
LWPOLYLINE
  5
37B
102
{ACAD_REACTORS
330
37A
102
}
100
AcDbEntity
  8
0
  6
Continuous
 62
           7
100
AcDbPolyline
 90
        4
 70
           0
 10
11.721283299141
 20
4.139861480071
 10
12.161283299141
 20
4.082661480071
 10
12.161283299141
 20
4.197061480071
 10
11.721283299141
 20
4.139861480071
1001
ACAD
1000
TCW40_DEV_WIDTH
1002
{
1040
-3.0
1002
}
  0
HATCH
  5
37A
100
AcDbEntity
  8
0
  6
Continuous
 62
           7
100
AcDbHatch
 10
0.0
 20
0.0
 30
0.0
210
0.0
220
0.0
230
1.0
  2
SOLID
 70
           1
 71
           1
 91
        1
 92
        3
 72
           0
 73
           1
 93
        3
 10
11.721283299141326
 20
4.1398614800714659
 10
12.161283299141326
 20
4.082661480071466
 10
12.161283299141326
 20
4.1970614800714658
 97
        1
330
37B
 75
           0
 76
           0
 98
        0
  0
LWPOLYLINE
  5
37D
102
{ACAD_REACTORS
330
37C
102
}
100
AcDbEntity
  8
0
  6
Continuous
 62
           7
100
AcDbPolyline
 90
        4
 70
           0
 10
9.221283299141
 20
4.139861480071
 10
8.781283299141
 20
4.197061480071
 10
8.781283299141
 20
4.082661480071
 10
9.221283299141
 20
4.139861480071
1001
ACAD
1000
TCW40_DEV_WIDTH
1002
{
1040
-3.0
1002
}
  0
HATCH
  5
37C
100
AcDbEntity
  8
0
  6
Continuous
 62
           7
100
AcDbHatch
 10
0.0
 20
0.0
 30
0.0
210
0.0
220
0.0
230
1.0
  2
SOLID
 70
           1
 71
           1
 91
        1
 92
        3
 72
           0
 73
           1
 93
        3
 10
9.2212832991412697
 20
4.1398614800714659
 10
8.7812832991412701
 20
4.1970614800714658
 10
8.7812832991412701
 20
4.082661480071466
 97
        1
330
37D
 75
           0
 76
           0
 98
        0
  0
MTEXT
  5
37E
100
AcDbEntity
  8
0
  6
Continuous
 62
           7
100
AcDbMText
 10
10.467506376129
 20
4.763507323339
 30
0.0
 40
0.500000012305
 41
0.0
 71
           5
 72
           1
  1
\A1;2.50
 73
           1
 44
1.0
1001
TCAD
1000
TCW_REFPOINT
1002
{
1010
10.467506376129
1020
4.763507323339
1030
0.0
1002
}
  0
ENDBLK
  5
37F
100
AcDbEntity
  8
0
100
AcDbBlockEnd
  0
BLOCK
  5
388
100
AcDbEntity
  8
0
100
AcDbBlockBegin
  2
*D40
 70
           1
 10
0.0
 20
0.0
 30
0.0
  3
*D40
  1

  0
LINE
  5
389
100
AcDbEntity
  8
0
  6
Continuous
 62
           7
100
AcDbLine
 10
9.221283299141
 20
-1.778696626924
 30
0.0
 11
9.221283299141
 21
-10.217700293931
 31
0.0
1001
ACAD
1000
TCW40_DEV_WIDTH
1002
{
1040
-3.0
1002
}
  0
LINE
  5
38A
100
AcDbEntity
  8
0
  6
Continuous
 62
           7
100
AcDbLine
 10
13.297283299141
 20
-6.419696626924
 30
0.0
 11
13.297283299141
 21
-10.217700293931
 31
0.0
1001
ACAD
1000
TCW40_DEV_WIDTH
1002
{
1040
-3.0
1002
}
  0
LWPOLYLINE
  5
38B
100
AcDbEntity
  8
0
  6
Continuous
 62
           7
100
AcDbPolyline
 90
        4
 70
           0
 10
9.661283299141
 20
-10.017700293931
 10
9.661283299141
 20
-10.017700293931
 10
9.661283299141
 20
-10.017700293931
 10
11.259283299141
 20
-10.017700293931
1001
ACAD
1000
TCW40_DEV_WIDTH
1002
{
1040
-3.0
1002
}
  0
LWPOLYLINE
  5
38C
100
AcDbEntity
  8
0
  6
Continuous
 62
           7
100
AcDbPolyline
 90
        4
 70
           0
 10
12.857283299141
 20
-10.017700293931
 10
12.857283299141
 20
-10.017700293931
 10
12.857283299141
 20
-10.017700293931
 10
11.259283299141
 20
-10.017700293931
1001
ACAD
1000
TCW40_DEV_WIDTH
1002
{
1040
-3.0
1002
}
  0
LWPOLYLINE
  5
38E
102
{ACAD_REACTORS
330
38D
102
}
100
AcDbEntity
  8
0
  6
Continuous
 62
           7
100
AcDbPolyline
 90
        4
 70
           0
 10
9.221283299141
 20
-10.017700293931
 10
9.661283299141
 20
-10.074900293931
 10
9.661283299141
 20
-9.960500293931
 10
9.221283299141
 20
-10.017700293931
1001
ACAD
1000
TCW40_DEV_WIDTH
1002
{
1040
-3.0
1002
}
  0
HATCH
  5
38D
100
AcDbEntity
  8
0
  6
Continuous
 62
           7
100
AcDbHatch
 10
0.0
 20
0.0
 30
0.0
210
0.0
220
0.0
230
1.0
  2
SOLID
 70
           1
 71
           1
 91
        1
 92
        3
 72
           0
 73
           1
 93
        3
 10
9.2212832991412697
 20
-10.017700293931414
 10
9.6612832991412692
 20
-10.074900293931414
 10
9.6612832991412692
 20
-9.960500293931414
 97
        1
330
38E
 75
           0
 76
           0
 98
        0
  0
LWPOLYLINE
  5
390
102
{ACAD_REACTORS
330
38F
102
}
100
AcDbEntity
  8
0
  6
Continuous
 62
           7
100
AcDbPolyline
 90
        4
 70
           0
 10
13.297283299141
 20
-10.017700293931
 10
12.857283299141
 20
-9.960500293931
 10
12.857283299141
 20
-10.074900293931
 10
13.297283299141
 20
-10.017700293931
1001
ACAD
1000
TCW40_DEV_WIDTH
1002
{
1040
-3.0
1002
}
  0
HATCH
  5
38F
100
AcDbEntity
  8
0
  6
Continuous
 62
           7
100
AcDbHatch
 10
0.0
 20
0.0
 30
0.0
210
0.0
220
0.0
230
1.0
  2
SOLID
 70
           1
 71
           1
 91
        1
 92
        3
 72
           0
 73
           1
 93
        3
 10
13.297283299141291
 20
-10.017700293931414
 10
12.857283299141292
 20
-9.960500293931414
 10
12.857283299141292
 20
-10.074900293931414
 97
        1
330
390
 75
           0
 76
           0
 98
        0
  0
MTEXT
  5
391
100
AcDbEntity
  8
0
  6
Continuous
 62
           7
100
AcDbMText
 10
11.184032498724
 20
-9.394054450664
 30
0.0
 40
0.500000012305
 41
0.0
 71
           5
 72
           1
  1
\A1;4.08
 73
           1
 44
1.0
1001
TCAD
1000
TCW_REFPOINT
1002
{
1010
11.184032498724
1020
-9.394054450664
1030
0.0
1002
}
  0
ENDBLK
  5
392
100
AcDbEntity
  8
0
100
AcDbBlockEnd
  0
BLOCK
  5
397
100
AcDbEntity
  8
0
100
AcDbBlockBegin
  2
*D41
 70
           1
 10
0.0
 20
0.0
 30
0.0
  3
*D41
  1

  0
LINE
  5
398
100
AcDbEntity
  8
0
  6
Continuous
 62
           7
100
AcDbLine
 10
12.509283299141
 20
-6.419696626924
 30
0.0
 11
12.509283299141
 21
-8.364616181463
 31
0.0
1001
ACAD
1000
TCW40_DEV_WIDTH
1002
{
1040
-3.0
1002
}
  0
LINE
  5
399
100
AcDbEntity
  8
0
  6
Continuous
 62
           7
100
AcDbLine
 10
13.297283299141
 20
-6.419696626924
 30
0.0
 11
13.297283299141
 21
-8.364616181463
 31
0.0
1001
ACAD
1000
TCW40_DEV_WIDTH
1002
{
1040
-3.0
1002
}
  0
LWPOLYLINE
  5
39A
100
AcDbEntity
  8
0
  6
Continuous
 62
           7
100
AcDbPolyline
 90
        2
 70
           0
 10
11.629283299141
 20
-8.164616181463
 10
12.069283299141
 20
-8.164616181463
1001
ACAD
1000
TCW40_DEV_WIDTH
1002
{
1040
-3.0
1002
}
  0
LWPOLYLINE
  5
39B
100
AcDbEntity
  8
0
  6
Continuous
 62
           7
100
AcDbPolyline
 90
        2
 70
           0
 10
12.509283299141
 20
-8.164616181463
 40
0.0
 41
0.0
 10
13.297283299141
 20
-8.164616181463
 40
0.0
 41
0.0
1001
ACAD
1000
TCW40_DEV_WIDTH
1002
{
1040
-3.0
1002
}
  0
LWPOLYLINE
  5
39C
100
AcDbEntity
  8
0
  6
Continuous
 62
           7
100
AcDbPolyline
 90
        2
 70
           0
 10
14.177283299141
 20
-8.164616181463
 10
13.737283299141
 20
-8.164616181463
1001
ACAD
1000
TCW40_DEV_WIDTH
1002
{
1040
-3.0
1002
}
  0
LWPOLYLINE
  5
39D
100
AcDbEntity
  8
0
  6
Continuous
 62
           7
100
AcDbPolyline
 90
        2
 70
           0
 10
13.297283299141
 20
-8.164616181463
 40
0.0
 41
0.0
 10
12.509283299141
 20
-8.164616181463
 40
0.0
 41
0.0
1001
ACAD
1000
TCW40_DEV_WIDTH
1002
{
1040
-3.0
1002
}
  0
LWPOLYLINE
  5
39F
102
{ACAD_REACTORS
330
39E
102
}
100
AcDbEntity
  8
0
  6
Continuous
 62
           7
100
AcDbPolyline
 90
        4
 70
           0
 10
13.297283299141
 20
-8.164616181463
 10
13.737283299141
 20
-8.221816181463
 10
13.737283299141
 20
-8.107416181463
 10
13.297283299141
 20
-8.164616181463
1001
ACAD
1000
TCW40_DEV_WIDTH
1002
{
1040
-3.0
1002
}
  0
HATCH
  5
39E
100
AcDbEntity
  8
0
  6
Continuous
 62
           7
100
AcDbHatch
 10
0.0
 20
0.0
 30
0.0
210
0.0
220
0.0
230
1.0
  2
SOLID
 70
           1
 71
           1
 91
        1
 92
        3
 72
           0
 73
           1
 93
        3
 10
13.297283299141291
 20
-8.164616181462895
 10
13.737283299141291
 20
-8.2218161814628949
 10
13.737283299141291
 20
-8.1074161814628951
 97
        1
330
39F
 75
           0
 76
           0
 98
        0
  0
LWPOLYLINE
  5
3A1
102
{ACAD_REACTORS
330
3A0
102
}
100
AcDbEntity
  8
0
  6
Continuous
 62
           7
100
AcDbPolyline
 90
        4
 70
           0
 10
12.509283299141
 20
-8.164616181463
 10
12.069283299141
 20
-8.107416181463
 10
12.069283299141
 20
-8.221816181463
 10
12.509283299141
 20
-8.164616181463
1001
ACAD
1000
TCW40_DEV_WIDTH
1002
{
1040
-3.0
1002
}
  0
HATCH
  5
3A0
100
AcDbEntity
  8
0
  6
Continuous
 62
           7
100
AcDbHatch
 10
0.0
 20
0.0
 30
0.0
210
0.0
220
0.0
230
1.0
  2
SOLID
 70
           1
 71
           1
 91
        1
 92
        3
 72
           0
 73
           1
 93
        3
 10
12.509283299141281
 20
-8.164616181462895
 10
12.069283299141281
 20
-8.1074161814628951
 10
12.069283299141281
 20
-8.2218161814628949
 97
        1
330
3A1
 75
           0
 76
           0
 98
        0
  0
MTEXT
  5
3A2
100
AcDbEntity
  8
0
  6
Continuous
 62
           7
100
AcDbMText
 10
15.211401969822
 20
-7.540970338195
 30
0.0
 40
0.500000012305
 41
0.0
 71
           5
 72
           1
  1
\A1;0.79
 73
           1
 44
1.0
1001
TCAD
1000
TCW_REFPOINT
1002
{
1010
15.211401969822
1020
-7.540970338195
1030
0.0
1002
}
  0
ENDBLK
  5
3A3
100
AcDbEntity
  8
0
100
AcDbBlockEnd
  0
BLOCK
  5
3A7
100
AcDbEntity
  8
0
100
AcDbBlockBegin
  2
*D42
 70
           1
 10
0.0
 20
0.0
 30
0.0
  3
*D42
  1

  0
LINE
  5
3A8
100
AcDbEntity
  8
0
  6
Continuous
 62
           7
100
AcDbLine
 10
13.297283299141
 20
-9.912260251863
 30
0.0
 11
13.297283299141
 21
-9.817700293931
 31
0.0
1001
ACAD
1000
TCW40_DEV_WIDTH
1002
{
1040
-3.0
1002
}
  0
LINE
  5
3A9
100
AcDbEntity
  8
0
  6
Continuous
 62
           7
100
AcDbLine
 10
19.207283299141
 20
-6.419696626924
 30
0.0
 11
19.207283299141
 21
-10.217700293931
 31
0.0
1001
ACAD
1000
TCW40_DEV_WIDTH
1002
{
1040
-3.0
1002
}
  0
LWPOLYLINE
  5
3AA
100
AcDbEntity
  8
0
  6
Continuous
 62
           7
100
AcDbPolyline
 90
        4
 70
           0
 10
13.737283299141
 20
-10.017700293931
 10
13.737283299141
 20
-10.017700293931
 10
13.737283299141
 20
-10.017700293931
 10
16.252283299141
 20
-10.017700293931
1001
ACAD
1000
TCW40_DEV_WIDTH
1002
{
1040
-3.0
1002
}
  0
LWPOLYLINE
  5
3AB
100
AcDbEntity
  8
0
  6
Continuous
 62
           7
100
AcDbPolyline
 90
        4
 70
           0
 10
18.767283299141
 20
-10.017700293931
 10
18.767283299141
 20
-10.017700293931
 10
18.767283299141
 20
-10.017700293931
 10
16.252283299141
 20
-10.017700293931
1001
ACAD
1000
TCW40_DEV_WIDTH
1002
{
1040
-3.0
1002
}
  0
LWPOLYLINE
  5
3AD
102
{ACAD_REACTORS
330
3AC
102
}
100
AcDbEntity
  8
0
  6
Continuous
 62
           7
100
AcDbPolyline
 90
        4
 70
           0
 10
13.297283299141
 20
-10.017700293931
 10
13.737283299141
 20
-10.074900293931
 10
13.737283299141
 20
-9.960500293931
 10
13.297283299141
 20
-10.017700293931
1001
ACAD
1000
TCW40_DEV_WIDTH
1002
{
1040
-3.0
1002
}
  0
HATCH
  5
3AC
100
AcDbEntity
  8
0
  6
Continuous
 62
           7
100
AcDbHatch
 10
0.0
 20
0.0
 30
0.0
210
0.0
220
0.0
230
1.0
  2
SOLID
 70
           1
 71
           1
 91
        1
 92
        3
 72
           0
 73
           1
 93
        3
 10
13.297283299141291
 20
-10.017700293931414
 10
13.737283299141291
 20
-10.074900293931414
 10
13.737283299141291
 20
-9.960500293931414
 97
        1
330
3AD
 75
           0
 76
           0
 98
        0
  0
LWPOLYLINE
  5
3AF
102
{ACAD_REACTORS
330
3AE
102
}
100
AcDbEntity
  8
0
  6
Continuous
 62
           7
100
AcDbPolyline
 90
        4
 70
           0
 10
19.207283299141
 20
-10.017700293931
 10
18.767283299141
 20
-9.960500293931
 10
18.767283299141
 20
-10.074900293931
 10
19.207283299141
 20
-10.017700293931
1001
ACAD
1000
TCW40_DEV_WIDTH
1002
{
1040
-3.0
1002
}
  0
HATCH
  5
3AE
100
AcDbEntity
  8
0
  6
Continuous
 62
           7
100
AcDbHatch
 10
0.0
 20
0.0
 30
0.0
210
0.0
220
0.0
230
1.0
  2
SOLID
 70
           1
 71
           1
 91
        1
 92
        3
 72
           0
 73
           1
 93
        3
 10
19.207283299141316
 20
-10.017700293931414
 10
18.767283299141315
 20
-9.960500293931414
 10
18.767283299141315
 20
-10.074900293931414
 97
        1
330
3AF
 75
           0
 76
           0
 98
        0
  0
MTEXT
  5
3B0
100
AcDbEntity
  8
0
  6
Continuous
 62
           7
100
AcDbMText
 10
16.15029792014
 20
-9.394054450664
 30
0.0
 40
0.500000012305
 41
0.0
 71
           5
 72
           1
  1
\A1;5.91
 73
           1
 44
1.0
1001
TCAD
1000
TCW_REFPOINT
1002
{
1010
16.15029792014
1020
-9.394054450664
1030
0.0
1002
}
  0
ENDBLK
  5
3B1
100
AcDbEntity
  8
0
100
AcDbBlockEnd
  0
BLOCK
  5
3EF
100
AcDbEntity
  8
0
100
AcDbBlockBegin
  2
*D43
 70
           1
 10
0.0
 20
0.0
 30
0.0
  3
*D43
  1

  0
LINE
  5
3F0
100
AcDbEntity
  8
0
  6
Continuous
 62
           7
100
AcDbLine
 10
12.509283299141
 20
10.825501065889
 30
0.0
 11
12.509283299141
 21
8.288433047532
 31
0.0
1001
ACAD
1000
TCW40_DEV_WIDTH
1002
{
1040
-3.0
1002
}
1001
TCAD
1000
TCW_ATTRIBUTE
1002
{
1000
7.48
1002
}
  0
LINE
  5
3F1
100
AcDbEntity
  8
0
  6
Continuous
 62
           7
100
AcDbLine
 10
19.995283299141
 20
10.825501010876
 30
0.0
 11
19.995283299141
 21
8.28843299252
 31
0.0
1001
ACAD
1000
TCW40_DEV_WIDTH
1002
{
1040
-3.0
1002
}
1001
TCAD
1000
TCW_ATTRIBUTE
1002
{
1000
7.48
1002
}
  0
LWPOLYLINE
  5
3F2
100
AcDbEntity
  8
0
  6
Continuous
 62
           7
100
AcDbPolyline
 90
        4
 70
           0
 10
12.949283299141
 20
8.488433044299
 10
12.949283299141
 20
8.488433044299
 10
12.949283299141
 20
8.488433044299
 10
16.252283299141
 20
8.488433020026
1001
ACAD
1000
TCW40_DEV_WIDTH
1002
{
1040
-3.0
1002
}
1001
TCAD
1000
TCW_ATTRIBUTE
1002
{
1000
7.48
1002
}
  0
LWPOLYLINE
  5
3F3
100
AcDbEntity
  8
0
  6
Continuous
 62
           7
100
AcDbPolyline
 90
        4
 70
           0
 10
19.555283299141
 20
8.488432995753
 10
19.555283299141
 20
8.488432995753
 10
19.555283299141
 20
8.488432995753
 10
16.252283299141
 20
8.488433020026
1001
ACAD
1000
TCW40_DEV_WIDTH
1002
{
1040
-3.0
1002
}
1001
TCAD
1000
TCW_ATTRIBUTE
1002
{
1000
7.48
1002
}
  0
LWPOLYLINE
  5
3F5
102
{ACAD_REACTORS
330
3F4
102
}
100
AcDbEntity
  8
0
  6
Continuous
 62
           7
100
AcDbPolyline
 90
        4
 70
           0
 10
12.509283299141
 20
8.488433047532
 10
12.949283298721
 20
8.431233044299
 10
12.949283299562
 20
8.545633044299
 10
12.509283299141
 20
8.488433047532
1001
ACAD
1000
TCW40_DEV_WIDTH
1002
{
1040
-3.0
1002
}
1001
TCAD
1000
TCW_ATTRIBUTE
1002
{
1000
7.48
1002
}
  0
HATCH
  5
3F4
100
AcDbEntity
  8
0
  6
Continuous
 62
           7
100
AcDbHatch
 10
0.0
 20
0.0
 30
0.0
210
0.0
220
0.0
230
1.0
  2
SOLID
 70
           1
 71
           1
 91
        1
 92
        3
 72
           0
 73
           1
 93
        3
 10
12.509283299141281
 20
8.4884330475324052
 10
12.949283298720932
 20
8.4312330442989527
 10
12.949283299561628
 20
8.5456330442989525
 97
        1
330
3F5
 75
           0
 76
           0
 98
        0
1001
TCAD
1000
TCW_ATTRIBUTE
1002
{
1000
7.48
1002
}
  0
LWPOLYLINE
  5
3F7
102
{ACAD_REACTORS
330
3F6
102
}
100
AcDbEntity
  8
0
  6
Continuous
 62
           7
100
AcDbPolyline
 90
        4
 70
           0
 10
19.995283299141
 20
8.48843299252
 10
19.555283299562
 20
8.545632995753
 10
19.555283298721
 20
8.431232995753
 10
19.995283299141
 20
8.48843299252
1001
ACAD
1000
TCW40_DEV_WIDTH
1002
{
1040
-3.0
1002
}
1001
TCAD
1000
TCW_ATTRIBUTE
1002
{
1000
7.48
1002
}
  0
HATCH
  5
3F6
100
AcDbEntity
  8
0
  6
Continuous
 62
           7
100
AcDbHatch
 10
0.0
 20
0.0
 30
0.0
210
0.0
220
0.0
230
1.0
  2
SOLID
 70
           1
 71
           1
 91
        1
 92
        3
 72
           0
 73
           1
 93
        3
 10
19.995283299141271
 20
8.4884329925196251
 10
19.555283299561619
 20
8.5456329957530777
 10
19.555283298720919
 20
8.4312329957530778
 97
        1
330
3F7
 75
           0
 76
           0
 98
        0
1001
TCAD
1000
TCW_ATTRIBUTE
1002
{
1000
7.48
1002
}
  0
MTEXT
  5
3F8
100
AcDbEntity
  8
0
  6
Continuous
 62
           7
100
AcDbMText
 10
16.286190862468
 20
9.112078835787
 30
0.0
 40
0.500000012305
 41
0.0
 71
           5
 72
           1
  1
\A1;7.48
 73
           1
 44
1.0
1001
TCAD
1000
TCW_REFPOINT
1002
{
1010
16.286190862468
1020
9.112078835787
1030
0.0
1002
}
1000
TCW_ATTRIBUTE
1002
{
1000
7.48
1002
}
  0
ENDBLK
  5
3F9
100
AcDbEntity
  8
0
100
AcDbBlockEnd
  0
BLOCK
  5
43A
100
AcDbEntity
  8
0
100
AcDbBlockBegin
  2
*D44
 70
           1
 10
0.0
 20
0.0
 30
0.0
  3
*D44
  1

  0
LINE
  5
43B
100
AcDbEntity
  8
0
  6
Continuous
 62
           7
100
AcDbLine
 10
9.221283299141
 20
0.558803373076
 30
0.0
 11
9.221283299141
 21
6.02616837214
 31
0.0
1001
ACAD
1000
TCW40_DEV_WIDTH
1002
{
1040
-3.0
1002
}
1001
TCAD
1000
TCW_ATTRIBUTE
1002
{
1000
12.72
1002
}
  0
LINE
  5
43C
100
AcDbEntity
  8
0
  6
Continuous
 62
           7
100
AcDbLine
 10
21.950435733603
 20
0.105426304483
 30
0.0
 11
21.950435733603
 21
6.02616837214
 31
0.0
1001
ACAD
1000
TCW40_DEV_WIDTH
1002
{
1040
-3.0
1002
}
1001
TCAD
1000
TCW_ATTRIBUTE
1002
{
1000
12.72
1002
}
  0
LWPOLYLINE
  5
43D
100
AcDbEntity
  8
0
  6
Continuous
 62
           7
100
AcDbPolyline
 90
        4
 70
           0
 10
9.661283299141
 20
5.82616837214
 10
9.661283299141
 20
5.82616837214
 10
9.661283299141
 20
5.82616837214
 10
15.585859516372
 20
5.82616837214
1001
ACAD
1000
TCW40_DEV_WIDTH
1002
{
1040
-3.0
1002
}
1001
TCAD
1000
TCW_ATTRIBUTE
1002
{
1000
12.72
1002
}
  0
LWPOLYLINE
  5
43E
100
AcDbEntity
  8
0
  6
Continuous
 62
           7
100
AcDbPolyline
 90
        4
 70
           0
 10
21.510435733603
 20
5.82616837214
 10
21.510435733603
 20
5.82616837214
 10
21.510435733603
 20
5.82616837214
 10
15.585859516372
 20
5.82616837214
1001
ACAD
1000
TCW40_DEV_WIDTH
1002
{
1040
-3.0
1002
}
1001
TCAD
1000
TCW_ATTRIBUTE
1002
{
1000
12.72
1002
}
  0
LWPOLYLINE
  5
440
102
{ACAD_REACTORS
330
43F
102
}
100
AcDbEntity
  8
0
  6
Continuous
 62
           7
100
AcDbPolyline
 90
        4
 70
           0
 10
9.221283299141
 20
5.82616837214
 10
9.661283299141
 20
5.76896837214
 10
9.661283299141
 20
5.88336837214
 10
9.221283299141
 20
5.82616837214
1001
ACAD
1000
TCW40_DEV_WIDTH
1002
{
1040
-3.0
1002
}
1001
TCAD
1000
TCW_ATTRIBUTE
1002
{
1000
12.72
1002
}
  0
HATCH
  5
43F
100
AcDbEntity
  8
0
  6
Continuous
 62
           7
100
AcDbHatch
 10
0.0
 20
0.0
 30
0.0
210
0.0
220
0.0
230
1.0
  2
SOLID
 70
           1
 71
           1
 91
        1
 92
        3
 72
           0
 73
           1
 93
        3
 10
9.2212832991412697
 20
5.8261683721402262
 10
9.6612832991412692
 20
5.7689683721402263
 10
9.6612832991412692
 20
5.8833683721402261
 97
        1
330
440
 75
           0
 76
           0
 98
        0
1001
TCAD
1000
TCW_ATTRIBUTE
1002
{
1000
12.72
1002
}
  0
LWPOLYLINE
  5
442
102
{ACAD_REACTORS
330
441
102
}
100
AcDbEntity
  8
0
  6
Continuous
 62
           7
100
AcDbPolyline
 90
        4
 70
           0
 10
21.950435733603
 20
5.82616837214
 10
21.510435733603
 20
5.88336837214
 10
21.510435733603
 20
5.76896837214
 10
21.950435733603
 20
5.82616837214
1001
ACAD
1000
TCW40_DEV_WIDTH
1002
{
1040
-3.0
1002
}
1001
TCAD
1000
TCW_ATTRIBUTE
1002
{
1000
12.72
1002
}
  0
HATCH
  5
441
100
AcDbEntity
  8
0
  6
Continuous
 62
           7
100
AcDbHatch
 10
0.0
 20
0.0
 30
0.0
210
0.0
220
0.0
230
1.0
  2
SOLID
 70
           1
 71
           1
 91
        1
 92
        3
 72
           0
 73
           1
 93
        3
 10
21.950435733603079
 20
5.8261683721402262
 10
21.510435733603078
 20
5.8833683721402261
 10
21.510435733603078
 20
5.7689683721402263
 97
        1
330
442
 75
           0
 76
           0
 98
        0
1001
TCAD
1000
TCW_ATTRIBUTE
1002
{
1000
12.72
1002
}
  0
MTEXT
  5
443
100
AcDbEntity
  8
0
  6
Continuous
 62
           7
100
AcDbMText
 10
15.359648729187
 20
6.449814215408
 30
0.0
 40
0.500000012305
 41
0.0
 71
           5
 72
           1
  1
\A1;12.72
 73
           1
 44
1.0
1001
TCAD
1000
TCW_REFPOINT
1002
{
1010
15.359648729187
1020
6.449814215408
1030
0.0
1002
}
1000
TCW_ATTRIBUTE
1002
{
1000
12.72
1002
}
  0
ENDBLK
  5
444
100
AcDbEntity
  8
0
100
AcDbBlockEnd
  0
BLOCK
  5
447
100
AcDbEntity
  8
0
100
AcDbBlockBegin
  2
*D45
 70
           1
 10
0.0
 20
0.0
 30
0.0
  3
*D45
  1

  0
MTEXT
  5
448
100
AcDbEntity
  8
0
  6
Continuous
 62
           7
100
AcDbMText
 10
-8.841632958148
 20
5.127948912393
 30
0.0
 40
0.500000012305
 41
0.0
 71
           5
 72
           1
  1
\A1;%%c7.48
 73
           1
 44
1.0
1001
TCAD
1000
TCW_REFPOINT
1002
{
1010
-8.841632958148
1020
5.127948912393
1030
0.0
1002
}
  0
LWPOLYLINE
  5
449
100
AcDbEntity
  8
0
  6
Continuous
 62
           7
100
AcDbPolyline
 90
        4
 70
           0
 10
-5.006074482104
 20
-3.548147541577
 10
-6.028514199723
 20
-0.410534272891
 10
-6.028514199723
 20
-0.410534272891
 10
-7.050953917343
 20
2.727078995795
1001
ACAD
1000
TCW40_DEV_WIDTH
1002
{
1040
-3.0
1002
}
  0
LWPOLYLINE
  5
44A
100
AcDbEntity
  8
0
  6
Continuous
 62
           7
100
AcDbPolyline
 90
        4
 70
           0
 10
-7.187279213026
 20
3.14542743162
 40
0.0
 41
0.0
 10
-7.323604508708
 20
3.563775867445
 40
0.0
 41
0.0
 10
-7.62454742515
 20
4.487294850004
 40
0.0
 41
0.0
 10
-9.979964144371
 20
4.487294850004
 40
0.0
 41
0.0
1001
ACAD
1000
TCW40_DEV_WIDTH
1002
{
1040
-3.0
1002
}
  0
LWPOLYLINE
  5
44C
102
{ACAD_REACTORS
330
44B
102
}
100
AcDbEntity
  8
0
  6
Continuous
 62
           7
100
AcDbPolyline
 90
        4
 70
           0
 10
-4.869749186421
 20
-3.966495977401
 10
-4.951689185446
 20
-3.530425253138
 10
-5.060459778761
 20
-3.565869830015
 10
-4.869749186421
 20
-3.966495977401
1001
ACAD
1000
TCW40_DEV_WIDTH
1002
{
1040
-3.0
1002
}
  0
HATCH
  5
44B
100
AcDbEntity
  8
0
  6
Continuous
 62
           7
100
AcDbHatch
 10
0.0
 20
0.0
 30
0.0
210
0.0
220
0.0
230
1.0
  2
SOLID
 70
           1
 71
           1
 91
        1
 92
        3
 72
           0
 73
           1
 93
        3
 10
-4.869749186421009
 20
-3.9664959774014319
 10
-4.9516891854464147
 20
-3.5304252531379055
 10
-5.0604597787608592
 20
-3.565869830015389
 97
        1
330
44C
 75
           0
 76
           0
 98
        0
  0
LWPOLYLINE
  5
44E
102
{ACAD_REACTORS
330
44D
102
}
100
AcDbEntity
  8
0
  6
Continuous
 62
           7
100
AcDbPolyline
 90
        4
 70
           0
 10
-7.187279213026
 20
3.14542743162
 10
-7.105339214
 20
2.709356707356
 10
-6.996568620686
 20
2.744801284234
 10
-7.187279213026
 20
3.14542743162
1001
ACAD
1000
TCW40_DEV_WIDTH
1002
{
1040
-3.0
1002
}
  0
HATCH
  5
44D
100
AcDbEntity
  8
0
  6
Continuous
 62
           7
100
AcDbHatch
 10
0.0
 20
0.0
 30
0.0
210
0.0
220
0.0
230
1.0
  2
SOLID
 70
           1
 71
           1
 91
        1
 92
        3
 72
           0
 73
           1
 93
        3
 10
-7.1872792130256702
 20
3.1454274316199031
 10
-7.1053392140002645
 20
2.7093567073563767
 10
-6.99656862068582
 20
2.7448012842338603
 97
        1
330
44E
 75
           0
 76
           0
 98
        0
  0
ENDBLK
  5
44F
100
AcDbEntity
  8
0
100
AcDbBlockEnd
  0
BLOCK
  5
46B
100
AcDbEntity
  8
0
100
AcDbBlockBegin
  2
*D46
 70
           1
 10
0.0
 20
0.0
 30
0.0
  3
*D46
  1

  0
LINE
  5
46C
100
AcDbEntity
  8
0
  6
Continuous
 62
           7
100
AcDbLine
 10
21.950437022456
 20
0.105424917694
 30
0.0
 11
21.950437022456
 21
4.363748195861
 31
0.0
1001
ACAD
1000
TCW40_DEV_WIDTH
1002
{
1040
-3.0
1002
}
  0
LINE
  5
46D
100
AcDbEntity
  8
0
  6
Continuous
 62
           7
100
AcDbLine
 10
20.387447628756
 20
0.051030538294
 30
0.0
 11
20.387447628756
 21
4.363748195861
 31
0.0
1001
ACAD
1000
TCW40_DEV_WIDTH
1002
{
1040
-3.0
1002
}
  0
LWPOLYLINE
  5
46E
100
AcDbEntity
  8
0
  6
Continuous
 62
           7
100
AcDbPolyline
 90
        3
 70
           0
 10
24.800268753435
 20
4.163748195861
 10
24.1791228994
 20
4.163748195861
 10
22.390437022456
 20
4.163748195861
1001
ACAD
1000
TCW40_DEV_WIDTH
1002
{
1040
-3.0
1002
}
  0
LWPOLYLINE
  5
46F
100
AcDbEntity
  8
0
  6
Continuous
 62
           7
100
AcDbPolyline
 90
        2
 70
           0
 10
19.507447628756
 20
4.163748195861
 10
19.947447628756
 20
4.163748195861
1001
ACAD
1000
TCW40_DEV_WIDTH
1002
{
1040
-3.0
1002
}
  0
LWPOLYLINE
  5
470
100
AcDbEntity
  8
0
  6
Continuous
 62
           7
100
AcDbPolyline
 90
        2
 70
           0
 10
20.387447628756
 20
4.163748195861
 40
0.0
 41
0.0
 10
21.950437022456
 20
4.163748195861
 40
0.0
 41
0.0
1001
ACAD
1000
TCW40_DEV_WIDTH
1002
{
1040
-3.0
1002
}
  0
LWPOLYLINE
  5
472
102
{ACAD_REACTORS
330
471
102
}
100
AcDbEntity
  8
0
  6
Continuous
 62
           7
100
AcDbPolyline
 90
        4
 70
           0
 10
20.387447628756
 20
4.163748195861
 10
19.947447628756
 20
4.220948195861
 10
19.947447628756
 20
4.106548195861
 10
20.387447628756
 20
4.163748195861
1001
ACAD
1000
TCW40_DEV_WIDTH
1002
{
1040
-3.0
1002
}
  0
HATCH
  5
471
100
AcDbEntity
  8
0
  6
Continuous
 62
           7
100
AcDbHatch
 10
0.0
 20
0.0
 30
0.0
210
0.0
220
0.0
230
1.0
  2
SOLID
 70
           1
 71
           1
 91
        1
 92
        3
 72
           0
 73
           1
 93
        3
 10
20.387447628756398
 20
4.1637481958612046
 10
19.947447628756397
 20
4.2209481958612045
 10
19.947447628756397
 20
4.1065481958612047
 97
        1
330
472
 75
           0
 76
           0
 98
        0
  0
LWPOLYLINE
  5
474
102
{ACAD_REACTORS
330
473
102
}
100
AcDbEntity
  8
0
  6
Continuous
 62
           7
100
AcDbPolyline
 90
        4
 70
           0
 10
21.950437022456
 20
4.163748195861
 10
22.390437022456
 20
4.106548195861
 10
22.390437022456
 20
4.220948195861
 10
21.950437022456
 20
4.163748195861
1001
ACAD
1000
TCW40_DEV_WIDTH
1002
{
1040
-3.0
1002
}
  0
HATCH
  5
473
100
AcDbEntity
  8
0
  6
Continuous
 62
           7
100
AcDbHatch
 10
0.0
 20
0.0
 30
0.0
210
0.0
220
0.0
230
1.0
  2
SOLID
 70
           1
 71
           1
 91
        1
 92
        3
 72
           0
 73
           1
 93
        3
 10
21.950437022456377
 20
4.1637481958612046
 10
22.390437022456378
 20
4.1065481958612047
 10
22.390437022456378
 20
4.2209481958612045
 97
        1
330
474
 75
           0
 76
           0
 98
        0
  0
MTEXT
  5
475
100
AcDbEntity
  8
0
  6
Continuous
 62
           7
100
AcDbMText
 10
23.7391228994
 20
4.787394039129
 30
0.0
 40
0.500000012305
 41
0.0
 71
           5
 72
           1
  1
\A1;1.56
 73
           1
 44
1.0
1001
TCAD
1000
TCW_REFPOINT
1002
{
1010
23.7391228994
1020
4.787394039129
1030
0.0
1002
}
  0
ENDBLK
  5
476
100
AcDbEntity
  8
0
100
AcDbBlockEnd
  0
BLOCK
  5
542
100
AcDbEntity
  8
0
100
AcDbBlockBegin
  2
*D47
 70
           1
 10
0.0
 20
0.0
 30
0.0
  3
*D47
  1

  0
LINE
  5
543
100
AcDbEntity
  8
1
  6
Continuous
 62
           7
100
AcDbLine
 10
-23.920268753435
 20
11.534199486755
 30
0.0
 11
-23.920268753435
 21
7.27033235873
 31
0.0
1001
ACAD
1000
TCW40_DEV_WIDTH
1002
{
1040
-3.0
1002
}
1001
TCAD
1000
TCW_ATTRIBUTE
1002
{
1000
%%c1.750^M^J%%c1.749
1002
}
  0
LINE
  5
544
100
AcDbEntity
  8
1
  6
Continuous
 62
           7
100
AcDbLine
 10
-19.702768543627
 20
11.534199486755
 30
0.0
 11
-19.702768543627
 21
7.27033235873
 31
0.0
1001
ACAD
1000
TCW40_DEV_WIDTH
1002
{
1040
-3.0
1002
}
1001
TCAD
1000
TCW_ATTRIBUTE
1002
{
1000
%%c1.750^M^J%%c1.749
1002
}
  0
LWPOLYLINE
  5
545
100
AcDbEntity
  8
1
  6
Continuous
 62
           7
100
AcDbPolyline
 90
        2
 70
           0
 10
-24.800268753435
 20
7.47033235873
 10
-24.360268753435
 20
7.47033235873
1001
ACAD
1000
TCW40_DEV_WIDTH
1002
{
1040
-3.0
1002
}
1001
TCAD
1000
TCW_ATTRIBUTE
1002
{
1000
%%c1.750^M^J%%c1.749
1002
}
  0
LWPOLYLINE
  5
546
100
AcDbEntity
  8
1
  6
Continuous
 62
           7
100
AcDbPolyline
 90
        2
 70
           0
 10
-23.920268753435
 20
7.47033235873
 40
0.0
 41
0.0
 10
-19.702768543627
 20
7.47033235873
 40
0.0
 41
0.0
1001
ACAD
1000
TCW40_DEV_WIDTH
1002
{
1040
-3.0
1002
}
1001
TCAD
1000
TCW_ATTRIBUTE
1002
{
1000
%%c1.750^M^J%%c1.749
1002
}
  0
LWPOLYLINE
  5
547
100
AcDbEntity
  8
1
  6
Continuous
 62
           7
100
AcDbPolyline
 90
        3
 70
           0
 10
-15.962263417545
 20
7.47033235873
 10
-16.926950949654
 20
7.47033235873
 10
-19.262768543627
 20
7.47033235873
1001
ACAD
1000
TCW40_DEV_WIDTH
1002
{
1040
-3.0
1002
}
1001
TCAD
1000
TCW_ATTRIBUTE
1002
{
1000
%%c1.750^M^J%%c1.749
1002
}
  0
LWPOLYLINE
  5
549
102
{ACAD_REACTORS
330
548
102
}
100
AcDbEntity
  8
1
  6
Continuous
 62
           7
100
AcDbPolyline
 90
        4
 70
           0
 10
-19.702768543627
 20
7.47033235873
 10
-19.262768543627
 20
7.41313235873
 10
-19.262768543627
 20
7.52753235873
 10
-19.702768543627
 20
7.47033235873
1001
ACAD
1000
TCW40_DEV_WIDTH
1002
{
1040
-3.0
1002
}
1001
TCAD
1000
TCW_ATTRIBUTE
1002
{
1000
%%c1.750^M^J%%c1.749
1002
}
  0
HATCH
  5
548
100
AcDbEntity
  8
1
  6
Continuous
 62
           7
100
AcDbHatch
 10
0.0
 20
0.0
 30
0.0
210
0.0
220
0.0
230
1.0
  2
SOLID
 70
           1
 71
           1
 91
        1
 92
        3
 72
           0
 73
           1
 93
        3
 10
-19.70276854362654
 20
7.4703323587300012
 10
-19.262768543626539
 20
7.4131323587300013
 10
-19.262768543626539
 20
7.5275323587300011
 97
        1
330
549
 75
           0
 76
           0
 98
        0
1001
TCAD
1000
TCW_ATTRIBUTE
1002
{
1000
%%c1.750^M^J%%c1.749
1002
}
  0
LWPOLYLINE
  5
54B
102
{ACAD_REACTORS
330
54A
102
}
100
AcDbEntity
  8
1
  6
Continuous
 62
           7
100
AcDbPolyline
 90
        4
 70
           0
 10
-23.920268753435
 20
7.47033235873
 10
-24.360268753435
 20
7.52753235873
 10
-24.360268753435
 20
7.41313235873
 10
-23.920268753435
 20
7.47033235873
1001
ACAD
1000
TCW40_DEV_WIDTH
1002
{
1040
-3.0
1002
}
1001
TCAD
1000
TCW_ATTRIBUTE
1002
{
1000
%%c1.750^M^J%%c1.749
1002
}
  0
HATCH
  5
54A
100
AcDbEntity
  8
1
  6
Continuous
 62
           7
100
AcDbHatch
 10
0.0
 20
0.0
 30
0.0
210
0.0
220
0.0
230
1.0
  2
SOLID
 70
           1
 71
           1
 91
        1
 92
        3
 72
           0
 73
           1
 93
        3
 10
-23.92026875343489
 20
7.4703323587300012
 10
-24.360268753434891
 20
7.5275323587300011
 10
-24.360268753434891
 20
7.4131323587300013
 97
        1
330
54B
 75
           0
 76
           0
 98
        0
1001
TCAD
1000
TCW_ATTRIBUTE
1002
{
1000
%%c1.750^M^J%%c1.749
1002
}
  0
MTEXT
  5
54C
100
AcDbEntity
  8
1
  6
Continuous
 62
           7
100
AcDbMText
 10
-17.366950949654
 20
8.451478213749
 30
0.0
 40
0.500000012305
 41
0.0
 71
           5
 72
           1
  1
\A1;%%c1.750\P%%c1.749
 73
           1
 44
1.0
1001
TCAD
1000
TCW_REFPOINT
1002
{
1010
-17.366950949654
1020
8.451478213749
1030
0.0
1002
}
1000
TCW_ATTRIBUTE
1002
{
1000
%%c1.750^M^J%%c1.749
1002
}
  0
ENDBLK
  5
54D
100
AcDbEntity
  8
0
100
AcDbBlockEnd
  0
BLOCK
  5
550
100
AcDbEntity
  8
0
100
AcDbBlockBegin
  2
*D48
 70
           1
 10
0.0
 20
0.0
 30
0.0
  3
*D48
  1

  0
LINE
  5
551
100
AcDbEntity
  8
1
  6
Continuous
 62
           7
100
AcDbLine
 10
-9.112782652812
 20
11.668836474669
 30
0.0
 11
-9.112782652812
 21
7.42033235873
 31
0.0
1001
ACAD
1000
TCW40_DEV_WIDTH
1002
{
1040
-3.0
1002
}
1001
TCAD
1000
TCW_ATTRIBUTE
1002
{
1000
%%c1.000^M^J%%c0.999
1002
}
  0
LINE
  5
552
100
AcDbEntity
  8
1
  6
Continuous
 62
           7
100
AcDbLine
 10
-5.737782652813
 20
11.668836474669
 30
0.0
 11
-5.737782652813
 21
7.42033235873
 31
0.0
1001
ACAD
1000
TCW40_DEV_WIDTH
1002
{
1040
-3.0
1002
}
1001
TCAD
1000
TCW_ATTRIBUTE
1002
{
1000
%%c1.000^M^J%%c0.999
1002
}
  0
LWPOLYLINE
  5
553
100
AcDbEntity
  8
1
  6
Continuous
 62
           7
100
AcDbPolyline
 90
        2
 70
           0
 10
-9.992782652812
 20
7.62033235873
 10
-9.552782652812
 20
7.62033235873
1001
ACAD
1000
TCW40_DEV_WIDTH
1002
{
1040
-3.0
1002
}
1001
TCAD
1000
TCW_ATTRIBUTE
1002
{
1000
%%c1.000^M^J%%c0.999
1002
}
  0
LWPOLYLINE
  5
554
100
AcDbEntity
  8
1
  6
Continuous
 62
           7
100
AcDbPolyline
 90
        2
 70
           0
 10
-9.112782652812
 20
7.62033235873
 40
0.0
 41
0.0
 10
-5.737782652813
 20
7.62033235873
 40
0.0
 41
0.0
1001
ACAD
1000
TCW40_DEV_WIDTH
1002
{
1040
-3.0
1002
}
1001
TCAD
1000
TCW_ATTRIBUTE
1002
{
1000
%%c1.000^M^J%%c0.999
1002
}
  0
LWPOLYLINE
  5
555
100
AcDbEntity
  8
1
  6
Continuous
 62
           7
100
AcDbPolyline
 90
        3
 70
           0
 10
-1.712263417545
 20
7.62033235873
 10
-2.676950949654
 20
7.62033235873
 10
-5.297782652813
 20
7.62033235873
1001
ACAD
1000
TCW40_DEV_WIDTH
1002
{
1040
-3.0
1002
}
1001
TCAD
1000
TCW_ATTRIBUTE
1002
{
1000
%%c1.000^M^J%%c0.999
1002
}
  0
LWPOLYLINE
  5
557
102
{ACAD_REACTORS
330
556
102
}
100
AcDbEntity
  8
1
  6
Continuous
 62
           7
100
AcDbPolyline
 90
        4
 70
           0
 10
-5.737782652813
 20
7.62033235873
 10
-5.297782652813
 20
7.56313235873
 10
-5.297782652813
 20
7.67753235873
 10
-5.737782652813
 20
7.62033235873
1001
ACAD
1000
TCW40_DEV_WIDTH
1002
{
1040
-3.0
1002
}
1001
TCAD
1000
TCW_ATTRIBUTE
1002
{
1000
%%c1.000^M^J%%c0.999
1002
}
  0
HATCH
  5
556
100
AcDbEntity
  8
1
  6
Continuous
 62
           7
100
AcDbHatch
 10
0.0
 20
0.0
 30
0.0
210
0.0
220
0.0
230
1.0
  2
SOLID
 70
           1
 71
           1
 91
        1
 92
        3
 72
           0
 73
           1
 93
        3
 10
-5.737782652812518
 20
7.6203323587300034
 10
-5.2977826528125176
 20
7.5631323587300043
 10
-5.2977826528125176
 20
7.6775323587300042
 97
        1
330
557
 75
           0
 76
           0
 98
        0
1001
TCAD
1000
TCW_ATTRIBUTE
1002
{
1000
%%c1.000^M^J%%c0.999
1002
}
  0
LWPOLYLINE
  5
559
102
{ACAD_REACTORS
330
558
102
}
100
AcDbEntity
  8
1
  6
Continuous
 62
           7
100
AcDbPolyline
 90
        4
 70
           0
 10
-9.112782652812
 20
7.62033235873
 10
-9.552782652812
 20
7.67753235873
 10
-9.552782652812
 20
7.56313235873
 10
-9.112782652812
 20
7.62033235873
1001
ACAD
1000
TCW40_DEV_WIDTH
1002
{
1040
-3.0
1002
}
1001
TCAD
1000
TCW_ATTRIBUTE
1002
{
1000
%%c1.000^M^J%%c0.999
1002
}
  0
HATCH
  5
558
100
AcDbEntity
  8
1
  6
Continuous
 62
           7
100
AcDbHatch
 10
0.0
 20
0.0
 30
0.0
210
0.0
220
0.0
230
1.0
  2
SOLID
 70
           1
 71
           1
 91
        1
 92
        3
 72
           0
 73
           1
 93
        3
 10
-9.1127826528116831
 20
7.620332358729998
 10
-9.5527826528116826
 20
7.6775323587299971
 10
-9.5527826528116826
 20
7.5631323587299972
 97
        1
330
559
 75
           0
 76
           0
 98
        0
1001
TCAD
1000
TCW_ATTRIBUTE
1002
{
1000
%%c1.000^M^J%%c0.999
1002
}
  0
MTEXT
  5
55A
100
AcDbEntity
  8
1
  6
Continuous
 62
           7
100
AcDbMText
 10
-3.116950949654
 20
8.601478213749
 30
0.0
 40
0.500000012305
 41
0.0
 71
           5
 72
           1
  1
\A1;%%c1.000\P%%c0.999
 73
           1
 44
1.0
1001
TCAD
1000
TCW_REFPOINT
1002
{
1010
-3.116950949654
1020
8.601478213749
1030
0.0
1002
}
1000
TCW_ATTRIBUTE
1002
{
1000
%%c1.000^M^J%%c0.999
1002
}
  0
ENDBLK
  5
55B
100
AcDbEntity
  8
0
100
AcDbBlockEnd
  0
ENDSEC
  0
SECTION
  2
ENTITIES
  0
VIEWPORT
  5
55E
100
AcDbEntity
 67
           1
  8
0
100
AcDbViewport
 10
5.09983411542
 20
3.968749894964
 30
0.0
 40
10.179900489068
 41
7.932027869795
 68
           1
 69
           1
 12
5.09983411542
 22
3.968749894964
 13
0.0
 23
0.0
 14
0.5
 24
0.5
 15
0.5
 25
0.5
 16
0.0
 26
0.0
 36
1.0
 17
0.0
 27
0.0
 37
0.0
 42
50.0
 43
0.0
 44
0.0
 45
7.932027869795
 50
0.0
 51
0.0
 72
         100
 90
    32800
340
0
  1

281
           0
 71
           0
 74
           1
110
0.0
120
0.0
130
0.0
111
1.0
121
0.0
131
0.0
112
0.0
122
1.0
132
0.0
345
0
346
0
 79
           0
146
0.0
  0
VIEWPORT
  5
55F
100
AcDbEntity
 67
           1
  8
0
  6
Continuous
100
AcDbViewport
 10
5.09983411542
 20
3.968749894964
 30
0.0
 40
10.179900489068
 41
7.932027869795
 68
           2
 69
           2
 12
149.5830477535
 22
39.027970727698
 13
0.0
 23
0.0
 14
0.5
 24
0.5
 15
0.5
 25
0.5
 16
0.0
 26
0.0
 36
1.0
 17
0.0
 27
0.0
 37
0.0
 42
98.040483136436
 43
0.0
 44
0.0
 45
94.793879834024
 50
0.0
 51
0.0
 72
         100
341
2F
341
30
341
31
 90
    32800
340
0
  1

281
           0
 71
           0
 74
           1
110
0.0
120
0.0
130
0.0
111
1.0
121
0.0
131
0.0
112
0.0
122
1.0
132
0.0
345
0
346
0
 79
           0
146
0.0
  0
INSERT
  5
2E3
100
AcDbEntity
  8
0
 62
           7
100
AcDbBlockReference
  2
Block_5
 10
0.273919833911
 20
0.316155020347
 30
0.0
  0
INSERT
  5
2E4
100
AcDbEntity
  8
0
 62
           7
100
AcDbBlockReference
  2
Block_6
 10
-6.730871577355
 20
-0.262822892652
 30
0.0
  0
INSERT
  5
2E5
100
AcDbEntity
  8
0
100
AcDbBlockReference
  2
Block_7
 10
0.05087232425
 20
-0.090744904268
 30
0.0
  0
LINE
  5
2E6
100
AcDbEntity
  8
0
  6
Continuous
 62
           7
100
AcDbLine
 10
2.714864150965
 20
-0.410534272891
 30
0.0
 11
-10.829553109846
 21
-0.410534272891
 31
0.0
1001
ACAD
1000
TCW40_DEV_WIDTH
1002
{
1040
-3.0
1002
}
  0
DIMENSION
  5
2F3
100
AcDbEntity
  8
0
  6
Continuous
 62
           7
100
AcDbDimension
  2
*D34
 10
2.591671937516
 20
-0.410534272891
 30
0.0
 11
1.968026094249
 21
-3.161514149391
 31
0.0
 70
         128
 71
           5
 72
           1
 41
1.0
 42
0.0
  1
5.51
  3
STANDARD
100
AcDbAlignedDimension
 13
-1.694514199723
 23
-5.926534272891
 33
0.0
 14
2.714864150965
 24
-0.410534272891
 34
0.0
 50
90.0
100
AcDbRotatedDimension
1001
ACAD
1000
DSTYLE
1002
{
1070
          41
1040
0.44
1070
         176
1070
           7
1070
         177
1070
           7
1070
         178
1070
           7
1070
         179
1070
           2
1070
         271
1070
           2
1070
          43
1040
0.09
1070
          44
1040
0.2
1070
          42
1040
0.2
1070
         147
1040
0.22
1070
          75
1070
           1
1070
          76
1070
           1
1070
          77
1070
           1
1070
         272
1070
           2
1070
         146
1040
1.8
1070
          73
1070
           0
1070
         172
1070
           1
1070
          74
1070
           0
1070
         140
1040
0.5
1070
         288
1070
           1
1002
}
  0
DIMENSION
  5
300
100
AcDbEntity
  8
0
  6
Continuous
 62
           7
100
AcDbDimension
  2
*D35
 10
4.494171826087
 20
3.329465727109
 30
0.0
 11
3.870525982819
 21
-1.302253204824
 31
0.0
 70
         128
 71
           5
 72
           1
 41
1.0
 42
0.0
  1
9.25
  3
STANDARD
100
AcDbAlignedDimension
 13
-1.694514199723
 23
-5.926534272891
 33
0.0
 14
-6.028514199723
 24
3.329465727109
 34
0.0
 50
90.0
100
AcDbRotatedDimension
1001
ACAD
1000
DSTYLE
1002
{
1070
          41
1040
0.44
1070
         176
1070
           7
1070
         177
1070
           7
1070
         178
1070
           7
1070
         179
1070
           2
1070
         271
1070
           2
1070
          43
1040
0.09
1070
          44
1040
0.2
1070
          42
1040
0.2
1070
         147
1040
0.22
1070
          77
1070
           1
1070
         272
1070
           2
1070
         146
1040
1.8
1070
          73
1070
           0
1070
         172
1070
           1
1070
          74
1070
           0
1070
         140
1040
0.5
1070
         288
1070
           1
1002
}
  0
LINE
  5
301
100
AcDbEntity
  8
0
  6
Continuous
 62
           7
100
AcDbLine
 10
-6.216014199723
 20
0.651965727109
 30
0.0
 11
-6.216014199723
 21
0.276965727109
 31
0.0
1001
ACAD
1000
TCW40_DEV_WIDTH
1002
{
1040
-3.0
1002
}
  0
LINE
  5
302
100
AcDbEntity
  8
0
  6
Continuous
 62
           7
100
AcDbLine
 10
-5.841014199723
 20
0.651965727109
 30
0.0
 11
-5.841014199723
 21
0.276965727109
 31
0.0
1001
ACAD
1000
TCW40_DEV_WIDTH
1002
{
1040
-3.0
1002
}
  0
LINE
  5
303
100
AcDbEntity
  8
0
  6
Continuous
 62
           7
100
AcDbLine
 10
-6.028514199723
 20
3.952077827139
 30
0.0
 11
-6.028514199723
 21
-6.354838542639
 31
0.0
1001
ACAD
1000
TCW40_DEV_WIDTH
1002
{
1040
-3.0
1002
}
  0
LINE
  5
304
100
AcDbEntity
  8
0
  6
Continuous
 62
           7
100
AcDbLine
 10
-6.028514199723
 20
3.837472656521
 30
0.0
 11
-6.028514199723
 21
-5.261980862987
 31
0.0
1001
ACAD
1000
TCW40_DEV_WIDTH
1002
{
1040
-3.0
1002
}
  0
CIRCLE
  5
305
100
AcDbEntity
  8
0
  6
Continuous
 62
           7
100
AcDbCircle
 10
-6.028514199723
 20
-0.410534272891
 30
0.0
 40
2.462500095367
1001
ACAD
1000
TCW40_DEV_WIDTH
1002
{
1040
-3.0
1002
}
  0
ARC
  5
306
100
AcDbEntity
  8
0
  6
Continuous
 62
           7
100
AcDbCircle
 10
-6.028514199723
 20
-1.100034272891
 30
0.0
 40
4.334000110626
100
AcDbArc
 50
0.0
 51
179.999964027821
1001
ACAD
1000
TCW40_DEV_WIDTH
1002
{
1040
-3.0
1002
}
  0
CIRCLE
  5
307
100
AcDbEntity
  8
0
  6
Continuous
 62
           7
100
AcDbCircle
 10
-6.028514199723
 20
-0.410534272891
 30
0.0
 40
1.871500015259
1001
ACAD
1000
TCW40_DEV_WIDTH
1002
{
1040
-3.0
1002
}
  0
ARC
  5
308
100
AcDbEntity
  8
0
 62
           7
100
AcDbCircle
 10
-6.028514199723
 20
-0.410534272891
 30
0.0
 40
0.875
100
AcDbArc
 50
102.373627846387
 51
437.62637716257
1001
ACAD
1000
TCW40_DEV_WIDTH
1002
{
1040
-3.0
1002
}
  0
LINE
  5
309
100
AcDbEntity
  8
0
  6
Continuous
 62
           7
100
AcDbLine
 10
-1.708972445123
 20
-0.410534272891
 30
0.0
 11
-10.990364065385
 21
-0.410534272891
 31
0.0
1001
ACAD
1000
TCW40_DEV_WIDTH
1002
{
1040
-3.0
1002
}
  0
LINE
  5
30A
100
AcDbEntity
  8
0
  6
Continuous
 62
           7
100
AcDbLine
 10
-8.195516287923
 20
-5.059733090891
 30
0.0
 11
-7.706962394923
 21
-2.761267229091
 31
0.0
1001
ACAD
1000
TCW40_DEV_WIDTH
1002
{
1040
-3.0
1002
}
  0
LINE
  5
30B
100
AcDbEntity
  8
0
  6
Continuous
 62
           7
100
AcDbLine
 10
-7.998514199723
 20
-5.414334272891
 30
0.0
 11
-4.058514199723
 21
-5.414334272891
 31
0.0
1001
ACAD
1000
TCW40_DEV_WIDTH
1002
{
1040
-3.0
1002
}
  0
LINE
  5
30C
100
AcDbEntity
  8
0
  6
Continuous
 62
           7
100
AcDbLine
 10
-8.077314199723
 20
-5.808334272891
 30
0.0
 11
-3.979714199723
 21
-5.808334272891
 31
0.0
1001
ACAD
1000
TCW40_DEV_WIDTH
1002
{
1040
-3.0
1002
}
  0
DIMENSION
  5
319
100
AcDbEntity
  8
0
  6
Continuous
 62
           7
100
AcDbDimension
  2
*D36
 10
-2.482514199723
 20
-8.146085327288
 30
0.0
 11
-6.012589605921
 21
-7.52243948402
 31
0.0
 70
         129
 71
           5
 72
           1
 41
1.0
 42
0.0
  1
<>
  3
STANDARD
100
AcDbAlignedDimension
 13
-9.574514199723
 23
-8.524617283226
 33
0.0
 14
-2.482514199723
 24
-8.524617283226
 34
0.0
1001
ACAD
1000
DSTYLE
1002
{
1070
          41
1040
0.44
1070
         176
1070
           7
1070
         177
1070
           7
1070
         178
1070
           7
1070
         179
1070
           2
1070
         271
1070
           2
1070
          43
1040
0.09
1070
          44
1040
0.2
1070
          42
1040
0.2
1070
         147
1040
0.22
1070
          75
1070
           1
1070
          76
1070
           1
1070
          77
1070
           1
1070
         272
1070
           2
1070
         146
1040
1.8
1070
         172
1070
           1
1070
         140
1040
0.5
1070
         288
1070
           1
1002
}
  0
DIMENSION
  5
326
100
AcDbEntity
  8
0
  6
Continuous
 62
           7
100
AcDbDimension
  2
*D37
 10
-1.694514199723
 20
-10.178301011878
 30
0.0
 11
-6.049651354425
 21
-9.55465516861
 31
0.0
 70
         129
 71
           5
 72
           1
 41
1.0
 42
0.0
  1
8.66
  3
STANDARD
100
AcDbAlignedDimension
 13
-10.362514199723
 23
-5.926534272891
 33
0.0
 14
-1.694514199723
 24
-5.926534272891
 34
0.0
1001
ACAD
1000
DSTYLE
1002
{
1070
          41
1040
0.44
1070
         176
1070
           7
1070
         177
1070
           7
1070
         178
1070
           7
1070
         179
1070
           2
1070
         271
1070
           2
1070
          43
1040
0.09
1070
          44
1040
0.2
1070
          42
1040
0.2
1070
         147
1040
0.22
1070
          77
1070
           1
1070
         272
1070
           2
1070
         146
1040
1.8
1070
         172
1070
           1
1070
         140
1040
0.5
1070
         288
1070
           1
1002
}
  0
LINE
  5
327
100
AcDbEntity
  8
0
  6
Continuous
 62
           7
100
AcDbLine
 10
-9.574514199723
 20
-4.817466824891
 30
0.0
 11
-9.574514199723
 21
-8.524617283226
 31
0.0
1001
ACAD
1000
TCW40_DEV_WIDTH
1002
{
1040
-3.0
1002
}
  0
LEADER
  5
328
100
AcDbEntity
  8
0
  6
Continuous
 62
           7
100
AcDbLeader
  3
STANDARD
 73
           3
 74
           0
 75
           0
 40
0.0
 76
           2
 10
-9.574514199723
 20
-5.926534272891
 30
0.0
 10
-12.22290097194
 20
-10.149580940017
 30
0.0
 77
           7
211
0.0001
221
0.0
231
0.0
1001
ACAD
1000
DSTYLE
1002
{
1002
}
  0
TEXT
  5
329
100
AcDbEntity
  8
0
  6
Continuous
 62
           7
100
AcDbText
 10
-15.761542019195
 20
-9.930614492251
 30
0.0
 40
0.500000012305
  1
4-Ø0.59
100
AcDbText
1001
TCAD
1000
TCW40_TEXT
1002
{
1000
romand.shx
1070
           0
1070
        1025
1002
}
  0
LINE
  5
32A
100
AcDbEntity
  8
0
  6
Continuous
 62
           7
100
AcDbLine
 10
-8.625809637323
 20
-4.810068686891
 30
0.0
 11
-8.031923863123
 21
-2.016055865491
 31
0.0
1001
ACAD
1000
TCW40_DEV_WIDTH
1002
{
1040
-3.0
1002
}
  0
LINE
  5
32B
100
AcDbEntity
  8
0
  6
Continuous
 62
           7
100
AcDbLine
 10
-9.968514199723
 20
-1.001534272891
 30
0.0
 11
-9.968514199723
 21
-4.862734272891
 31
0.0
1001
ACAD
1000
TCW40_DEV_WIDTH
1002
{
1040
-3.0
1002
}
  0
LINE
  5
32C
100
AcDbEntity
  8
0
  6
Continuous
 62
           7
100
AcDbLine
 10
-10.362514199723
 20
-1.100034272891
 30
0.0
 11
-10.362514199723
 21
-5.926534272891
 31
0.0
1001
ACAD
1000
TCW40_DEV_WIDTH
1002
{
1040
-3.0
1002
}
  0
LINE
  5
32D
100
AcDbEntity
  8
0
  6
Continuous
 62
           7
100
AcDbLine
 10
-10.362514199723
 20
-5.059734272891
 30
0.0
 11
-8.195514199723
 21
-5.059734272891
 31
0.0
1001
ACAD
1000
TCW40_DEV_WIDTH
1002
{
1040
-3.0
1002
}
  0
LINE
  5
32E
100
AcDbEntity
  8
0
  6
Continuous
 62
           7
100
AcDbLine
 10
-10.362514199723
 20
-5.926534272891
 30
0.0
 11
-8.195514199723
 21
-5.926534272891
 31
0.0
1001
ACAD
1000
TCW40_DEV_WIDTH
1002
{
1040
-3.0
1002
}
  0
ARC
  5
32F
100
AcDbEntity
  8
0
  6
Continuous
 62
           7
100
AcDbCircle
 10
-8.934122320323
 20
-4.744534272891
 30
0.0
 40
0.315200001001
100
AcDbArc
 50
-90.000036655424
 51
-12.00000033393
1001
ACAD
1000
TCW40_DEV_WIDTH
1002
{
1040
-3.0
1002
}
  0
LINE
  5
330
100
AcDbEntity
  8
0
  6
HIDDEN
 62
           7
 48
0.20000000298
100
AcDbLine
 10
-9.279014199723
 20
-5.059734272891
 30
0.0
 11
-9.279014199723
 21
-5.926534272891
 31
0.0
1001
ACAD
1000
TCW40_DEV_WIDTH
1002
{
1040
-3.0
1002
}
  0
LINE
  5
331
100
AcDbEntity
  8
0
  6
HIDDEN
 62
           7
 48
0.20000000298
100
AcDbLine
 10
-9.870014199723
 20
-5.059734272891
 30
0.0
 11
-9.870014199723
 21
-5.926534272891
 31
0.0
1001
ACAD
1000
TCW40_DEV_WIDTH
1002
{
1040
-3.0
1002
}
  0
ARC
  5
332
100
AcDbEntity
  8
0
  6
Continuous
 62
           7
100
AcDbCircle
 10
-9.771514199723
 20
-4.862734272891
 30
0.0
 40
0.196999996901
100
AcDbArc
 50
179.9999776882
 51
270.000031646468
1001
ACAD
1000
TCW40_DEV_WIDTH
1002
{
1040
-3.0
1002
}
  0
LINE
  5
333
100
AcDbEntity
  8
0
  6
Continuous
 62
           7
100
AcDbLine
 10
-8.195514199723
 20
-5.059734272891
 30
0.0
 11
-8.195514199723
 21
-5.926534272891
 31
0.0
1001
ACAD
1000
TCW40_DEV_WIDTH
1002
{
1040
-3.0
1002
}
  0
ARC
  5
334
100
AcDbEntity
  8
0
  6
Continuous
 62
           7
100
AcDbCircle
 10
-8.077314199723
 20
-5.926534272891
 30
0.0
 40
0.11819999665
100
AcDbArc
 50
89.99998201391
 51
179.999964027821
1001
ACAD
1000
TCW40_DEV_WIDTH
1002
{
1040
-3.0
1002
}
  0
ARC
  5
335
100
AcDbEntity
  8
0
  6
Continuous
 62
           7
100
AcDbCircle
 10
-7.998514199723
 20
-5.217334272891
 30
0.0
 40
0.196999996901
100
AcDbArc
 50
179.9999776882
 51
270.000031646468
1001
ACAD
1000
TCW40_DEV_WIDTH
1002
{
1040
-3.0
1002
}
  0
LINE
  5
336
100
AcDbEntity
  8
0
  6
Continuous
 62
           7
100
AcDbLine
 10
-9.145088714123
 20
-2.209882471291
 30
0.0
 11
-8.383480016123
 21
-1.770167636291
 31
0.0
1001
ACAD
1000
TCW40_DEV_WIDTH
1002
{
1040
-3.0
1002
}
  0
ARC
  5
337
100
AcDbEntity
  8
0
  6
Continuous
 62
           7
100
AcDbCircle
 10
-6.028514199723
 20
-0.410534272891
 30
0.0
 40
3.191400051117
100
AcDbArc
 50
-156.311829797463
 51
-142.975940084527
1001
ACAD
1000
TCW40_DEV_WIDTH
1002
{
1040
-3.0
1002
}
  0
ARC
  5
338
100
AcDbEntity
  8
0
  6
Continuous
 62
           7
100
AcDbCircle
 10
-8.340234182123
 20
-1.950522003091
 30
0.0
 40
0.315200001001
100
AcDbArc
 50
-12.00000033393
 51
33.670168834387
1001
ACAD
1000
TCW40_DEV_WIDTH
1002
{
1040
-3.0
1002
}
  0
LINE
  5
339
100
AcDbEntity
  8
0
  6
Continuous
 62
           7
100
AcDbLine
 10
-8.621517086123
 20
-0.804534272891
 30
0.0
 11
-9.771514199723
 21
-0.804534272891
 31
0.0
1001
ACAD
1000
TCW40_DEV_WIDTH
1002
{
1040
-3.0
1002
}
  0
LINE
  5
33A
100
AcDbEntity
  8
0
  6
Continuous
 62
           7
100
AcDbLine
 10
-8.621517086123
 20
-0.016534272891
 30
0.0
 11
-10.069416417723
 21
-0.016534272891
 31
0.0
1001
ACAD
1000
TCW40_DEV_WIDTH
1002
{
1040
-3.0
1002
}
  0
ARC
  5
33B
100
AcDbEntity
  8
0
  6
Continuous
 62
           7
100
AcDbCircle
 10
-9.771514199723
 20
-1.001534272891
 30
0.0
 40
0.196999996901
100
AcDbArc
 50
89.999982013911
 51
179.999964027821
1001
ACAD
1000
TCW40_DEV_WIDTH
1002
{
1040
-3.0
1002
}
  0
ARC
  5
33C
100
AcDbEntity
  8
0
  6
Continuous
 62
           7
100
AcDbCircle
 10
-10.069416417723
 20
-0.213534272891
 30
0.0
 40
0.196999996901
100
AcDbArc
 50
89.999982013911
 51
167.626352346291
1001
ACAD
1000
TCW40_DEV_WIDTH
1002
{
1040
-3.0
1002
}
  0
ARC
  5
33D
100
AcDbEntity
  8
0
  6
Continuous
 62
           7
100
AcDbCircle
 10
-8.621517086123
 20
-1.001534272891
 30
0.0
 40
0.196999996901
100
AcDbArc
 50
12.839589384823
 51
90.000002504478
1001
ACAD
1000
TCW40_DEV_WIDTH
1002
{
1040
-3.0
1002
}
  0
ARC
  5
33E
100
AcDbEntity
  8
0
  6
Continuous
 62
           7
100
AcDbCircle
 10
-8.621517086123
 20
0.180465727109
 30
0.0
 40
0.196999996901
100
AcDbArc
 50
-90.0
 51
-12.839590238597
1001
ACAD
1000
TCW40_DEV_WIDTH
1002
{
1040
-3.0
1002
}
  0
LINE
  5
33F
100
AcDbEntity
  8
0
  6
Continuous
 62
           7
100
AcDbLine
 10
-2.482514199723
 20
-4.817466824891
 30
0.0
 11
-2.482514199723
 21
-8.524617283226
 31
0.0
1001
ACAD
1000
TCW40_DEV_WIDTH
1002
{
1040
-3.0
1002
}
  0
DIMENSION
  5
34D
100
AcDbEntity
  8
0
  6
Continuous
 62
           7
100
AcDbDimension
  2
*D38
 10
0.911542342211
 20
-5.059734272891
 30
0.0
 11
0.287896498944
 21
-3.198575831641
 31
0.0
 70
         129
 71
           5
 72
           1
 41
1.0
 42
0.0
  1
<>
  3
STANDARD
100
AcDbAlignedDimension
 13
-1.694514199723
 23
-5.926534272891
 33
0.0
 14
-1.694514199723
 24
-5.059734272891
 34
0.0
 50
90.0
1001
ACAD
1000
DSTYLE
1002
{
1070
          41
1040
0.44
1070
         176
1070
           7
1070
         177
1070
           7
1070
         178
1070
           7
1070
         179
1070
           2
1070
         271
1070
           2
1070
          43
1040
0.09
1070
          44
1040
0.2
1070
          42
1040
0.2
1070
         147
1040
0.22
1070
          75
1070
           1
1070
          77
1070
           1
1070
         272
1070
           2
1070
         146
1040
1.8
1070
          73
1070
           0
1070
         172
1070
           1
1070
          74
1070
           0
1070
         140
1040
0.5
1070
         288
1070
           1
1002
}
  0
LINE
  5
34E
100
AcDbEntity
  8
0
  6
Continuous
 62
           7
100
AcDbLine
 10
-3.435511313323
 20
-0.016534272891
 30
0.0
 11
-1.987611981723
 21
-0.016534272891
 31
0.0
1001
ACAD
1000
TCW40_DEV_WIDTH
1002
{
1040
-3.0
1002
}
  0
LINE
  5
34F
100
AcDbEntity
  8
0
  6
Continuous
 62
           7
100
AcDbLine
 10
-3.435511313323
 20
-0.804534272891
 30
0.0
 11
-2.285514199723
 21
-0.804534272891
 31
0.0
1001
ACAD
1000
TCW40_DEV_WIDTH
1002
{
1040
-3.0
1002
}
  0
ARC
  5
350
100
AcDbEntity
  8
0
  6
Continuous
 62
           7
100
AcDbCircle
 10
-6.028514199723
 20
-0.410534272891
 30
0.0
 40
3.191400051117
100
AcDbArc
 50
-36.311840118537
 51
-22.975950405601
1001
ACAD
1000
TCW40_DEV_WIDTH
1002
{
1040
-3.0
1002
}
  0
LINE
  5
351
100
AcDbEntity
  8
0
  6
Continuous
 62
           7
100
AcDbLine
 10
-2.911941812923
 20
-2.209888775291
 30
0.0
 11
-3.673550471523
 21
-1.770173782691
 31
0.0
1001
ACAD
1000
TCW40_DEV_WIDTH
1002
{
1040
-3.0
1002
}
  0
ARC
  5
352
100
AcDbEntity
  8
0
  6
Continuous
 62
           7
100
AcDbCircle
 10
-3.122906079123
 20
-4.744534272891
 30
0.0
 40
0.315200001001
100
AcDbArc
 50
-168.000018335404
 51
-89.999982013911
1001
ACAD
1000
TCW40_DEV_WIDTH
1002
{
1040
-3.0
1002
}
  0
LINE
  5
353
100
AcDbEntity
  8
0
  6
Continuous
 62
           7
100
AcDbLine
 10
-3.861514199723
 20
-5.926534272891
 30
0.0
 11
-1.694514199723
 21
-5.926534272891
 31
0.0
1001
ACAD
1000
TCW40_DEV_WIDTH
1002
{
1040
-3.0
1002
}
  0
LINE
  5
354
100
AcDbEntity
  8
0
  6
Continuous
 62
           7
100
AcDbLine
 10
-3.861514199723
 20
-5.059734272891
 30
0.0
 11
-1.694514199723
 21
-5.059734272891
 31
0.0
1001
ACAD
1000
TCW40_DEV_WIDTH
1002
{
1040
-3.0
1002
}
  0
LINE
  5
355
100
AcDbEntity
  8
0
  6
Continuous
 62
           7
100
AcDbLine
 10
-3.431222386923
 20
-4.810070262891
 30
0.0
 11
-4.025107373123
 21
-2.016059608491
 31
0.0
1001
ACAD
1000
TCW40_DEV_WIDTH
1002
{
1040
-3.0
1002
}
  0
LINE
  5
356
100
AcDbEntity
  8
0
  6
Continuous
 62
           7
100
AcDbLine
 10
-3.861517824523
 20
-5.059735454891
 30
0.0
 11
-4.350071559923
 21
-2.761269790091
 31
0.0
1001
ACAD
1000
TCW40_DEV_WIDTH
1002
{
1040
-3.0
1002
}
  0
ARC
  5
357
100
AcDbEntity
  8
0
  6
Continuous
 62
           7
100
AcDbCircle
 10
-6.028514199723
 20
-0.410534272891
 30
0.0
 40
3.191400051117
100
AcDbArc
 50
-96.311828127811
 51
-82.975952075253
1001
ACAD
1000
TCW40_DEV_WIDTH
1002
{
1040
-3.0
1002
}
  0
LINE
  5
358
100
AcDbEntity
  8
0
  6
Continuous
 62
           7
100
AcDbLine
 10
-3.861514199723
 20
-5.059734272891
 30
0.0
 11
-3.861514199723
 21
-5.926534272891
 31
0.0
1001
ACAD
1000
TCW40_DEV_WIDTH
1002
{
1040
-3.0
1002
}
  0
ARC
  5
359
100
AcDbEntity
  8
0
  6
Continuous
 62
           7
100
AcDbCircle
 10
-3.979714199723
 20
-5.926534272891
 30
0.0
 40
0.11819999665
100
AcDbArc
 50
0.0
 51
89.99998201391
1001
ACAD
1000
TCW40_DEV_WIDTH
1002
{
1040
-3.0
1002
}
  0
ARC
  5
35A
100
AcDbEntity
  8
0
  6
Continuous
 62
           7
100
AcDbCircle
 10
-4.058514199723
 20
-5.217334272891
 30
0.0
 40
0.196999996901
100
AcDbArc
 50
-89.999982013911
 51
0.0
1001
ACAD
1000
TCW40_DEV_WIDTH
1002
{
1040
-3.0
1002
}
  0
ARC
  5
35B
100
AcDbEntity
  8
0
  6
Continuous
 62
           7
100
AcDbCircle
 10
-7.398650145323
 20
-2.826800776291
 30
0.0
 40
0.315200001001
100
AcDbArc
 50
60.444735777079
 51
168.000004675026
1001
ACAD
1000
TCW40_DEV_WIDTH
1002
{
1040
-3.0
1002
}
  0
LINE
  5
35C
100
AcDbEntity
  8
0
 62
           7
100
AcDbLine
 10
-6.216014199723
 20
0.276965727109
 30
0.0
 11
-5.841014199723
 21
0.276965727109
 31
0.0
1001
ACAD
1000
TCW40_DEV_WIDTH
1002
{
1040
-3.0
1002
}
  0
ARC
  5
35D
100
AcDbEntity
  8
0
  6
Continuous
 62
           7
100
AcDbCircle
 10
-4.658383060923
 20
-2.826804085891
 30
0.0
 40
0.315200001001
100
AcDbArc
 50
11.999996065062
 51
119.555125797905
1001
ACAD
1000
TCW40_DEV_WIDTH
1002
{
1040
-3.0
1002
}
  0
ARC
  5
35E
100
AcDbEntity
  8
0
  6
Continuous
 62
           7
100
AcDbCircle
 10
-3.716794217323
 20
-1.950525627891
 30
0.0
 40
0.315200001001
100
AcDbArc
 50
146.3297542123
 51
191.999995324974
1001
ACAD
1000
TCW40_DEV_WIDTH
1002
{
1040
-3.0
1002
}
  0
ARC
  5
35F
100
AcDbEntity
  8
0
  6
Continuous
 62
           7
100
AcDbCircle
 10
-3.435511313323
 20
-1.001534272891
 30
0.0
 40
0.196999996901
100
AcDbArc
 50
90.0
 51
167.160410501491
1001
ACAD
1000
TCW40_DEV_WIDTH
1002
{
1040
-3.0
1002
}
  0
ARC
  5
360
100
AcDbEntity
  8
0
  6
Continuous
 62
           7
100
AcDbCircle
 10
-3.435511313323
 20
0.180465727109
 30
0.0
 40
0.196999996901
100
AcDbArc
 50
-167.160410501491
 51
-90.000002504478
1001
ACAD
1000
TCW40_DEV_WIDTH
1002
{
1040
-3.0
1002
}
  0
LINE
  5
361
100
AcDbEntity
  8
0
  6
Continuous
 62
           7
100
AcDbLine
 10
-2.088514199723
 20
-1.001534272891
 30
0.0
 11
-2.088514199723
 21
-4.862734272891
 31
0.0
1001
ACAD
1000
TCW40_DEV_WIDTH
1002
{
1040
-3.0
1002
}
  0
LINE
  5
362
100
AcDbEntity
  8
0
  6
Continuous
 62
           7
100
AcDbLine
 10
-1.694514199723
 20
-1.100034272891
 30
0.0
 11
-1.694514199723
 21
-5.926534272891
 31
0.0
1001
ACAD
1000
TCW40_DEV_WIDTH
1002
{
1040
-3.0
1002
}
  0
LINE
  5
363
100
AcDbEntity
  8
0
  6
HIDDEN
 62
           7
 48
0.20000000298
100
AcDbLine
 10
-2.187014199723
 20
-5.059734272891
 30
0.0
 11
-2.187014199723
 21
-5.926534272891
 31
0.0
1001
ACAD
1000
TCW40_DEV_WIDTH
1002
{
1040
-3.0
1002
}
  0
LINE
  5
364
100
AcDbEntity
  8
0
  6
HIDDEN
 62
           7
 48
0.20000000298
100
AcDbLine
 10
-2.778014199723
 20
-5.059734272891
 30
0.0
 11
-2.778014199723
 21
-5.926534272891
 31
0.0
1001
ACAD
1000
TCW40_DEV_WIDTH
1002
{
1040
-3.0
1002
}
  0
ARC
  5
365
100
AcDbEntity
  8
0
  6
Continuous
 62
           7
100
AcDbCircle
 10
-2.285514199723
 20
-4.862734272891
 30
0.0
 40
0.196999996901
100
AcDbArc
 50
-89.999982013911
 51
0.0
1001
ACAD
1000
TCW40_DEV_WIDTH
1002
{
1040
-3.0
1002
}
  0
ARC
  5
366
100
AcDbEntity
  8
0
  6
Continuous
 62
           7
100
AcDbCircle
 10
-1.987611981723
 20
-0.213534272891
 30
0.0
 40
0.196999996901
100
AcDbArc
 50
12.373613389077
 51
89.999982013911
1001
ACAD
1000
TCW40_DEV_WIDTH
1002
{
1040
-3.0
1002
}
  0
ARC
  5
367
100
AcDbEntity
  8
0
  6
Continuous
 62
           7
100
AcDbCircle
 10
-2.285514199723
 20
-1.001534272891
 30
0.0
 40
0.196999996901
100
AcDbArc
 50
0.0
 51
89.999982013911
1001
ACAD
1000
TCW40_DEV_WIDTH
1002
{
1040
-3.0
1002
}
  0
POINT
  5
368
100
AcDbEntity
  8
0
  6
Continuous
 62
           7
100
AcDbPoint
 10
-1.749712417723
 20
-0.410534272891
 30
-0.0
1001
TCAD
1000
TC25ExternalObject
1002
{
1000
TCW30POINT
1000

1070
           0
1071
        0
1040
1.0
1040
0.0
1000
Continuous
1000
0
1071
        1
1071
      242
1010
-1.749712417723
1020
-0.410534272891
1030
-0.0
1070
           3
1071
-2147483645
1070
           0
1000
$POINTSIZE
1070
           5
1040
2.33857647972
1000
$POINTTYPE
1070
          18
1070
           5
1000
ExplodeScale
1070
           5
1040
1.0
1002
}
  0
ARC
  5
369
100
AcDbEntity
  8
0
 62
           7
100
AcDbCircle
 10
-6.028514199723
 20
-0.410534272891
 30
0.0
 40
3.740000009537
100
AcDbArc
 50
56.90091603188
 51
123.099078731792
1001
ACAD
1000
TCW40_DEV_WIDTH
1002
{
1040
-3.0
1002
}
  0
LINE
  5
36A
100
AcDbEntity
  8
0
  6
Continuous
 62
           7
100
AcDbLine
 10
-9.145084813523
 20
1.388818574709
 30
0.0
 11
-8.383476115523
 21
0.949103463909
 31
0.0
1001
ACAD
1000
TCW40_DEV_WIDTH
1002
{
1040
-3.0
1002
}
  0
ARC
  5
36B
100
AcDbEntity
  8
0
  6
Continuous
 62
           7
100
AcDbCircle
 10
-6.028514199723
 20
-0.410534272891
 30
0.0
 40
3.191400051117
100
AcDbArc
 50
143.688164890419
 51
157.024054603355
1001
ACAD
1000
TCW40_DEV_WIDTH
1002
{
1040
-3.0
1002
}
  0
ARC
  5
36C
100
AcDbEntity
  8
0
  6
Continuous
 62
           7
100
AcDbCircle
 10
-6.028514199723
 20
-0.410534272891
 30
0.0
 40
3.191400051117
100
AcDbArc
 50
23.688154720926
 51
37.024044433862
1001
ACAD
1000
TCW40_DEV_WIDTH
1002
{
1040
-3.0
1002
}
  0
LINE
  5
36D
100
AcDbEntity
  8
0
  6
Continuous
 62
           7
100
AcDbLine
 10
-2.911945083123
 20
1.388823657309
 30
0.0
 11
-3.673553938723
 21
0.949108704109
 31
0.0
1001
ACAD
1000
TCW40_DEV_WIDTH
1002
{
1040
-3.0
1002
}
  0
LINE
  5
36E
100
AcDbEntity
  8
0
 62
           7
100
AcDbLine
 10
-6.216014199723
 20
0.651965727109
 30
0.0
 11
-5.841014199723
 21
0.651965727109
 31
0.0
1001
ACAD
1000
TCW40_DEV_WIDTH
1002
{
1040
-3.0
1002
}
  0
ARC
  5
36F
100
AcDbEntity
  8
0
  6
Continuous
 62
           7
100
AcDbCircle
 10
-6.028514199723
 20
-0.410534272891
 30
0.0
 40
3.191400051117
100
AcDbArc
 50
83.688176881145
 51
97.024059763893
1001
ACAD
1000
TCW40_DEV_WIDTH
1002
{
1040
-3.0
1002
}
  0
LINE
  5
370
100
AcDbEntity
  8
0
  6
Continuous
 62
           7
100
AcDbLine
 10
16.015883299141
 20
2.940803373076
 30
0.0
 11
16.015883299141
 21
-0.391548298764
 31
0.0
1001
ACAD
1000
TCW40_DEV_WIDTH
1002
{
1040
-3.0
1002
}
  0
LINE
  5
371
100
AcDbEntity
  8
0
  6
Continuous
 62
           7
100
AcDbLine
 10
15.424883299141
 20
2.940803373076
 30
0.0
 11
15.424883299141
 21
-0.126521732324
 31
0.0
1001
ACAD
1000
TCW40_DEV_WIDTH
1002
{
1040
-3.0
1002
}
  0
DIMENSION
  5
380
100
AcDbEntity
  8
0
  6
Continuous
 62
           7
100
AcDbDimension
  2
*D39
 10
11.721283299141
 20
4.139861480071
 30
0.0
 11
10.467506376129
 21
4.763507323339
 31
0.0
 70
         128
 71
           5
 72
           1
 41
1.0
 42
0.0
  1
<>
  3
STANDARD
100
AcDbAlignedDimension
 13
9.221283299141
 23
0.358803373076
 33
0.0
 14
11.721283299141
 24
0.379803373076
 34
0.0
100
AcDbRotatedDimension
1001
ACAD
1000
DSTYLE
1002
{
1070
          41
1040
0.44
1070
         176
1070
           7
1070
         177
1070
           7
1070
         178
1070
           7
1070
         179
1070
           2
1070
         271
1070
           2
1070
          43
1040
0.09
1070
          44
1040
0.2
1070
          42
1040
0.2
1070
         147
1040
0.22
1070
          75
1070
           1
1070
          77
1070
           1
1070
         272
1070
           2
1070
         146
1040
1.8
1070
          73
1070
           0
1070
         174
1070
           1
1070
         172
1070
           1
1070
          74
1070
           0
1070
         140
1040
0.5
1070
         288
1070
           1
1002
}
  0
LINE
  5
381
100
AcDbEntity
  8
0
  6
Continuous
 62
           7
100
AcDbLine
 10
11.918283299141
 20
1.167803373076
 30
0.0
 11
11.918283299141
 21
-2.575196626924
 31
0.0
1001
ACAD
1000
TCW40_DEV_WIDTH
1002
{
1040
-3.0
1002
}
  0
LINE
  5
382
100
AcDbEntity
  8
0
  6
Continuous
 62
           7
100
AcDbLine
 10
17.985883299141
 20
2.938028373076
 30
0.0
 11
17.985883299141
 21
-4.345421626924
 31
0.0
1001
ACAD
1000
TCW40_DEV_WIDTH
1002
{
1040
-3.0
1002
}
  0
LINE
  5
383
100
AcDbEntity
  8
0
  6
Continuous
 62
           7
100
AcDbLine
 10
8.020559755711
 20
-0.703696626924
 30
0.0
 11
23.232049591246
 21
-0.703696626924
 31
0.0
1001
ACAD
1000
TCW40_DEV_WIDTH
1002
{
1040
-3.0
1002
}
  0
LINE
  5
384
100
AcDbEntity
  8
0
 62
           7
100
AcDbLine
 10
9.221283299141
 20
0.358803373076
 30
0.0
 11
11.408783299141
 21
0.358803373076
 31
0.0
1001
ACAD
1000
TCW40_DEV_WIDTH
1002
{
1040
-3.0
1002
}
  0
LINE
  5
385
100
AcDbEntity
  8
0
 62
           7
100
AcDbLine
 10
9.221283299141
 20
0.171303373076
 30
0.0
 11
11.721283299141
 21
0.171303373076
 31
0.0
1001
ACAD
1000
TCW40_DEV_WIDTH
1002
{
1040
-3.0
1002
}
  0
LINE
  5
386
100
AcDbEntity
  8
0
 62
           7
100
AcDbLine
 10
9.221283299141
 20
-1.578696626924
 30
0.0
 11
11.721283299141
 21
-1.578696626924
 31
0.0
1001
ACAD
1000
TCW40_DEV_WIDTH
1002
{
1040
-3.0
1002
}
  0
DIMENSION
  5
393
100
AcDbEntity
  8
0
  6
Continuous
 62
           7
100
AcDbDimension
  2
*D40
 10
13.297283299141
 20
-10.017700293931
 30
0.0
 11
11.184032498724
 21
-9.394054450664
 31
0.0
 70
         128
 71
           5
 72
           1
 41
1.0
 42
0.0
  1
<>
  3
STANDARD
100
AcDbAlignedDimension
 13
9.221283299141
 23
-1.578696626924
 33
0.0
 14
13.297283299141
 24
-6.219696626924
 34
0.0
100
AcDbRotatedDimension
1001
ACAD
1000
DSTYLE
1002
{
1070
          41
1040
0.44
1070
         176
1070
           7
1070
         177
1070
           7
1070
         178
1070
           7
1070
         179
1070
           2
1070
         271
1070
           2
1070
          43
1040
0.09
1070
          44
1040
0.2
1070
          42
1040
0.2
1070
         147
1040
0.22
1070
          77
1070
           1
1070
         272
1070
           2
1070
         146
1040
1.8
1070
         172
1070
           1
1070
         140
1040
0.5
1070
         288
1070
           1
1002
}
  0
LINE
  5
394
100
AcDbEntity
  8
0
  6
Continuous
 62
           7
100
AcDbLine
 10
9.221283299141
 20
0.358803373076
 30
0.0
 11
9.221283299141
 21
-1.578696626924
 31
0.0
1001
ACAD
1000
TCW40_DEV_WIDTH
1002
{
1040
-3.0
1002
}
  0
LINE
  5
395
100
AcDbEntity
  8
0
  6
Continuous
 62
           7
100
AcDbLine
 10
19.207283299141
 20
-5.084362380924
 30
0.0
 11
19.207283299141
 21
-6.559818832066
 31
0.0
1001
ACAD
1000
TCW40_DEV_WIDTH
1002
{
1040
-3.0
1002
}
  0
DIMENSION
  5
3A4
100
AcDbEntity
  8
0
  6
Continuous
 62
           7
100
AcDbDimension
  2
*D41
 10
13.297283299141
 20
-8.164616181463
 30
0.0
 11
15.211401969822
 21
-7.540970338195
 31
0.0
 70
         129
 71
           5
 72
           1
 41
1.0
 42
0.0
  1
<>
  3
STANDARD
100
AcDbAlignedDimension
 13
12.509283299141
 23
-6.219696626924
 33
0.0
 14
13.297283299141
 24
-6.219696626924
 34
0.0
1001
ACAD
1000
DSTYLE
1002
{
1070
          41
1040
0.44
1070
         176
1070
           7
1070
         177
1070
           7
1070
         178
1070
           7
1070
         179
1070
           2
1070
         271
1070
           2
1070
          43
1040
0.09
1070
          44
1040
0.2
1070
          42
1040
0.2
1070
         147
1040
0.22
1070
          77
1070
           1
1070
         272
1070
           2
1070
         146
1040
1.8
1070
         172
1070
           1
1070
         140
1040
0.5
1070
         288
1070
           1
1002
}
  0
LINE
  5
3A5
100
AcDbEntity
  8
0
  6
Continuous
 62
           7
100
AcDbLine
 10
13.297283299141
 20
-5.084362380924
 30
0.0
 11
13.297283299141
 21
-6.559818832066
 31
0.0
1001
ACAD
1000
TCW40_DEV_WIDTH
1002
{
1040
-3.0
1002
}
  0
DIMENSION
  5
3B2
100
AcDbEntity
  8
0
  6
Continuous
 62
           7
100
AcDbDimension
  2
*D42
 10
19.207283299141
 20
-10.017700293931
 30
0.0
 11
16.15029792014
 21
-9.394054450664
 31
0.0
 70
         128
 71
           5
 72
           1
 41
1.0
 42
0.0
  1
<>
  3
STANDARD
100
AcDbAlignedDimension
 13
13.297283299141
 23
-10.112260251863
 33
0.0
 14
19.207283299141
 24
-6.219696626924
 34
0.0
100
AcDbRotatedDimension
1001
ACAD
1000
DSTYLE
1002
{
1070
          41
1040
0.44
1070
         176
1070
           7
1070
         177
1070
           7
1070
         178
1070
           7
1070
         179
1070
           2
1070
         271
1070
           2
1070
          43
1040
0.09
1070
          44
1040
0.2
1070
          42
1040
0.2
1070
         147
1040
0.22
1070
          77
1070
           1
1070
         272
1070
           2
1070
         146
1040
1.8
1070
         172
1070
           1
1070
         140
1040
0.5
1070
         288
1070
           1
1002
}
  0
LINE
  5
3B3
100
AcDbEntity
  8
0
  6
Continuous
 62
           7
100
AcDbLine
 10
12.509283299141
 20
-6.219696626924
 30
0.0
 11
19.995283299141
 21
-6.219696626924
 31
0.0
1001
ACAD
1000
TCW40_DEV_WIDTH
1002
{
1040
-3.0
1002
}
  0
ARC
  5
3B4
100
AcDbEntity
  8
0
  6
Continuous
 62
           7
100
AcDbCircle
 10
18.379883299141
 20
-0.391548298764
 30
0.0
 40
2.364000082016
100
AcDbArc
 50
179.9999776882
 51
207.999973002917
1001
ACAD
1000
TCW40_DEV_WIDTH
1002
{
1040
-3.0
1002
}
  0
LINE
  5
3B5
100
AcDbEntity
  8
0
  6
Continuous
 62
           7
100
AcDbLine
 10
12.736663535941
 20
-5.005610448924
 30
0.0
 11
12.965595187141
 21
-2.388909959724
 31
0.0
1001
ACAD
1000
TCW40_DEV_WIDTH
1002
{
1040
-3.0
1002
}
  0
LINE
  5
3B6
100
AcDbEntity
  8
0
  6
Continuous
 62
           7
100
AcDbLine
 10
12.036483299141
 20
-2.779924700524
 30
0.0
 11
12.036483299141
 21
-3.166196626924
 31
0.0
1001
ACAD
1000
TCW40_DEV_WIDTH
1002
{
1040
-3.0
1002
}
  0
LINE
  5
3B7
100
AcDbEntity
  8
0
  6
Continuous
 62
           7
100
AcDbLine
 10
15.030883299141
 20
-0.624896626924
 30
0.0
 11
15.030883299141
 21
-5.037696626924
 31
0.0
1001
ACAD
1000
TCW40_DEV_WIDTH
1002
{
1040
-3.0
1002
}
  0
LINE
  5
3B8
100
AcDbEntity
  8
0
  6
Continuous
 62
           7
100
AcDbLine
 10
12.509283299141
 20
-5.352896626924
 30
0.0
 11
14.715683299141
 21
-5.352896626924
 31
0.0
1001
ACAD
1000
TCW40_DEV_WIDTH
1002
{
1040
-3.0
1002
}
  0
LINE
  5
3B9
100
AcDbEntity
  8
0
  6
HIDDEN
 62
           7
 48
0.20000000298
100
AcDbLine
 10
13.001783299141
 20
-5.352896626924
 30
0.0
 11
13.001783299141
 21
-6.219696626924
 31
0.0
1001
ACAD
1000
TCW40_DEV_WIDTH
1002
{
1040
-3.0
1002
}
  0
LINE
  5
3BA
100
AcDbEntity
  8
0
  6
HIDDEN
 62
           7
 48
0.20000000298
100
AcDbLine
 10
13.592783299141
 20
-5.352896626924
 30
0.0
 11
13.592783299141
 21
-6.219696626924
 31
0.0
1001
ACAD
1000
TCW40_DEV_WIDTH
1002
{
1040
-3.0
1002
}
  0
LINE
  5
3BB
100
AcDbEntity
  8
0
  6
Continuous
 62
           7
100
AcDbLine
 10
12.509283299141
 20
-5.352896626924
 30
0.0
 11
12.509283299141
 21
-6.219696626924
 31
0.0
1001
ACAD
1000
TCW40_DEV_WIDTH
1002
{
1040
-3.0
1002
}
  0
ARC
  5
3BC
100
AcDbEntity
  8
0
  6
Continuous
 62
           7
100
AcDbCircle
 10
11.649448746341
 20
-4.541842859524
 30
0.0
 40
1.182000041008
100
AcDbArc
 50
-43.327748962272
 51
-23.101279254229
1001
ACAD
1000
TCW40_DEV_WIDTH
1002
{
1040
-3.0
1002
}
  0
LINE
  5
3BD
100
AcDbEntity
  8
0
  6
Continuous
 62
           7
100
AcDbLine
 10
12.036483299141
 20
-3.166196626924
 30
0.0
 11
12.897594766541
 21
-3.166196626924
 31
0.0
1001
ACAD
1000
TCW40_DEV_WIDTH
1002
{
1040
-3.0
1002
}
  0
ARC
  5
3BE
100
AcDbEntity
  8
0
  6
Continuous
 62
           7
100
AcDbCircle
 10
14.715683299141
 20
-5.037696626924
 30
0.0
 40
0.315200001001
100
AcDbArc
 50
-89.999982013911
 51
0.0
1001
ACAD
1000
TCW40_DEV_WIDTH
1002
{
1040
-3.0
1002
}
  0
LINE
  5
3BF
100
AcDbEntity
  8
0
  6
Continuous
 62
           7
100
AcDbLine
 10
11.721283299141
 20
0.379803373076
 30
0.0
 11
11.721283299141
 21
-1.787196626924
 31
0.0
1001
ACAD
1000
TCW40_DEV_WIDTH
1002
{
1040
-3.0
1002
}
  0
LINE
  5
3C0
100
AcDbEntity
  8
0
  6
Continuous
 62
           7
100
AcDbLine
 10
11.918283299141
 20
-2.575195563124
 30
0.0
 11
12.036483299141
 21
-2.779923951924
 31
0.0
1001
ACAD
1000
TCW40_DEV_WIDTH
1002
{
1040
-3.0
1002
}
  0
LINE
  5
3C1
100
AcDbEntity
  8
0
  6
Continuous
 62
           7
100
AcDbLine
 10
11.721283299141
 20
-1.787196626924
 30
0.0
 11
11.918283299141
 21
-1.787196626924
 31
0.0
1001
ACAD
1000
TCW40_DEV_WIDTH
1002
{
1040
-3.0
1002
}
  0
ARC
  5
3C2
100
AcDbEntity
  8
0
  6
Continuous
 62
           7
100
AcDbCircle
 10
12.769348790941
 20
-2.371740385324
 30
0.0
 40
0.196999996901
100
AcDbArc
 50
-4.999979790866
 51
89.999982013911
1001
ACAD
1000
TCW40_DEV_WIDTH
1002
{
1040
-3.0
1002
}
  0
LINE
  5
3C3
100
AcDbEntity
  8
0
  6
Continuous
 62
           7
100
AcDbLine
 10
11.721283299141
 20
0.379803373076
 30
0.0
 11
11.918283299141
 21
0.379803373076
 31
0.0
1001
ACAD
1000
TCW40_DEV_WIDTH
1002
{
1040
-3.0
1002
}
  0
LINE
  5
3C4
100
AcDbEntity
  8
0
  6
Continuous
 62
           7
100
AcDbLine
 10
11.408783299141
 20
0.358803373076
 30
0.0
 11
11.408783299141
 21
0.171303373076
 31
0.0
1001
ACAD
1000
TCW40_DEV_WIDTH
1002
{
1040
-3.0
1002
}
  0
ARC
  5
3C5
100
AcDbEntity
  8
0
  6
Continuous
 62
           7
100
AcDbCircle
 10
15.346083299141
 20
-0.624896626924
 30
0.0
 40
0.315200001001
100
AcDbArc
 50
103.342421878261
 51
179.999964027821
1001
ACAD
1000
TCW40_DEV_WIDTH
1002
{
1040
-3.0
1002
}
  0
ARC
  5
3C6
100
AcDbEntity
  8
0
  6
Continuous
 62
           7
100
AcDbCircle
 10
15.227883299141
 20
-0.126521732324
 30
0.0
 40
0.196999996901
100
AcDbArc
 50
-76.657699243911
 51
0.0
1001
ACAD
1000
TCW40_DEV_WIDTH
1002
{
1040
-3.0
1002
}
  0
LINE
  5
3C7
100
AcDbEntity
  8
0
  6
Continuous
 62
           7
100
AcDbLine
 10
18.173770473141
 20
-5.039354578924
 30
0.0
 11
16.292595409141
 21
-1.501378664724
 31
0.0
1001
ACAD
1000
TCW40_DEV_WIDTH
1002
{
1040
-3.0
1002
}
  0
ARC
  5
3C8
100
AcDbEntity
  8
0
  6
Continuous
 62
           7
100
AcDbCircle
 10
18.695592347141
 20
-4.761896626924
 30
0.0
 40
0.591000020504
100
AcDbArc
 50
-152.000013336704
 51
-89.999982013911
1001
ACAD
1000
TCW40_DEV_WIDTH
1002
{
1040
-3.0
1002
}
  0
LINE
  5
3C9
100
AcDbEntity
  8
0
  6
Continuous
 62
           7
100
AcDbLine
 10
17.64065515226
 20
-4.036710433324
 30
0.0
 11
17.828403299141
 21
-4.036710433324
 31
0.0
1001
ACAD
1000
TCW40_DEV_WIDTH
1002
{
1040
-3.0
1002
}
  0
LINE
  5
3CA
100
AcDbEntity
  8
0
  6
Continuous
 62
           7
100
AcDbLine
 10
17.737001331539
 20
-4.217911252024
 30
0.0
 11
17.828403299141
 21
-4.217911252024
 31
0.0
1001
ACAD
1000
TCW40_DEV_WIDTH
1002
{
1040
-3.0
1002
}
  0
LINE
  5
3CB
100
AcDbEntity
  8
0
  6
Continuous
 62
           7
100
AcDbLine
 10
17.828406842441
 20
-4.443846626924
 30
0.0
 11
17.985885661341
 21
-4.286367808024
 31
0.0
1001
ACAD
1000
TCW40_DEV_WIDTH
1002
{
1040
-3.0
1002
}
  0
LINE
  5
3CC
100
AcDbEntity
  8
0
  6
Continuous
 62
           7
100
AcDbLine
 10
17.535983132106
 20
-3.839850984524
 30
0.0
 11
17.828403299141
 21
-3.839850984524
 31
0.0
1001
ACAD
1000
TCW40_DEV_WIDTH
1002
{
1040
-3.0
1002
}
  0
LINE
  5
3CD
100
AcDbEntity
  8
0
  6
Continuous
 62
           7
100
AcDbLine
 10
17.249474395565
 20
-3.301006392924
 30
0.0
 11
17.828403299141
 21
-3.301006392924
 31
0.0
1001
ACAD
1000
TCW40_DEV_WIDTH
1002
{
1040
-3.0
1002
}
  0
LINE
  5
3CE
100
AcDbEntity
  8
0
  6
Continuous
 62
           7
100
AcDbLine
 10
17.392269066389
 20
-3.569564123524
 30
0.0
 11
17.828403299141
 21
-3.569564123524
 31
0.0
1001
ACAD
1000
TCW40_DEV_WIDTH
1002
{
1040
-3.0
1002
}
  0
LINE
  5
3CF
100
AcDbEntity
  8
0
  6
Continuous
 62
           7
100
AcDbLine
 10
18.695592347141
 20
-5.352896626924
 30
0.0
 11
19.995283299141
 21
-5.352896626924
 31
0.0
1001
ACAD
1000
TCW40_DEV_WIDTH
1002
{
1040
-3.0
1002
}
  0
LINE
  5
3D0
100
AcDbEntity
  8
0
  6
HIDDEN
 62
           7
 48
0.20000000298
100
AcDbLine
 10
18.911783299141
 20
-5.352896626924
 30
0.0
 11
18.911783299141
 21
-6.219696626924
 31
0.0
1001
ACAD
1000
TCW40_DEV_WIDTH
1002
{
1040
-3.0
1002
}
  0
LINE
  5
3D1
100
AcDbEntity
  8
0
  6
HIDDEN
 62
           7
 48
0.20000000298
100
AcDbLine
 10
19.502783299141
 20
-5.352896626924
 30
0.0
 11
19.502783299141
 21
-6.219696626924
 31
0.0
1001
ACAD
1000
TCW40_DEV_WIDTH
1002
{
1040
-3.0
1002
}
  0
LINE
  5
3D2
100
AcDbEntity
  8
0
  6
Continuous
 62
           7
100
AcDbLine
 10
19.995283299141
 20
-5.352896626924
 30
0.0
 11
19.995283299141
 21
-6.219696626924
 31
0.0
1001
ACAD
1000
TCW40_DEV_WIDTH
1002
{
1040
-3.0
1002
}
  0
LINE
  5
3D3
100
AcDbEntity
  8
0
  6
Continuous
 62
           7
100
AcDbLine
 10
16.219828069866
 20
-1.352098873424
 30
0.0
 11
17.828403299141
 21
-1.352098873424
 31
0.0
1001
ACAD
1000
TCW40_DEV_WIDTH
1002
{
1040
-3.0
1002
}
  0
LINE
  5
3D4
100
AcDbEntity
  8
0
  6
Continuous
 62
           7
100
AcDbLine
 10
16.656680721566
 20
-2.186123583324
 30
0.0
 11
17.828403299141
 21
-2.186123583324
 31
0.0
1001
ACAD
1000
TCW40_DEV_WIDTH
1002
{
1040
-3.0
1002
}
  0
LINE
  5
3D5
100
AcDbEntity
  8
0
  6
Continuous
 62
           7
100
AcDbLine
 10
16.417176258318
 20
-1.735681177124
 30
0.0
 11
17.828403299141
 21
-1.735681177124
 31
0.0
1001
ACAD
1000
TCW40_DEV_WIDTH
1002
{
1040
-3.0
1002
}
  0
LINE
  5
3D6
100
AcDbEntity
  8
0
  6
Continuous
 62
           7
100
AcDbLine
 10
17.055524986384
 20
-2.936240587024
 30
0.0
 11
17.828403299141
 21
-2.936240587024
 31
0.0
1001
ACAD
1000
TCW40_DEV_WIDTH
1002
{
1040
-3.0
1002
}
  0
LINE
  5
3D7
100
AcDbEntity
  8
0
  6
Continuous
 62
           7
100
AcDbLine
 10
16.174863299141
 20
0.328282017776
 30
0.0
 11
17.828403299141
 21
0.328282017776
 31
0.0
1001
ACAD
1000
TCW40_DEV_WIDTH
1002
{
1040
-3.0
1002
}
  0
LINE
  5
3D8
100
AcDbEntity
  8
0
  6
Continuous
 62
           7
100
AcDbLine
 10
16.174863299141
 20
-0.506867099324
 30
0.0
 11
17.828403299141
 21
-0.506867099324
 31
0.0
1001
ACAD
1000
TCW40_DEV_WIDTH
1002
{
1040
-3.0
1002
}
  0
LINE
  5
3D9
100
AcDbEntity
  8
0
  6
Continuous
 62
           7
100
AcDbLine
 10
16.174863299141
 20
-0.900551351324
 30
0.0
 11
17.828403299141
 21
-0.900551351324
 31
0.0
1001
ACAD
1000
TCW40_DEV_WIDTH
1002
{
1040
-3.0
1002
}
  0
LINE
  5
3DA
100
AcDbEntity
  8
0
  6
Continuous
 62
           7
100
AcDbLine
 10
16.174863299141
 20
-0.055320758324
 30
0.0
 11
17.828403299141
 21
-0.055320758324
 31
0.0
1001
ACAD
1000
TCW40_DEV_WIDTH
1002
{
1040
-3.0
1002
}
  0
LINE
  5
3DB
100
AcDbEntity
  8
0
  6
Continuous
 62
           7
100
AcDbLine
 10
7.915305048147
 20
15.044301010876
 30
0.0
 11
22.779363570133
 21
15.044301010876
 31
0.0
1001
ACAD
1000
TCW40_DEV_WIDTH
1002
{
1040
-3.0
1002
}
  0
LINE
  5
3DC
100
AcDbEntity
  8
0
  6
Continuous
 62
           7
100
AcDbLine
 10
11.721283299141
 20
16.127801010876
 30
0.0
 11
11.721283299141
 21
13.960801010876
 31
0.0
1001
ACAD
1000
TCW40_DEV_WIDTH
1002
{
1040
-3.0
1002
}
  0
LINE
  5
3DD
100
AcDbEntity
  8
0
  6
Continuous
 62
           7
100
AcDbLine
 10
9.221283299141
 20
15.919301010876
 30
0.0
 11
9.221283299141
 21
14.169301010876
 31
0.0
1001
ACAD
1000
TCW40_DEV_WIDTH
1002
{
1040
-3.0
1002
}
  0
LINE
  5
3DE
100
AcDbEntity
  8
0
  6
Continuous
 62
           7
100
AcDbLine
 10
11.918283299141
 20
16.915801010876
 30
0.0
 11
11.918283299141
 21
13.172801010876
 31
0.0
1001
ACAD
1000
TCW40_DEV_WIDTH
1002
{
1040
-3.0
1002
}
  0
LINE
  5
3DF
100
AcDbEntity
  8
0
  6
Continuous
 62
           7
100
AcDbLine
 10
16.015883299141
 20
18.984301010876
 30
0.0
 11
16.015883299141
 21
11.104301010876
 31
0.0
1001
ACAD
1000
TCW40_DEV_WIDTH
1002
{
1040
-3.0
1002
}
  0
LINE
  5
3E0
100
AcDbEntity
  8
0
  6
Continuous
 62
           7
100
AcDbLine
 10
15.424883299141
 20
19.378301010876
 30
0.0
 11
15.424883299141
 21
10.710301010876
 31
0.0
1001
ACAD
1000
TCW40_DEV_WIDTH
1002
{
1040
-3.0
1002
}
  0
LINE
  5
3E1
100
AcDbEntity
  8
0
  6
Continuous
 62
           7
100
AcDbLine
 10
16.017383299141
 20
18.686024790406
 30
0.0
 11
16.017383299141
 21
11.402576010876
 31
0.0
1001
ACAD
1000
TCW40_DEV_WIDTH
1002
{
1040
-3.0
1002
}
  0
LINE
  5
3E2
100
AcDbEntity
  8
0
  6
Continuous
 62
           7
100
AcDbLine
 10
17.985883299141
 20
18.686024790406
 30
0.0
 11
17.985883299141
 21
11.402576010876
 31
0.0
1001
ACAD
1000
TCW40_DEV_WIDTH
1002
{
1040
-3.0
1002
}
  0
LINE
  5
3E3
100
AcDbEntity
  8
0
 62
           7
100
AcDbLine
 10
9.221283299141
 20
14.169301010876
 30
0.0
 11
11.721283299141
 21
14.169301010876
 31
0.0
1001
ACAD
1000
TCW40_DEV_WIDTH
1002
{
1040
-3.0
1002
}
  0
LINE
  5
3E4
100
AcDbEntity
  8
0
  6
Continuous
 62
           7
100
AcDbLine
 10
15.424883299141
 20
2.940803373076
 30
0.0
 11
16.015883299141
 21
2.940803373076
 31
0.0
1001
ACAD
1000
TCW40_DEV_WIDTH
1002
{
1040
-3.0
1002
}
  0
LINE
  5
3E5
100
AcDbEntity
  8
0
  6
Continuous
 62
           7
100
AcDbLine
 10
13.297283693141
 20
1.758801127276
 30
0.0
 11
15.126179685141
 21
1.854649389076
 31
0.0
1001
ACAD
1000
TCW40_DEV_WIDTH
1002
{
1040
-3.0
1002
}
  0
LINE
  5
3E6
100
AcDbEntity
  8
0
  6
Continuous
 62
           7
100
AcDbLine
 10
12.036483299141
 20
1.758803373076
 30
0.0
 11
13.297283299141
 21
1.758803373076
 31
0.0
1001
ACAD
1000
TCW40_DEV_WIDTH
1002
{
1040
-3.0
1002
}
  0
LINE
  5
3E7
100
AcDbEntity
  8
0
  6
Continuous
 62
           7
100
AcDbLine
 10
11.918282392941
 20
1.167802466876
 30
0.0
 11
12.036482392941
 21
1.372531131476
 31
0.0
1001
ACAD
1000
TCW40_DEV_WIDTH
1002
{
1040
-3.0
1002
}
  0
LINE
  5
3E8
100
AcDbEntity
  8
0
  6
Continuous
 62
           7
100
AcDbLine
 10
12.036483299141
 20
1.758803373076
 30
0.0
 11
12.036483299141
 21
1.372532352876
 31
0.0
1001
ACAD
1000
TCW40_DEV_WIDTH
1002
{
1040
-3.0
1002
}
  0
ARC
  5
3E9
100
AcDbEntity
  8
0
  6
Continuous
 62
           7
100
AcDbCircle
 10
15.109683299141
 20
2.169418037876
 30
0.0
 40
0.315200001001
100
AcDbArc
 50
-86.999999005901
 51
0.0
1001
ACAD
1000
TCW40_DEV_WIDTH
1002
{
1040
-3.0
1002
}
  0
LINE
  5
3EA
100
AcDbEntity
  8
0
  6
Continuous
 62
           7
100
AcDbLine
 10
16.174863299141
 20
0.778736234976
 30
0.0
 11
17.828403299141
 21
0.778736234976
 31
0.0
1001
ACAD
1000
TCW40_DEV_WIDTH
1002
{
1040
-3.0
1002
}
  0
LINE
  5
3EB
100
AcDbEntity
  8
0
  6
Continuous
 62
           7
100
AcDbLine
 10
16.174863299141
 20
3.036453373076
 30
0.0
 11
17.828403299141
 21
3.036453373076
 31
0.0
1001
ACAD
1000
TCW40_DEV_WIDTH
1002
{
1040
-3.0
1002
}
  0
LINE
  5
3EC
100
AcDbEntity
  8
0
  6
Continuous
 62
           7
100
AcDbLine
 10
16.173486451141
 20
3.039300654476
 30
0.0
 11
16.015886451141
 21
2.881700654476
 31
0.0
1001
ACAD
1000
TCW40_DEV_WIDTH
1002
{
1040
-3.0
1002
}
  0
LINE
  5
3ED
100
AcDbEntity
  8
0
  6
Continuous
 62
           7
100
AcDbLine
 10
17.985880936941
 20
2.878974554176
 30
0.0
 11
17.828400936941
 21
3.036454554176
 31
0.0
1001
ACAD
1000
TCW40_DEV_WIDTH
1002
{
1040
-3.0
1002
}
  0
DIMENSION
  5
3FA
100
AcDbEntity
  8
0
  6
Continuous
 62
           7
100
AcDbDimension
  2
*D43
 10
19.995283299141
 20
8.48843299252
 30
0.0
 11
16.286190862468
 21
9.112078835787
 31
0.0
 70
         128
 71
           5
 72
           1
 41
1.0
 42
0.0
  1
7.48
  3
STANDARD
100
AcDbAlignedDimension
 13
12.509283299141
 23
11.025501065889
 33
0.0
 14
19.995283299141
 24
11.025501010876
 34
0.0
100
AcDbRotatedDimension
1001
ACAD
1000
DSTYLE
1002
{
1070
          41
1040
0.44
1070
         176
1070
           7
1070
         177
1070
           7
1070
         178
1070
           7
1070
         179
1070
           2
1070
         271
1070
           2
1070
          43
1040
0.09
1070
          44
1040
0.2
1070
          42
1040
0.2
1070
         147
1040
0.22
1070
          77
1070
           1
1070
         272
1070
           2
1070
         146
1040
1.8
1070
         172
1070
           1
1070
         140
1040
0.5
1070
         288
1070
           1
1002
}
  0
LINE
  5
3FB
100
AcDbEntity
  8
0
  6
Continuous
 62
           7
100
AcDbLine
 10
12.824483299141
 20
10.710301010876
 30
0.0
 11
19.680083299141
 21
10.710301010876
 31
0.0
1001
ACAD
1000
TCW40_DEV_WIDTH
1002
{
1040
-3.0
1002
}
  0
LINE
  5
3FC
100
AcDbEntity
  8
0
  6
Continuous
 62
           7
100
AcDbLine
 10
15.030883299141
 20
12.490948235676
 30
0.0
 11
15.030883299141
 21
10.710301010876
 31
0.0
1001
ACAD
1000
TCW40_DEV_WIDTH
1002
{
1040
-3.0
1002
}
  0
LINE
  5
3FD
100
AcDbEntity
  8
0
  6
Continuous
 62
           7
100
AcDbLine
 10
13.297283299141
 20
11.994973313276
 30
0.0
 11
13.297283299141
 21
10.889591104876
 31
0.0
1001
ACAD
1000
TCW40_DEV_WIDTH
1002
{
1040
-3.0
1002
}
  0
LINE
  5
3FE
100
AcDbEntity
  8
0
  6
Continuous
 62
           7
100
AcDbLine
 10
12.509283299141
 20
12.581801010876
 30
0.0
 11
12.509283299141
 21
11.025501010876
 31
0.0
1001
ACAD
1000
TCW40_DEV_WIDTH
1002
{
1040
-3.0
1002
}
  0
ARC
  5
3FF
100
AcDbEntity
  8
0
  6
Continuous
 62
           7
100
AcDbCircle
 10
12.824483299141
 20
11.025501010876
 30
0.0
 40
0.315200001001
100
AcDbArc
 50
179.999991348578
 51
269.999997495522
1001
ACAD
1000
TCW40_DEV_WIDTH
1002
{
1040
-3.0
1002
}
  0
LINE
  5
400
100
AcDbEntity
  8
0
  6
Continuous
 62
           7
100
AcDbLine
 10
12.743244833141
 20
11.498299789476
 30
0.0
 11
13.886743547141
 21
11.498299789476
 31
0.0
1001
ACAD
1000
TCW40_DEV_WIDTH
1002
{
1040
-3.0
1002
}
  0
LINE
  5
401
100
AcDbEntity
  8
0
  6
Continuous
 62
           7
100
AcDbLine
 10
13.297282511141
 20
12.581801917076
 30
0.0
 11
15.126178503141
 21
12.485953497676
 31
0.0
1001
ACAD
1000
TCW40_DEV_WIDTH
1002
{
1040
-3.0
1002
}
  0
LINE
  5
402
100
AcDbEntity
  8
0
  6
Continuous
 62
           7
100
AcDbLine
 10
12.036483299141
 20
12.968072031076
 30
0.0
 11
12.036483299141
 21
12.581801010876
 31
0.0
1001
ACAD
1000
TCW40_DEV_WIDTH
1002
{
1040
-3.0
1002
}
  0
LINE
  5
403
100
AcDbEntity
  8
0
  6
Continuous
 62
           7
100
AcDbLine
 10
12.036483299141
 20
12.581801010876
 30
0.0
 11
13.297283299141
 21
12.581801010876
 31
0.0
1001
ACAD
1000
TCW40_DEV_WIDTH
1002
{
1040
-3.0
1002
}
  0
CIRCLE
  5
404
100
AcDbEntity
  8
0
  6
Continuous
 62
           7
100
AcDbCircle
 10
13.297283299141
 20
11.498299789476
 30
0.0
 40
0.295500010252
1001
ACAD
1000
TCW40_DEV_WIDTH
1002
{
1040
-3.0
1002
}
  0
LINE
  5
405
100
AcDbEntity
  8
0
  6
Continuous
 62
           7
100
AcDbLine
 10
11.918282077741
 20
13.172802232276
 30
0.0
 11
12.036482708141
 21
12.968072779676
 31
0.0
1001
ACAD
1000
TCW40_DEV_WIDTH
1002
{
1040
-3.0
1002
}
  0
LINE
  5
406
100
AcDbEntity
  8
0
  6
Continuous
 62
           7
100
AcDbLine
 10
11.721283299141
 20
13.960801010876
 30
0.0
 11
11.918283299141
 21
13.960801010876
 31
0.0
1001
ACAD
1000
TCW40_DEV_WIDTH
1002
{
1040
-3.0
1002
}
  0
ARC
  5
407
100
AcDbEntity
  8
0
  6
Continuous
 62
           7
100
AcDbCircle
 10
15.109683299141
 20
12.171186346076
 30
0.0
 40
0.315200001001
100
AcDbArc
 50
0.0
 51
86.999999005901
1001
ACAD
1000
TCW40_DEV_WIDTH
1002
{
1040
-3.0
1002
}
  0
LINE
  5
408
100
AcDbEntity
  8
0
  6
Continuous
 62
           7
100
AcDbLine
 10
19.995283299141
 20
12.050456511476
 30
0.0
 11
19.995283299141
 21
11.025501010876
 31
0.0
1001
ACAD
1000
TCW40_DEV_WIDTH
1002
{
1040
-3.0
1002
}
  0
LINE
  5
409
100
AcDbEntity
  8
0
  6
Continuous
 62
           7
100
AcDbLine
 10
19.207283299141
 20
11.994973313276
 30
0.0
 11
19.207283299141
 21
10.965823800876
 31
0.0
1001
ACAD
1000
TCW40_DEV_WIDTH
1002
{
1040
-3.0
1002
}
  0
ARC
  5
40A
100
AcDbEntity
  8
0
  6
Continuous
 62
           7
100
AcDbCircle
 10
19.680083299141
 20
11.025501010876
 30
0.0
 40
0.315200001001
100
AcDbArc
 50
-90.0
 51
0.0
1001
ACAD
1000
TCW40_DEV_WIDTH
1002
{
1040
-3.0
1002
}
  0
LINE
  5
40B
100
AcDbEntity
  8
0
  6
Continuous
 62
           7
100
AcDbLine
 10
16.015883299141
 20
11.104301010876
 30
0.0
 11
18.222284481141
 21
11.104301010876
 31
0.0
1001
ACAD
1000
TCW40_DEV_WIDTH
1002
{
1040
-3.0
1002
}
  0
LINE
  5
40C
100
AcDbEntity
  8
0
  6
Continuous
 62
           7
100
AcDbLine
 10
16.174863299141
 20
11.304151010876
 30
0.0
 11
17.828403299141
 21
11.304151010876
 31
0.0
1001
ACAD
1000
TCW40_DEV_WIDTH
1002
{
1040
-3.0
1002
}
  0
LINE
  5
40D
100
AcDbEntity
  8
0
  6
Continuous
 62
           7
100
AcDbLine
 10
16.174862118041
 20
11.610477209246
 30
0.0
 11
17.828406842441
 21
11.610477209246
 31
0.0
1001
ACAD
1000
TCW40_DEV_WIDTH
1002
{
1040
-3.0
1002
}
  0
LINE
  5
40E
100
AcDbEntity
  8
0
  6
CENTER
 62
           7
100
AcDbLine
 10
17.749663299141
 20
11.304151010876
 30
0.0
 11
16.883523299141
 21
11.304151010876
 31
0.0
1001
ACAD
1000
TCW40_DEV_WIDTH
1002
{
1040
-3.0
1002
}
  0
LINE
  5
40F
100
AcDbEntity
  8
0
  6
Continuous
 62
           7
100
AcDbLine
 10
16.017383299141
 20
11.461634002996
 30
0.0
 11
16.174863299141
 21
11.304153727406
 31
0.0
1001
ACAD
1000
TCW40_DEV_WIDTH
1002
{
1040
-3.0
1002
}
  0
LINE
  5
410
100
AcDbEntity
  8
0
  6
Continuous
 62
           7
100
AcDbLine
 10
17.828405661341
 20
11.304147703796
 30
0.0
 11
17.985885661341
 21
11.461628018756
 31
0.0
1001
ACAD
1000
TCW40_DEV_WIDTH
1002
{
1040
-3.0
1002
}
  0
LINE
  5
411
100
AcDbEntity
  8
0
  6
Continuous
 62
           7
100
AcDbLine
 10
18.653244833141
 20
11.498299789476
 30
0.0
 11
19.796744335141
 21
11.498299789476
 31
0.0
1001
ACAD
1000
TCW40_DEV_WIDTH
1002
{
1040
-3.0
1002
}
  0
CIRCLE
  5
412
100
AcDbEntity
  8
0
  6
Continuous
 62
           7
100
AcDbCircle
 10
19.207283299141
 20
11.498299789476
 30
0.0
 40
0.295500010252
1001
ACAD
1000
TCW40_DEV_WIDTH
1002
{
1040
-3.0
1002
}
  0
LINE
  5
413
100
AcDbEntity
  8
0
 62
           7
100
AcDbLine
 10
11.408783299141
 20
14.856801010876
 30
0.0
 11
9.221283299141
 21
14.856801010876
 31
0.0
1001
ACAD
1000
TCW40_DEV_WIDTH
1002
{
1040
-3.0
1002
}
  0
LINE
  5
414
100
AcDbEntity
  8
0
 62
           7
100
AcDbLine
 10
11.408783299141
 20
15.231801010876
 30
0.0
 11
9.221283299141
 21
15.231801010876
 31
0.0
1001
ACAD
1000
TCW40_DEV_WIDTH
1002
{
1040
-3.0
1002
}
  0
LINE
  5
415
100
AcDbEntity
  8
0
 62
           7
100
AcDbLine
 10
9.221283299141
 20
15.919301010876
 30
0.0
 11
11.721283299141
 21
15.919301010876
 31
0.0
1001
ACAD
1000
TCW40_DEV_WIDTH
1002
{
1040
-3.0
1002
}
  0
LINE
  5
416
100
AcDbEntity
  8
0
  6
Continuous
 62
           7
100
AcDbLine
 10
12.824483299141
 20
19.378301010876
 30
0.0
 11
19.680083299141
 21
19.378301010876
 31
0.0
1001
ACAD
1000
TCW40_DEV_WIDTH
1002
{
1040
-3.0
1002
}
  0
LINE
  5
417
100
AcDbEntity
  8
0
  6
Continuous
 62
           7
100
AcDbLine
 10
15.030883299141
 20
17.597653786076
 30
0.0
 11
15.030883299141
 21
19.378301010876
 31
0.0
1001
ACAD
1000
TCW40_DEV_WIDTH
1002
{
1040
-3.0
1002
}
  0
LINE
  5
418
100
AcDbEntity
  8
0
  6
Continuous
 62
           7
100
AcDbLine
 10
13.297283299141
 20
18.093628708476
 30
0.0
 11
13.297283299141
 21
19.199012098876
 31
0.0
1001
ACAD
1000
TCW40_DEV_WIDTH
1002
{
1040
-3.0
1002
}
  0
LINE
  5
419
100
AcDbEntity
  8
0
  6
Continuous
 62
           7
100
AcDbLine
 10
12.509283299141
 20
19.063101010876
 30
0.0
 11
12.509283299141
 21
17.506801010876
 31
0.0
1001
ACAD
1000
TCW40_DEV_WIDTH
1002
{
1040
-3.0
1002
}
  0
LINE
  5
41A
100
AcDbEntity
  8
0
  6
Continuous
 62
           7
100
AcDbLine
 10
13.297284875141
 20
17.506799947076
 30
0.0
 11
15.126180079141
 21
17.602648248276
 31
0.0
1001
ACAD
1000
TCW40_DEV_WIDTH
1002
{
1040
-3.0
1002
}
  0
ARC
  5
41B
100
AcDbEntity
  8
0
 62
           7
100
AcDbCircle
 10
11.408783299141
 20
15.044301010876
 30
0.0
 40
0.1875
100
AcDbArc
 50
-90.0
 51
90.000002504478
1001
ACAD
1000
TCW40_DEV_WIDTH
1002
{
1040
-3.0
1002
}
  0
LINE
  5
41C
100
AcDbEntity
  8
0
  6
Continuous
 62
           7
100
AcDbLine
 10
11.408783299141
 20
15.231801010876
 30
0.0
 11
11.408783299141
 21
14.856801010876
 31
0.0
1001
ACAD
1000
TCW40_DEV_WIDTH
1002
{
1040
-3.0
1002
}
  0
LINE
  5
41D
100
AcDbEntity
  8
0
  6
Continuous
 62
           7
100
AcDbLine
 10
11.721283299141
 20
16.127801010876
 30
0.0
 11
11.918283299141
 21
16.127801010876
 31
0.0
1001
ACAD
1000
TCW40_DEV_WIDTH
1002
{
1040
-3.0
1002
}
  0
LINE
  5
41E
100
AcDbEntity
  8
0
  6
Continuous
 62
           7
100
AcDbLine
 10
12.036483299141
 20
17.506801010876
 30
0.0
 11
13.297283299141
 21
17.506801010876
 31
0.0
1001
ACAD
1000
TCW40_DEV_WIDTH
1002
{
1040
-3.0
1002
}
  0
LINE
  5
41F
100
AcDbEntity
  8
0
  6
Continuous
 62
           7
100
AcDbLine
 10
12.036483299141
 20
17.506801010876
 30
0.0
 11
12.036483299141
 21
17.120528769276
 31
0.0
1001
ACAD
1000
TCW40_DEV_WIDTH
1002
{
1040
-3.0
1002
}
  0
LINE
  5
420
100
AcDbEntity
  8
0
  6
Continuous
 62
           7
100
AcDbLine
 10
11.918283299141
 20
16.915801326076
 30
0.0
 11
12.036483890141
 21
17.120530739276
 31
0.0
1001
ACAD
1000
TCW40_DEV_WIDTH
1002
{
1040
-3.0
1002
}
  0
ARC
  5
421
100
AcDbEntity
  8
0
  6
Continuous
 62
           7
100
AcDbCircle
 10
15.109683299141
 20
17.917415675676
 30
0.0
 40
0.315200001001
100
AcDbArc
 50
-86.999999005901
 51
0.0
1001
ACAD
1000
TCW40_DEV_WIDTH
1002
{
1040
-3.0
1002
}
  0
LINE
  5
422
100
AcDbEntity
  8
0
  6
Continuous
 62
           7
100
AcDbLine
 10
12.743244833141
 20
18.590303414276
 30
0.0
 11
13.886743547141
 21
18.590303414276
 31
0.0
1001
ACAD
1000
TCW40_DEV_WIDTH
1002
{
1040
-3.0
1002
}
  0
CIRCLE
  5
423
100
AcDbEntity
  8
0
  6
Continuous
 62
           7
100
AcDbCircle
 10
13.297283299141
 20
18.590303414276
 30
0.0
 40
0.295500010252
1001
ACAD
1000
TCW40_DEV_WIDTH
1002
{
1040
-3.0
1002
}
  0
ARC
  5
424
100
AcDbEntity
  8
0
  6
Continuous
 62
           7
100
AcDbCircle
 10
12.824483299141
 20
19.063101010876
 30
0.0
 40
0.315200001001
100
AcDbArc
 50
90.0
 51
180.000008651423
1001
ACAD
1000
TCW40_DEV_WIDTH
1002
{
1040
-3.0
1002
}
  0
LINE
  5
425
100
AcDbEntity
  8
0
  6
Continuous
 62
           7
100
AcDbLine
 10
19.995283299141
 20
18.038145510276
 30
0.0
 11
19.995283299141
 21
19.063101010876
 31
0.0
1001
ACAD
1000
TCW40_DEV_WIDTH
1002
{
1040
-3.0
1002
}
  0
LINE
  5
426
100
AcDbEntity
  8
0
  6
Continuous
 62
           7
100
AcDbLine
 10
19.207283299141
 20
18.093628708476
 30
0.0
 11
19.207283299141
 21
19.122778220876
 31
0.0
1001
ACAD
1000
TCW40_DEV_WIDTH
1002
{
1040
-3.0
1002
}
  0
LINE
  5
427
100
AcDbEntity
  8
0
  6
Continuous
 62
           7
100
AcDbLine
 10
16.174862118041
 20
15.477373412446
 30
0.0
 11
17.828406842441
 21
15.477373412446
 31
0.0
1001
ACAD
1000
TCW40_DEV_WIDTH
1002
{
1040
-3.0
1002
}
  0
LINE
  5
428
100
AcDbEntity
  8
0
  6
Continuous
 62
           7
100
AcDbLine
 10
16.174862118041
 20
15.948068888376
 30
0.0
 11
17.828406842441
 21
15.948068888376
 31
0.0
1001
ACAD
1000
TCW40_DEV_WIDTH
1002
{
1040
-3.0
1002
}
  0
LINE
  5
429
100
AcDbEntity
  8
0
  6
Continuous
 62
           7
100
AcDbLine
 10
16.174862118041
 20
16.324560103896
 30
0.0
 11
17.828406842441
 21
16.324560103896
 31
0.0
1001
ACAD
1000
TCW40_DEV_WIDTH
1002
{
1040
-3.0
1002
}
  0
LINE
  5
42A
100
AcDbEntity
  8
0
  6
Continuous
 62
           7
100
AcDbLine
 10
16.174862118041
 20
18.045034418846
 30
0.0
 11
17.828406842441
 21
18.045034418846
 31
0.0
1001
ACAD
1000
TCW40_DEV_WIDTH
1002
{
1040
-3.0
1002
}
  0
LINE
  5
42B
100
AcDbEntity
  8
0
  6
Continuous
 62
           7
100
AcDbLine
 10
16.174862118041
 20
17.735502675706
 30
0.0
 11
17.828406842441
 21
17.735502675706
 31
0.0
1001
ACAD
1000
TCW40_DEV_WIDTH
1002
{
1040
-3.0
1002
}
  0
LINE
  5
42C
100
AcDbEntity
  8
0
  6
Continuous
 62
           7
100
AcDbLine
 10
16.174862118041
 20
17.447589117676
 30
0.0
 11
17.828406842441
 21
17.447589117676
 31
0.0
1001
ACAD
1000
TCW40_DEV_WIDTH
1002
{
1040
-3.0
1002
}
  0
LINE
  5
42D
100
AcDbEntity
  8
0
  6
Continuous
 62
           7
100
AcDbLine
 10
16.174862118041
 20
17.082269218396
 30
0.0
 11
17.828406842441
 21
17.082269218396
 31
0.0
1001
ACAD
1000
TCW40_DEV_WIDTH
1002
{
1040
-3.0
1002
}
  0
LINE
  5
42E
100
AcDbEntity
  8
0
  6
Continuous
 62
           7
100
AcDbLine
 10
16.174862118041
 20
16.741322459346
 30
0.0
 11
17.828406842441
 21
16.741322459346
 31
0.0
1001
ACAD
1000
TCW40_DEV_WIDTH
1002
{
1040
-3.0
1002
}
  0
LINE
  5
42F
100
AcDbEntity
  8
0
  6
Continuous
 62
           7
100
AcDbLine
 10
16.015883299141
 20
18.984301010876
 30
0.0
 11
18.222284481141
 21
18.984301010876
 31
0.0
1001
ACAD
1000
TCW40_DEV_WIDTH
1002
{
1040
-3.0
1002
}
  0
LINE
  5
430
100
AcDbEntity
  8
0
  6
Continuous
 62
           7
100
AcDbLine
 10
16.174863299141
 20
18.784449790406
 30
0.0
 11
17.828403299141
 21
18.784449790406
 31
0.0
1001
ACAD
1000
TCW40_DEV_WIDTH
1002
{
1040
-3.0
1002
}
  0
LINE
  5
431
100
AcDbEntity
  8
0
  6
Continuous
 62
           7
100
AcDbLine
 10
16.174862118041
 20
18.478111623556
 30
0.0
 11
17.828406842441
 21
18.478111623556
 31
0.0
1001
ACAD
1000
TCW40_DEV_WIDTH
1002
{
1040
-3.0
1002
}
  0
LINE
  5
432
100
AcDbEntity
  8
0
  6
CENTER
 62
           7
100
AcDbLine
 10
17.749663299141
 20
18.784451010876
 30
0.0
 11
16.883523299141
 21
18.784451010876
 31
0.0
1001
ACAD
1000
TCW40_DEV_WIDTH
1002
{
1040
-3.0
1002
}
  0
LINE
  5
433
100
AcDbEntity
  8
0
  6
Continuous
 62
           7
100
AcDbLine
 10
16.174869204641
 20
18.784445617186
 30
0.0
 11
16.017389204641
 21
18.626965617186
 31
0.0
1001
ACAD
1000
TCW40_DEV_WIDTH
1002
{
1040
-3.0
1002
}
  0
LINE
  5
434
100
AcDbEntity
  8
0
  6
Continuous
 62
           7
100
AcDbLine
 10
17.985883299141
 20
18.626971601426
 30
0.0
 11
17.828402118041
 21
18.784451601426
 31
0.0
1001
ACAD
1000
TCW40_DEV_WIDTH
1002
{
1040
-3.0
1002
}
  0
LINE
  5
435
100
AcDbEntity
  8
0
  6
Continuous
 62
           7
100
AcDbLine
 10
18.653244833141
 20
18.590303414276
 30
0.0
 11
19.796744335141
 21
18.590303414276
 31
0.0
1001
ACAD
1000
TCW40_DEV_WIDTH
1002
{
1040
-3.0
1002
}
  0
CIRCLE
  5
436
100
AcDbEntity
  8
0
  6
Continuous
 62
           7
100
AcDbCircle
 10
19.207283299141
 20
18.590303414276
 30
0.0
 40
0.295500010252
1001
ACAD
1000
TCW40_DEV_WIDTH
1002
{
1040
-3.0
1002
}
  0
ARC
  5
437
100
AcDbEntity
  8
0
  6
Continuous
 62
           7
100
AcDbCircle
 10
19.680083299141
 20
19.063101010876
 30
0.0
 40
0.315200001001
100
AcDbArc
 50
0.0
 51
90.000002504478
1001
ACAD
1000
TCW40_DEV_WIDTH
1002
{
1040
-3.0
1002
}
  0
LINE
  5
438
100
AcDbEntity
  8
0
  6
Continuous
 62
           7
100
AcDbLine
 10
17.985883299141
 20
18.686024790406
 30
0.0
 11
17.985883299141
 21
11.402576010876
 31
0.0
1001
ACAD
1000
TCW40_DEV_WIDTH
1002
{
1040
-3.0
1002
}
  0
DIMENSION
  5
445
100
AcDbEntity
  8
0
  6
Continuous
 62
           7
100
AcDbDimension
  2
*D44
 10
21.950435733603
 20
5.82616837214
 30
0.0
 11
15.359648729187
 21
6.449814215408
 31
0.0
 70
         128
 71
           5
 72
           1
 41
1.0
 42
0.0
  1
12.72
  3
STANDARD
100
AcDbAlignedDimension
 13
9.221283299141
 23
0.358803373076
 33
0.0
 14
21.950435733603
 24
-0.094573695517
 34
0.0
100
AcDbRotatedDimension
1001
ACAD
1000
DSTYLE
1002
{
1070
          41
1040
0.44
1070
         176
1070
           7
1070
         177
1070
           7
1070
         178
1070
           7
1070
         179
1070
           2
1070
         271
1070
           2
1070
          43
1040
0.09
1070
          44
1040
0.2
1070
          42
1040
0.2
1070
         147
1040
0.22
1070
          77
1070
           1
1070
         272
1070
           2
1070
         146
1040
1.8
1070
         172
1070
           1
1070
         140
1040
0.5
1070
         288
1070
           1
1002
}
  0
DIMENSION
  5
450
100
AcDbEntity
  8
0
  6
Continuous
 62
           7
100
AcDbDimension
  2
*D45
 10
-4.869749186421
 20
-3.966495977401
 30
0.0
 11
-8.841632958148
 21
5.127948912393
 31
0.0
 70
         131
 71
           5
 72
           1
 41
1.0
 42
0.0
  1
<>
  3
STANDARD
100
AcDbDiametricDimension
 15
-7.187279213026
 25
3.14542743162
 35
0.0
 40
1.41131557699
1001
ACAD
1000
DSTYLE
1002
{
1070
          41
1040
0.44
1070
         176
1070
           7
1070
         177
1070
           7
1070
         178
1070
           7
1070
         179
1070
           2
1070
         271
1070
           2
1070
          43
1040
0.09
1070
          44
1040
0.2
1070
          42
1040
0.2
1070
         147
1040
0.22
1070
          77
1070
           1
1070
         272
1070
           2
1070
         146
1040
1.8
1070
         172
1070
           1
1070
         140
1040
0.5
1070
         288
1070
           1
1002
}
  0
LINE
  5
451
100
AcDbEntity
  8
0
  6
ByBlock
 62
           7
100
AcDbLine
 10
-16.01160459255
 20
-10.144552327974
 30
0.0
 11
-12.221880578085
 21
-10.144552327974
 31
0.0
1001
ACAD
1000
TCW40_DEV_WIDTH
1002
{
1040
-3.0
1002
}
  0
LINE
  5
452
100
AcDbEntity
  8
0
  6
Continuous
 62
           7
100
AcDbLine
 10
18.379577628756
 20
2.938028694994
 30
0.0
 11
18.379577628756
 21
-4.345421305006
 31
0.0
1001
ACAD
1000
TCW40_DEV_WIDTH
1002
{
1040
-3.0
1002
}
  0
LINE
  5
453
100
AcDbEntity
  8
0
  6
Continuous
 62
           7
100
AcDbLine
 10
17.985877628756
 20
-4.345421305006
 30
0.0
 11
18.379577628756
 21
-4.345421305006
 31
0.0
1001
ACAD
1000
TCW40_DEV_WIDTH
1002
{
1040
-3.0
1002
}
  0
ARC
  5
454
100
AcDbEntity
  8
0
  6
Continuous
 62
           7
100
AcDbCircle
 10
20.151227628756
 20
0.795066051794
 30
0.0
 40
0.078740000725
100
AcDbArc
 50
0.0
 51
88.000000172092
1001
ACAD
1000
TCW40_DEV_WIDTH
1002
{
1040
-3.0
1002
}
  0
LINE
  5
455
100
AcDbEntity
  8
0
  6
Continuous
 62
           7
100
AcDbLine
 10
20.153976442156
 20
0.873757626694
 30
0.0
 11
19.048867628756
 21
0.912348100694
 31
0.0
1001
ACAD
1000
TCW40_DEV_WIDTH
1002
{
1040
-3.0
1002
}
  0
LINE
  5
456
100
AcDbEntity
  8
0
  6
Continuous
 62
           7
100
AcDbLine
 10
17.985877628756
 20
2.938028694994
 30
0.0
 11
18.379577628756
 21
2.938028694994
 31
0.0
1001
ACAD
1000
TCW40_DEV_WIDTH
1002
{
1040
-3.0
1002
}
  0
ARC
  5
457
100
AcDbEntity
  8
0
  6
Continuous
 62
           7
100
AcDbCircle
 10
18.576427628756
 20
1.315536270694
 30
0.0
 40
0.196850001812
100
AcDbArc
 50
179.999991348578
 51
247.999992329856
1001
ACAD
1000
TCW40_DEV_WIDTH
1002
{
1040
-3.0
1002
}
  0
LINE
  5
458
100
AcDbEntity
  8
0
  6
Continuous
 62
           7
100
AcDbLine
 10
19.016043284956
 20
0.925609885194
 30
0.0
 11
18.502685650256
 21
1.133020887694
 31
0.0
1001
ACAD
1000
TCW40_DEV_WIDTH
1002
{
1040
-3.0
1002
}
  0
LINE
  5
459
100
AcDbEntity
  8
0
  6
Continuous
 62
           7
100
AcDbLine
 10
20.690597022456
 20
-0.094575082306
 30
0.0
 11
20.690597022456
 21
-0.203696911306
 31
0.0
1001
ACAD
1000
TCW40_DEV_WIDTH
1002
{
1040
-3.0
1002
}
  0
LINE
  5
45A
100
AcDbEntity
  8
0
  6
Continuous
 62
           7
100
AcDbLine
 10
20.690597022456
 20
-0.094575082306
 30
0.0
 11
21.950437022456
 21
-0.094575082306
 31
0.0
1001
ACAD
1000
TCW40_DEV_WIDTH
1002
{
1040
-3.0
1002
}
  0
LINE
  5
45B
100
AcDbEntity
  8
0
  6
Continuous
 62
           7
100
AcDbLine
 10
21.950437022456
 20
-0.094575082306
 30
0.0
 11
21.950437022456
 21
-1.203695698706
 31
0.0
1001
ACAD
1000
TCW40_DEV_WIDTH
1002
{
1040
-3.0
1002
}
  0
LINE
  5
45C
100
AcDbEntity
  8
0
  6
Continuous
 62
           7
100
AcDbLine
 10
20.289022628756
 20
-0.113146305006
 30
0.0
 11
20.387447628756
 21
-0.148969461706
 31
0.0
1001
ACAD
1000
TCW40_DEV_WIDTH
1002
{
1040
-3.0
1002
}
  0
LINE
  5
45D
100
AcDbEntity
  8
0
  6
Continuous
 62
           7
100
AcDbLine
 10
20.229967628756
 20
-0.113146305006
 30
0.0
 11
20.289022628756
 21
-0.113146305006
 31
0.0
1001
ACAD
1000
TCW40_DEV_WIDTH
1002
{
1040
-3.0
1002
}
  0
LINE
  5
45E
100
AcDbEntity
  8
0
  6
Continuous
 62
           7
100
AcDbLine
 10
20.289022628756
 20
-1.294246305006
 30
0.0
 11
20.387447628756
 21
-1.258423148306
 31
0.0
1001
ACAD
1000
TCW40_DEV_WIDTH
1002
{
1040
-3.0
1002
}
  0
LINE
  5
45F
100
AcDbEntity
  8
0
  6
Continuous
 62
           7
100
AcDbLine
 10
20.229967628756
 20
-1.294246305006
 30
0.0
 11
20.289022628756
 21
-1.294246305006
 31
0.0
1001
ACAD
1000
TCW40_DEV_WIDTH
1002
{
1040
-3.0
1002
}
  0
ARC
  5
460
100
AcDbEntity
  8
0
  6
Continuous
 62
           7
100
AcDbCircle
 10
20.151227628756
 20
-2.202458268106
 30
0.0
 40
0.078740000725
100
AcDbArc
 50
-88.000000172092
 51
0.0
1001
ACAD
1000
TCW40_DEV_WIDTH
1002
{
1040
-3.0
1002
}
  0
LINE
  5
461
100
AcDbEntity
  8
0
  6
Continuous
 62
           7
100
AcDbLine
 10
20.289022628756
 20
-0.113146305006
 30
0.0
 11
20.289022628756
 21
-1.294246305006
 31
0.0
1001
ACAD
1000
TCW40_DEV_WIDTH
1002
{
1040
-3.0
1002
}
  0
LINE
  5
462
100
AcDbEntity
  8
0
  6
Continuous
 62
           7
100
AcDbLine
 10
20.387447628756
 20
-0.148969461706
 30
0.0
 11
20.387447628756
 21
-1.258423148306
 31
0.0
1001
ACAD
1000
TCW40_DEV_WIDTH
1002
{
1040
-3.0
1002
}
  0
LINE
  5
463
100
AcDbEntity
  8
0
  6
Continuous
 62
           7
100
AcDbLine
 10
20.387447628756
 20
-1.203695698706
 30
0.0
 11
21.950437022456
 21
-1.203695698706
 31
0.0
1001
ACAD
1000
TCW40_DEV_WIDTH
1002
{
1040
-3.0
1002
}
  0
LINE
  5
464
100
AcDbEntity
  8
0
  6
Continuous
 62
           7
100
AcDbLine
 10
20.387447628756
 20
-0.203696911306
 30
0.0
 11
21.950437022456
 21
-0.203696911306
 31
0.0
1001
ACAD
1000
TCW40_DEV_WIDTH
1002
{
1040
-3.0
1002
}
  0
LINE
  5
465
100
AcDbEntity
  8
0
  6
Continuous
 62
           7
100
AcDbLine
 10
20.153974079956
 20
-2.281150236706
 30
0.0
 11
19.048867628756
 21
-2.319741891806
 31
0.0
1001
ACAD
1000
TCW40_DEV_WIDTH
1002
{
1040
-3.0
1002
}
  0
ARC
  5
466
100
AcDbEntity
  8
0
  6
Continuous
 62
           7
100
AcDbCircle
 10
18.576427628756
 20
-2.722928487006
 30
0.0
 40
0.196850001812
100
AcDbArc
 50
112.000000839954
 51
180.000008651422
1001
ACAD
1000
TCW40_DEV_WIDTH
1002
{
1040
-3.0
1002
}
  0
LINE
  5
467
100
AcDbEntity
  8
0
  6
Continuous
 62
           7
100
AcDbLine
 10
19.016045647156
 20
-2.333003676306
 30
0.0
 11
18.502685650256
 21
-2.540413497706
 31
0.0
1001
ACAD
1000
TCW40_DEV_WIDTH
1002
{
1040
-3.0
1002
}
  0
LINE
  5
468
100
AcDbEntity
  8
0
  6
Continuous
 62
           7
100
AcDbLine
 10
20.229967628756
 20
0.795066051794
 30
0.0
 11
20.229967628756
 21
-2.202458268106
 31
0.0
1001
ACAD
1000
TCW40_DEV_WIDTH
1002
{
1040
-3.0
1002
}
  0
LINE
  5
469
100
AcDbEntity
  8
0
  6
Continuous
 62
           7
100
AcDbLine
 10
19.048867628756
 20
0.871103694994
 30
0.0
 11
19.048867628756
 21
-2.278496305006
 31
0.0
1001
ACAD
1000
TCW40_DEV_WIDTH
1002
{
1040
-3.0
1002
}
  0
DIMENSION
  5
477
100
AcDbEntity
  8
0
  6
Continuous
 62
           7
100
AcDbDimension
  2
*D46
 10
20.387447628756
 20
4.163748195861
 30
0.0
 11
23.7391228994
 21
4.787394039129
 31
0.0
 70
         128
 71
           5
 72
           1
 41
1.0
 42
0.0
  1
<>
  3
STANDARD
100
AcDbAlignedDimension
 13
21.950437022456
 23
-0.094575082306
 33
0.0
 14
20.387447628756
 24
-0.148969461706
 34
0.0
100
AcDbRotatedDimension
1001
ACAD
1000
DSTYLE
1002
{
1070
          41
1040
0.44
1070
         176
1070
           7
1070
         177
1070
           7
1070
         178
1070
           7
1070
         179
1070
           2
1070
         271
1070
           2
1070
          43
1040
0.09
1070
          44
1040
0.2
1070
          42
1040
0.2
1070
         147
1040
0.22
1070
         280
1070
           1
1070
          77
1070
           1
1070
         272
1070
           2
1070
         146
1040
1.8
1070
          73
1070
           0
1070
         172
1070
           1
1070
          74
1070
           0
1070
         140
1040
0.5
1070
         288
1070
           1
1002
}
  0
LINE
  5
478
100
AcDbEntity
  8
0
 62
           7
100
AcDbLine
 10
-7.706574958045
 20
17.903870189195
 30
0.0
 11
-0.467739148279
 21
17.903870189195
 31
0.0
1001
ACAD
1000
TCW40_DEV_WIDTH
1002
{
1040
-3.0
1002
}
  0
TEXT
  5
479
100
AcDbEntity
  8
0
  6
Continuous
 62
           7
100
AcDbText
 10
-7.378694528364
 20
18.183190317588
 30
0.0
 40
0.683687320832
  1
INPUT SHAFT
100
AcDbText
1001
TCAD
1000
TCW40_TEXT
1002
{
1000
romand.shx
1070
           0
1070
        1025
1002
}
  0
LINE
  5
47A
100
AcDbEntity
  8
0
  6
Continuous
 62
           7
100
AcDbLine
 10
17.985898536399
 20
18.686022021733
 30
0.0
 11
18.379598536399
 21
18.686022021733
 31
0.0
1001
ACAD
1000
TCW40_DEV_WIDTH
1002
{
1040
-3.0
1002
}
  0
ARC
  5
47B
100
AcDbEntity
  8
0
  6
Continuous
 62
           7
100
AcDbCircle
 10
20.151248536399
 20
16.543058709243
 30
0.0
 40
0.078740000725
100
AcDbArc
 50
0.0
 51
88.000000172092
1001
ACAD
1000
TCW40_DEV_WIDTH
1002
{
1040
-3.0
1002
}
  0
LINE
  5
47C
100
AcDbEntity
  8
0
  6
Continuous
 62
           7
100
AcDbLine
 10
20.153997349799
 20
16.621750638473
 30
0.0
 11
19.048888536399
 21
16.660341939243
 31
0.0
1001
ACAD
1000
TCW40_DEV_WIDTH
1002
{
1040
-3.0
1002
}
  0
LINE
  5
47D
100
AcDbEntity
  8
0
  6
Continuous
 62
           7
100
AcDbLine
 10
20.690617930099
 20
15.169296771733
 30
0.0
 11
20.690617930099
 21
14.919297271733
 31
0.0
1001
ACAD
1000
TCW40_DEV_WIDTH
1002
{
1040
-3.0
1002
}
  0
LINE
  5
47E
100
AcDbEntity
  8
0
  6
Continuous
 62
           7
100
AcDbLine
 10
21.950457930099
 20
15.544296021733
 30
0.0
 11
21.950457930099
 21
14.544298021733
 31
0.0
1001
ACAD
1000
TCW40_DEV_WIDTH
1002
{
1040
-3.0
1002
}
  0
LINE
  5
47F
100
AcDbEntity
  8
0
  6
Continuous
 62
           7
100
AcDbLine
 10
20.229988536399
 20
15.634847021733
 30
0.0
 11
20.289043536399
 21
15.634847021733
 31
0.0
1001
ACAD
1000
TCW40_DEV_WIDTH
1002
{
1040
-3.0
1002
}
  0
LINE
  5
480
100
AcDbEntity
  8
0
  6
Continuous
 62
           7
100
AcDbLine
 10
20.289043536399
 20
15.634846785513
 30
0.0
 11
20.387468536399
 21
15.599023589443
 31
0.0
1001
ACAD
1000
TCW40_DEV_WIDTH
1002
{
1040
-3.0
1002
}
  0
LINE
  5
481
100
AcDbEntity
  8
0
  6
Continuous
 62
           7
100
AcDbLine
 10
20.229988536399
 20
14.453747021733
 30
0.0
 11
20.289043536399
 21
14.453747021733
 31
0.0
1001
ACAD
1000
TCW40_DEV_WIDTH
1002
{
1040
-3.0
1002
}
  0
LINE
  5
482
100
AcDbEntity
  8
0
  6
Continuous
 62
           7
100
AcDbLine
 10
20.289043536399
 20
14.453747257953
 30
0.0
 11
20.387468536399
 21
14.489570454023
 31
0.0
1001
ACAD
1000
TCW40_DEV_WIDTH
1002
{
1040
-3.0
1002
}
  0
LINE
  5
483
100
AcDbEntity
  8
0
  6
Continuous
 62
           7
100
AcDbLine
 10
20.387468536399
 20
15.599023274483
 30
0.0
 11
20.387468536399
 21
14.489570768983
 31
0.0
1001
ACAD
1000
TCW40_DEV_WIDTH
1002
{
1040
-3.0
1002
}
  0
LINE
  5
484
100
AcDbEntity
  8
0
  6
Continuous
 62
           7
100
AcDbLine
 10
20.289043536399
 20
15.634847021733
 30
0.0
 11
20.289043536399
 21
14.453747021733
 31
0.0
1001
ACAD
1000
TCW40_DEV_WIDTH
1002
{
1040
-3.0
1002
}
  0
ARC
  5
485
100
AcDbEntity
  8
0
  6
Continuous
 62
           7
100
AcDbCircle
 10
20.575461073799
 20
15.044297021733
 30
0.0
 40
0.12499974668
100
AcDbArc
 50
90.0
 51
269.999997495521
1001
ACAD
1000
TCW40_DEV_WIDTH
1002
{
1040
-3.0
1002
}
  0
LINE
  5
486
100
AcDbEntity
  8
0
  6
Continuous
 62
           7
100
AcDbLine
 10
20.575461073799
 20
14.919297271733
 30
0.0
 11
21.950457930099
 21
14.919297271733
 31
0.0
1001
ACAD
1000
TCW40_DEV_WIDTH
1002
{
1040
-3.0
1002
}
  0
LINE
  5
487
100
AcDbEntity
  8
0
  6
Continuous
 62
           7
100
AcDbLine
 10
20.387468536399
 20
15.544296021733
 30
0.0
 11
21.950457930099
 21
15.544296021733
 31
0.0
1001
ACAD
1000
TCW40_DEV_WIDTH
1002
{
1040
-3.0
1002
}
  0
LINE
  5
488
100
AcDbEntity
  8
0
  6
Continuous
 62
           7
100
AcDbLine
 10
20.575461073799
 20
15.169296771733
 30
0.0
 11
21.950457930099
 21
15.169296771733
 31
0.0
1001
ACAD
1000
TCW40_DEV_WIDTH
1002
{
1040
-3.0
1002
}
  0
LINE
  5
489
100
AcDbEntity
  8
0
  6
Continuous
 62
           7
100
AcDbLine
 10
20.387468536399
 20
14.544298021733
 30
0.0
 11
21.950457930099
 21
14.544298021733
 31
0.0
1001
ACAD
1000
TCW40_DEV_WIDTH
1002
{
1040
-3.0
1002
}
  0
ARC
  5
48A
100
AcDbEntity
  8
0
  6
Continuous
 62
           7
100
AcDbCircle
 10
18.576448536399
 20
17.063529676173
 30
0.0
 40
0.196850001812
100
AcDbArc
 50
179.999991348578
 51
247.999992329856
1001
ACAD
1000
TCW40_DEV_WIDTH
1002
{
1040
-3.0
1002
}
  0
LINE
  5
48B
100
AcDbEntity
  8
0
  6
Continuous
 62
           7
100
AcDbLine
 10
19.016064192599
 20
16.673603684373
 30
0.0
 11
18.502706557899
 21
16.881013623883
 31
0.0
1001
ACAD
1000
TCW40_DEV_WIDTH
1002
{
1040
-3.0
1002
}
  0
ARC
  5
48C
100
AcDbEntity
  8
0
  6
Continuous
 62
           7
100
AcDbCircle
 10
20.151248536399
 20
13.545535334223
 30
0.0
 40
0.078740000725
100
AcDbArc
 50
-88.000000172092
 51
0.0
1001
ACAD
1000
TCW40_DEV_WIDTH
1002
{
1040
-3.0
1002
}
  0
LINE
  5
48D
100
AcDbEntity
  8
0
  6
Continuous
 62
           7
100
AcDbLine
 10
20.153997349799
 20
13.466843404993
 30
0.0
 11
19.048888536399
 21
13.428252104223
 31
0.0
1001
ACAD
1000
TCW40_DEV_WIDTH
1002
{
1040
-3.0
1002
}
  0
ARC
  5
48E
100
AcDbEntity
  8
0
  6
Continuous
 62
           7
100
AcDbCircle
 10
18.576448536399
 20
13.025064367293
 30
0.0
 40
0.196850001812
100
AcDbArc
 50
112.000000839954
 51
180.000008651422
1001
ACAD
1000
TCW40_DEV_WIDTH
1002
{
1040
-3.0
1002
}
  0
LINE
  5
48F
100
AcDbEntity
  8
0
  6
Continuous
 62
           7
100
AcDbLine
 10
17.985898536399
 20
11.402572021733
 30
0.0
 11
18.379598536399
 21
11.402572021733
 31
0.0
1001
ACAD
1000
TCW40_DEV_WIDTH
1002
{
1040
-3.0
1002
}
  0
LINE
  5
490
100
AcDbEntity
  8
0
  6
Continuous
 62
           7
100
AcDbLine
 10
19.016064192599
 20
13.414990359093
 30
0.0
 11
18.502706557899
 21
13.207580419583
 31
0.0
1001
ACAD
1000
TCW40_DEV_WIDTH
1002
{
1040
-3.0
1002
}
  0
LINE
  5
491
100
AcDbEntity
  8
0
  6
Continuous
 62
           7
100
AcDbLine
 10
18.379598536399
 20
18.686022021733
 30
0.0
 11
18.379598536399
 21
11.402572021733
 31
0.0
1001
ACAD
1000
TCW40_DEV_WIDTH
1002
{
1040
-3.0
1002
}
  0
LINE
  5
492
100
AcDbEntity
  8
0
  6
Continuous
 62
           7
100
AcDbLine
 10
19.048888536399
 20
16.619097021733
 30
0.0
 11
19.048888536399
 21
13.469497021733
 31
0.0
1001
ACAD
1000
TCW40_DEV_WIDTH
1002
{
1040
-3.0
1002
}
  0
LINE
  5
493
100
AcDbEntity
  8
0
  6
Continuous
 62
           7
100
AcDbLine
 10
20.229988536399
 20
16.543058709243
 30
0.0
 11
20.229988536399
 21
13.545535334223
 31
0.0
1001
ACAD
1000
TCW40_DEV_WIDTH
1002
{
1040
-3.0
1002
}
  0
LINE
  5
494
100
AcDbEntity
  8
0
  6
Continuous
 62
           7
100
AcDbLine
 10
18.379598536399
 20
17.722189381646
 30
0.0
 11
19.680009664345
 21
17.722189381646
 31
0.0
1001
ACAD
1000
TCW40_DEV_WIDTH
1002
{
1040
-3.0
1002
}
  0
ELLIPSE
  5
495
100
AcDbEntity
  8
0
  6
Continuous
 62
           7
100
AcDbEllipse
 10
19.680011711711
 20
18.03816227136
 30
0.0
 11
0.0
 21
-0.3159728944301605
 31
0.0
210
0.0
220
0.0
230
1.0
 40
0.997895077583
 41
0.0
 42
1.5707963267948966
1001
ACAD
1000
TCW40_DEV_WIDTH
1002
{
1040
-3.0
1002
}
  0
LINE
  5
496
100
AcDbEntity
  8
0
  6
Continuous
 62
           7
100
AcDbLine
 10
18.379598536399
 20
12.366290352354
 30
0.0
 11
19.679162831397
 21
12.366290352354
 31
0.0
1001
ACAD
1000
TCW40_DEV_WIDTH
1002
{
1040
-3.0
1002
}
  0
ELLIPSE
  5
497
100
AcDbEntity
  8
0
  6
Continuous
 62
           7
100
AcDbEllipse
 10
19.679163331587
 20
12.050500901927
 30
0.0
 11
0.3161238133907318
 21
0.0
 31
0.0
210
0.0
220
0.0
230
1.0
 40
0.998942337652
 41
0.0
 42
1.57079637050629
1001
ACAD
1000
TCW40_DEV_WIDTH
1002
{
1040
-3.0
1002
}
  0
TEXT
  5
498
100
AcDbEntity
  8
0
  6
Continuous
100
AcDbText
 10
-22.613555286398
 20
18.190603441166
 30
0.0
 40
0.683687320832
  1
OUTPUT SHAFT
100
AcDbText
1001
TCAD
1000
TCW40_TEXT
1002
{
1000
romand.shx
1070
           0
1070
        1025
1002
}
  0
LINE
  5
499
100
AcDbEntity
  8
0
100
AcDbLine
 10
-23.006574958045
 20
17.881780635065
 30
0.0
 11
-14.556574958045
 21
17.881780635065
 31
0.0
1001
ACAD
1000
TCW40_DEV_WIDTH
1002
{
1040
-3.0
1002
}
  0
LINE
  5
49A
100
AcDbEntity
  8
0
  6
Continuous
 62
           7
100
AcDbLine
 10
-22.263393648531
 20
14.294824486755
 30
0.0
 11
-22.263393648531
 21
13.391074486755
 31
0.0
1001
ACAD
1000
TCW40_DEV_WIDTH
1002
{
1040
-3.0
1002
}
  0
LINE
  5
49B
100
AcDbEntity
  8
0
  6
Continuous
 62
           7
100
AcDbLine
 10
-21.359643648531
 20
14.294824486755
 30
0.0
 11
-21.359643648531
 21
13.391074486755
 31
0.0
1001
ACAD
1000
TCW40_DEV_WIDTH
1002
{
1040
-3.0
1002
}
  0
ARC
  5
49C
100
AcDbEntity
  8
0
 62
           7
100
AcDbCircle
 10
-21.811518648531
 20
11.734199486755
 30
0.0
 40
2.108750104904
100
AcDbArc
 50
102.373627846387
 51
437.62637716257
1001
ACAD
1000
TCW40_DEV_WIDTH
1002
{
1040
-3.0
1002
}
  0
LINE
  5
49D
100
AcDbEntity
  8
0
 62
           7
100
AcDbLine
 10
-22.263393648531
 20
13.391074486755
 30
0.0
 11
-21.359643648531
 21
13.391074486755
 31
0.0
1001
ACAD
1000
TCW40_DEV_WIDTH
1002
{
1040
-3.0
1002
}
  0
LINE
  5
49E
100
AcDbEntity
  8
0
 62
           7
100
AcDbLine
 10
-22.263393648531
 20
14.294824486755
 30
0.0
 11
-21.359643648531
 21
14.294824486755
 31
0.0
1001
ACAD
1000
TCW40_DEV_WIDTH
1002
{
1040
-3.0
1002
}
  0
LINE
  5
49F
100
AcDbEntity
  8
0
  6
Continuous
 62
           7
100
AcDbLine
 10
-19.176872710339
 20
11.734199486755
 30
0.0
 11
-24.385890429385
 21
11.734199486755
 31
0.0
1001
ACAD
1000
TCW40_DEV_WIDTH
1002
{
1040
-3.0
1002
}
  0
LINE
  5
4A0
100
AcDbEntity
  8
0
  6
Continuous
 62
           7
100
AcDbLine
 10
-21.811518648531
 20
14.942171219493
 30
0.0
 11
-21.811518648531
 21
9.088983978702
 31
0.0
1001
ACAD
1000
TCW40_DEV_WIDTH
1002
{
1040
-3.0
1002
}
  0
TEXT
  5
4A1
100
AcDbEntity
  8
0
  6
Continuous
 62
           7
100
AcDbText
 10
-21.220154827315
 20
16.053199563374
 30
0.0
 40
0.500005143689
  1
Key 3/8X3/8X2.16
100
AcDbText
1001
TCAD
1000
TCW40_TEXT
1002
{
1000
romand.shx
1070
           0
1070
        1025
1002
}
  0
LEADER
  5
4A2
100
AcDbEntity
  8
0
  6
Continuous
 62
           7
100
AcDbLeader
  3
STANDARD
 73
           3
 74
           0
 75
           0
 40
0.0
 76
           2
 10
-21.81226807421
 20
14.294651443201
 30
0.0
 10
-21.381851147777
 20
15.774827069716
 30
0.0
 77
           7
211
0.0001
221
0.0
231
0.0
1001
ACAD
1000
DSTYLE
1002
{
1002
}
  0
LINE
  5
4A3
100
AcDbEntity
  8
0
  6
Continuous
 62
           7
100
AcDbLine
 10
-21.386373542215
 20
15.774682074438
 30
0.0
 11
-13.506574958045
 21
15.774682074438
 31
0.0
1001
ACAD
1000
TCW40_DEV_WIDTH
1002
{
1040
-3.0
1002
}
  0
LINE
  5
4A4
100
AcDbEntity
  8
0
  6
Continuous
 62
           7
100
AcDbLine
 10
-7.847153081078
 20
13.92547253326
 30
0.0
 11
-7.847153081078
 21
13.081723515663
 31
0.0
1001
ACAD
1000
TCW40_DEV_WIDTH
1002
{
1040
-3.0
1002
}
  0
LINE
  5
4A5
100
AcDbEntity
  8
0
  6
Continuous
 62
           7
100
AcDbLine
 10
-7.003412057367
 20
13.92547253326
 30
0.0
 11
-7.003412057367
 21
13.081723515663
 31
0.0
1001
ACAD
1000
TCW40_DEV_WIDTH
1002
{
1040
-3.0
1002
}
  0
LINE
  5
4A6
100
AcDbEntity
  8
0
  6
Continuous
 62
           7
100
AcDbLine
 10
-7.003412057367
 20
13.92547253326
 30
0.0
 11
-7.847153081078
 21
13.92547253326
 31
0.0
1001
ACAD
1000
TCW40_DEV_WIDTH
1002
{
1040
-3.0
1002
}
  0
LINE
  5
4A7
100
AcDbEntity
  8
0
  6
ByBlock
 62
           7
100
AcDbLine
 10
-9.624845608073
 20
11.868836474669
 30
0.0
 11
-5.302784197959
 21
11.868836474669
 31
0.0
1001
ACAD
1000
TCW40_DEV_WIDTH
1002
{
1040
-3.0
1002
}
  0
LINE
  5
4A8
100
AcDbEntity
  8
0
  6
Continuous
 62
           7
100
AcDbLine
 10
-7.003412057367
 20
13.081723515663
 30
0.0
 11
-7.847153081078
 21
13.081723515663
 31
0.0
1001
ACAD
1000
TCW40_DEV_WIDTH
1002
{
1040
-3.0
1002
}
  0
TEXT
  5
4A9
100
AcDbEntity
  8
0
  6
Continuous
 62
           0
100
AcDbText
 10
-6.823279345094
 20
15.703199563374
 30
0.0
 40
0.500005143689
  1
Key 1/4x1/4x1.25
100
AcDbText
1001
TCAD
1000
TCW40_TEXT
1002
{
1000
romand.shx
1070
           0
1070
        1025
1002
}
  0
ARC
  5
4AA
100
AcDbEntity
  8
0
370
           0
  6
Continuous
 62
           7
100
AcDbCircle
 10
-7.425282652812
 20
11.868835288551
 30
0.0
 40
1.6875
100
AcDbArc
 50
104.477353431507
 51
435.52264474726
  0
LINE
  5
4AB
100
AcDbEntity
  8
0
  6
Continuous
 62
           7
100
AcDbLine
 10
-7.425282559317
 20
14.385606668426
 30
0.0
 11
-7.425282559317
 21
9.726529149844
 31
0.0
1001
ACAD
1000
TCW40_DEV_WIDTH
1002
{
1040
-3.0
1002
}
  0
LEADER
  5
4AC
100
AcDbEntity
  8
0
  6
Continuous
 62
           7
100
AcDbLeader
  3
STANDARD
 73
           3
 74
           0
 75
           0
 40
0.0
 76
           2
 10
-7.427415591515
 20
13.933709631855
 30
0.0
 10
-6.996998665082
 20
15.41388525837
 30
0.0
 77
           7
211
0.0001
221
0.0
231
0.0
1001
ACAD
1000
DSTYLE
1002
{
1002
}
  0
LINE
  5
4AD
100
AcDbEntity
  8
0
  6
Continuous
 62
           7
100
AcDbLine
 10
-7.00152105952
 20
15.413740263092
 30
0.0
 11
0.743425041955
 21
15.413740263092
 31
0.0
1001
ACAD
1000
TCW40_DEV_WIDTH
1002
{
1040
-3.0
1002
}
  0
LINE
  5
4AE
100
AcDbEntity
  8
0
100
AcDbLine
 10
-31.614960464418
 20
-12.834258793164
 30
0.0
 11
31.615036639591
 21
-12.834258793164
 31
0.0
1001
ACAD
1000
TCW40_DEV_WIDTH
1002
{
1040
-3.0
1002
}
  0
LINE
  5
4AF
100
AcDbEntity
  8
0
100
AcDbLine
 10
12.760959881202
 20
-20.196554269675
 30
0.0
 11
31.615036787136
 21
-20.196554269675
 31
0.0
1001
ACAD
1000
TCW40_DEV_WIDTH
1002
{
1040
-3.0
1002
}
  0
LINE
  5
4B0
100
AcDbEntity
  8
0
100
AcDbLine
 10
-19.879899636581
 20
-16.782307569256
 30
0.0
 11
2.348219532488
 21
-16.782307569256
 31
0.0
1001
ACAD
1000
TCW40_DEV_WIDTH
1002
{
1040
-3.0
1002
}
  0
LINE
  5
4B1
100
AcDbEntity
  8
0
100
AcDbLine
 10
12.760959866344
 20
-12.834258863726
 30
0.0
 11
12.760959866344
 21
-23.305006669551
 31
0.0
1001
ACAD
1000
TCW40_DEV_WIDTH
1002
{
1040
-3.0
1002
}
  0
LINE
  5
4B2
100
AcDbEntity
  8
0
100
AcDbLine
 10
26.798402970043
 20
-20.196554269675
 30
0.0
 11
26.798402970043
 21
-23.330082760629
 31
0.0
1001
ACAD
1000
TCW40_DEV_WIDTH
1002
{
1040
-3.0
1002
}
  0
LINE
  5
4B3
100
AcDbEntity
  8
0
100
AcDbLine
 10
12.760959866344
 20
-16.512697362522
 30
0.0
 11
31.615036639591
 21
-16.512697362522
 31
0.0
1001
ACAD
1000
TCW40_DEV_WIDTH
1002
{
1040
-3.0
1002
}
  0
LINE
  5
4B4
100
AcDbEntity
  8
0
100
AcDbLine
 10
-19.879899636581
 20
-12.834258793164
 30
0.0
 11
-19.879899636581
 21
-23.278786324088
 31
0.0
1001
ACAD
1000
TCW40_DEV_WIDTH
1002
{
1040
-3.0
1002
}
  0
LINE
  5
4B5
100
AcDbEntity
  8
0
100
AcDbLine
 10
-19.879899636581
 20
-19.902336203233
 30
0.0
 11
2.348219532488
 21
-19.902336203233
 31
0.0
1001
ACAD
1000
TCW40_DEV_WIDTH
1002
{
1040
-3.0
1002
}
  0
LINE
  5
4B6
100
AcDbEntity
  8
0
100
AcDbLine
 10
-12.296791853086
 20
-12.834258793164
 30
0.0
 11
-12.296791853086
 21
-23.330082760629
 31
0.0
1001
ACAD
1000
TCW40_DEV_WIDTH
1002
{
1040
-3.0
1002
}
  0
TEXT
  5
4B8
100
AcDbEntity
  8
0
  6
Continuous
100
AcDbText
 10
27.030856733054
 20
-20.798108684422
 30
0.0
 40
0.301955483176
  1
REV. MARK
  7
_TCW_TXTSTY_3
100
AcDbText
1001
TCAD
1000
TCW40_TEXT
1002
{
1000
Times New Roman
1070
           0
1070
        1025
1002
}
  0
TEXT
  5
4B9
100
AcDbEntity
  8
0
  6
Continuous
100
AcDbText
 10
13.169873785414
 20
-17.152853810236
 30
0.0
 40
0.301955483176
  1
MODEL
  7
_TCW_TXTSTY_3
100
AcDbText
1001
TCAD
1000
TCW40_TEXT
1002
{
1000
Times New Roman
1070
           0
1070
        1025
1002
}
  0
TEXT
  5
4BA
100
AcDbEntity
  8
0
  6
Continuous
100
AcDbText
 10
13.150157084451
 20
-13.339355142652
 30
0.0
 40
0.301955483176
  1
TITLE
  7
_TCW_TXTSTY_3
100
AcDbText
1001
TCAD
1000
TCW40_TEXT
1002
{
1000
Times New Roman
1070
           0
1070
        1025
1002
}
  0
TEXT
  5
4BB
100
AcDbEntity
  8
PV-0
  6
Continuous
100
AcDbText
 10
16.016985042097
 20
-19.722124438605
 30
0.0
 40
1.07249996337
  1
Circulute Series II
  7
_TCW_TXTSTY_3
100
AcDbText
1001
TCAD
1000
TCW40_TEXT
1002
{
1000
Times New Roman
1070
           0
1070
        1025
1002
}
  0
LWPOLYLINE
  5
4BC
100
AcDbEntity
  8
0
100
AcDbPolyline
 90
        4
 70
           1
 43
0.10000000149
 10
-31.614960464418
 20
23.33576479645
 10
31.614960464418
 20
23.33576479645
 10
31.614960464418
 20
-23.330082760629
 10
-31.614960464418
 20
-23.330082760629
  0
LWPOLYLINE
  5
4BD
100
AcDbEntity
  8
0
 62
           1
100
AcDbPolyline
 90
       14
 70
           0
 10
27.30471107663
 20
-13.590211449993
 10
26.47846810961
 20
-13.590211449993
 10
26.47846810961
 20
-14.469760414884
 10
27.30471107663
 20
-14.469760414884
 10
27.30471107663
 20
-14.283189422332
 10
26.744998098971
 20
-14.283189422332
 10
26.744998098971
 20
-14.123271428715
 10
27.30471107663
 20
-14.123271428715
 10
27.30471107663
 20
-13.936700436162
 10
26.744998098971
 20
-13.936700436162
 10
26.744998098971
 20
-13.776782442545
 10
27.30471107663
 20
-13.776782442545
 10
27.30471107663
 20
-13.590211449993
 10
27.30471107663
 20
-13.590211449993
1001
ACAD
1000
TCW40_DEV_WIDTH
1002
{
1040
-3.0
1002
}
  0
LWPOLYLINE
  5
4BE
100
AcDbEntity
  8
0
 62
           1
100
AcDbPolyline
 90
      117
 70
           0
 10
28.584055025563
 20
-14.256536423396
 10
28.584055025563
 20
-14.283189422332
 10
28.557402026627
 20
-14.283189422332
 10
28.557402026627
 20
-14.336495420204
 10
28.530749027691
 20
-14.336495420204
 10
28.530749027691
 20
-14.36314841914
 10
28.504096028755
 20
-14.36314841914
 10
28.504096028755
 20
-14.389801418076
 10
28.450790030883
 20
-14.389801418076
 10
28.450790030883
 20
-14.416454417012
 10
28.397484033011
 20
-14.416454417012
 10
28.370831034074
 20
-14.443107415948
 10
28.26421903833
 20
-14.443107415948
 10
28.26421903833
 20
-14.469760414884
 10
27.811118056416
 20
-14.469760414884
 10
27.78446505748
 20
-14.443107415948
 10
27.651200062799
 20
-14.443107415948
 10
27.624547063863
 20
-14.416454417012
 10
27.544588067055
 20
-14.416454417012
 10
27.544588067055
 20
-14.389801418076
 10
27.491282069183
 20
-14.389801418076
 10
27.491282069183
 20
-14.36314841914
 10
27.464629070246
 20
-14.36314841914
 10
27.517935068119
 20
-14.176577426587
 10
27.544588067055
 20
-14.176577426587
 10
27.544588067055
 20
-14.203230425523
 10
27.597894064927
 20
-14.203230425523
 10
27.597894064927
 20
-14.229883424459
 10
27.677853061735
 20
-14.229883424459
 10
27.677853061735
 20
-14.256536423396
 10
27.78446505748
 20
-14.256536423396
 10
27.78446505748
 20
-14.283189422332
 10
27.91773005216
 20
-14.283189422332
 10
27.91773005216
 20
-14.309842421268
 10
28.26421903833
 20
-14.309842421268
 10
28.26421903833
 20
-14.283189422332
 10
28.290872037266
 20
-14.283189422332
 10
28.290872037266
 20
-14.229883424459
 10
28.26421903833
 20
-14.229883424459
 10
28.26421903833
 20
-14.203230425523
 10
28.210913040458
 20
-14.203230425523
 10
28.184260041522
 20
-14.176577426587
 10
28.130954043649
 20
-14.176577426587
 10
28.104301044713
 20
-14.149924427651
 10
27.837771055352
 20
-14.149924427651
 10
27.837771055352
 20
-14.123271428715
 10
27.704506060671
 20
-14.123271428715
 10
27.704506060671
 20
-14.096618429779
 10
27.624547063863
 20
-14.096618429779
 10
27.597894064927
 20
-14.069965430843
 10
27.544588067055
 20
-14.069965430843
 10
27.544588067055
 20
-14.043312431907
 10
27.517935068119
 20
-14.043312431907
 10
27.43797607131
 20
-13.963353435098
 10
27.43797607131
 20
-13.936700436162
 10
27.411323072374
 20
-13.910047437226
 10
27.411323072374
 20
-13.803435441482
 10
27.43797607131
 20
-13.776782442545
 10
27.43797607131
 20
-13.750129443609
 10
27.464629070246
 20
-13.723476444673
 10
27.464629070246
 20
-13.696823445737
 10
27.491282069183
 20
-13.696823445737
 10
27.517935068119
 20
-13.670170446801
 10
27.544588067055
 20
-13.670170446801
 10
27.544588067055
 20
-13.643517447865
 10
27.597894064927
 20
-13.643517447865
 10
27.597894064927
 20
-13.616864448929
 10
27.704506060671
 20
-13.616864448929
 10
27.731159059608
 20
-13.590211449993
 10
28.157607042586
 20
-13.590211449993
 10
28.184260041522
 20
-13.616864448929
 10
28.317525036202
 20
-13.616864448929
 10
28.344178035138
 20
-13.643517447865
 10
28.424137031947
 20
-13.643517447865
 10
28.424137031947
 20
-13.670170446801
 10
28.504096028755
 20
-13.670170446801
 10
28.504096028755
 20
-13.696823445737
 10
28.530749027691
 20
-13.696823445737
 10
28.477443029819
 20
-13.910047437226
 10
28.450790030883
 20
-13.910047437226
 10
28.424137031947
 20
-13.88339443829
 10
28.370831034074
 20
-13.88339443829
 10
28.370831034074
 20
-13.856741439354
 10
28.290872037266
 20
-13.856741439354
 10
28.290872037266
 20
-13.830088440418
 10
28.210913040458
 20
-13.830088440418
 10
28.184260041522
 20
-13.803435441482
 10
28.077648045777
 20
-13.803435441482
 10
28.050995046841
 20
-13.776782442545
 10
27.891077053224
 20
-13.776782442545
 10
27.864424054288
 20
-13.750129443609
 10
27.731159059608
 20
-13.750129443609
 10
27.704506060671
 20
-13.776782442545
 10
27.704506060671
 20
-13.803435441482
 10
27.677853061735
 20
-13.803435441482
 10
27.677853061735
 20
-13.856741439354
 10
27.704506060671
 20
-13.856741439354
 10
27.704506060671
 20
-13.88339443829
 10
27.757812058544
 20
-13.88339443829
 10
27.757812058544
 20
-13.910047437226
 10
28.050995046841
 20
-13.910047437226
 10
28.077648045777
 20
-13.936700436162
 10
28.157607042586
 20
-13.936700436162
 10
28.157607042586
 20
-13.963353435098
 10
28.26421903833
 20
-13.963353435098
 10
28.290872037266
 20
-13.990006434034
 10
28.370831034074
 20
-13.990006434034
 10
28.370831034074
 20
-14.01665943297
 10
28.424137031947
 20
-14.01665943297
 10
28.450790030883
 20
-14.043312431907
 10
28.477443029819
 20
-14.043312431907
 10
28.530749027691
 20
-14.096618429779
 10
28.557402026627
 20
-14.096618429779
 10
28.557402026627
 20
-14.149924427651
 10
28.584055025563
 20
-14.149924427651
 10
28.584055025563
 20
-14.256536423396
 10
28.584055025563
 20
-14.256536423396
1001
ACAD
1000
TCW40_DEV_WIDTH
1002
{
1040
-3.0
1002
}
  0
LWPOLYLINE
  5
4BF
100
AcDbEntity
  8
0
 62
           1
100
AcDbPolyline
 90
        9
 70
           0
 10
25.359042154293
 20
-13.590211449993
 10
25.652225142591
 20
-13.590211449993
 10
25.86544913408
 20
-14.096618429779
 10
26.078673125569
 20
-13.590211449993
 10
26.371856113866
 20
-13.590211449993
 10
25.99871412876
 20
-14.469760414884
 10
25.732184139399
 20
-14.469760414884
 10
25.359042154293
 20
-13.590211449993
 10
25.359042154293
 20
-13.590211449993
1001
ACAD
1000
TCW40_DEV_WIDTH
1002
{
1040
-3.0
1002
}
  0
LWPOLYLINE
  5
4C0
100
AcDbEntity
  8
0
 62
           1
100
AcDbPolyline
 90
        5
 70
           0
 10
24.959247170252
 20
-13.590211449993
 10
25.305736156421
 20
-13.590211449993
 10
25.305736156421
 20
-14.49641341382
 10
24.959247170252
 20
-14.49641341382
 10
24.959247170252
 20
-13.590211449993
1001
ACAD
1000
TCW40_DEV_WIDTH
1002
{
1040
-3.0
1002
}
  0
LWPOLYLINE
  5
4C1
100
AcDbEntity
  8
0
 62
           1
100
AcDbPolyline
 90
       74
 70
           0
 10
22.533824267066
 20
-13.643517447865
 10
22.533824267066
 20
-14.443107415948
 10
22.587130264938
 20
-14.443107415948
 10
22.613783263874
 20
-14.469760414884
 10
22.720395259619
 20
-14.469760414884
 10
22.747048258555
 20
-14.49641341382
 10
23.066884245788
 20
-14.49641341382
 10
23.093537244724
 20
-14.469760414884
 10
23.200149240469
 20
-14.469760414884
 10
23.226802239405
 20
-14.443107415948
 10
23.280108237277
 20
-14.443107415948
 10
23.306761236213
 20
-14.416454417012
 10
23.360067234085
 20
-14.416454417012
 10
23.386720233021
 20
-14.389801418076
 10
23.413373231957
 20
-14.389801418076
 10
23.46667922983
 20
-14.336495420204
 10
23.493332228766
 20
-14.336495420204
 10
23.626597223446
 20
-14.203230425523
 10
23.626597223446
 20
-14.176577426587
 10
23.653250222382
 20
-14.149924427651
 10
23.653250222382
 20
-14.123271428715
 10
23.679903221318
 20
-14.096618429779
 10
23.679903221318
 20
-13.990006434034
 10
23.653250222382
 20
-13.963353435098
 10
23.653250222382
 20
-13.936700436162
 10
23.626597223446
 20
-13.910047437226
 10
23.626597223446
 20
-13.88339443829
 10
23.493332228766
 20
-13.750129443609
 10
23.46667922983
 20
-13.750129443609
 10
23.413373231957
 20
-13.696823445737
 10
23.386720233021
 20
-13.696823445737
 10
23.360067234085
 20
-13.670170446801
 10
23.306761236213
 20
-13.670170446801
 10
23.280108237277
 20
-13.643517447865
 10
23.226802239405
 20
-13.643517447865
 10
23.200149240469
 20
-13.616864448929
 10
23.093537244724
 20
-13.616864448929
 10
23.066884245788
 20
-13.590211449993
 10
22.747048258555
 20
-13.590211449993
 10
22.720395259619
 20
-13.616864448929
 10
22.613783263874
 20
-13.616864448929
 10
22.587130264938
 20
-13.643517447865
 10
22.533824267066
 20
-13.643517447865
 10
22.827007255363
 20
-13.803435441482
 10
22.800354256427
 20
-13.803435441482
 10
22.853660254299
 20
-13.803435441482
 10
22.880313253235
 20
-13.776782442545
 10
23.12019024366
 20
-13.776782442545
 10
23.146843242596
 20
-13.803435441482
 10
23.200149240469
 20
-13.803435441482
 10
23.226802239405
 20
-13.830088440418
 10
23.253455238341
 20
-13.830088440418
 10
23.306761236213
 20
-13.88339443829
 10
23.333414235149
 20
-13.88339443829
 10
23.360067234085
 20
-13.910047437226
 10
23.360067234085
 20
-13.936700436162
 10
23.413373231957
 20
-13.990006434034
 10
23.413373231957
 20
-14.096618429779
 10
23.360067234085
 20
-14.149924427651
 10
23.360067234085
 20
-14.176577426587
 10
23.333414235149
 20
-14.203230425523
 10
23.306761236213
 20
-14.203230425523
 10
23.253455238341
 20
-14.256536423396
 10
23.226802239405
 20
-14.256536423396
 10
23.200149240469
 20
-14.283189422332
 10
23.146843242596
 20
-14.283189422332
 10
23.12019024366
 20
-14.309842421268
 10
22.880313253235
 20
-14.309842421268
 10
22.853660254299
 20
-14.283189422332
 10
22.800354256427
 20
-14.283189422332
 10
22.827007255363
 20
-14.256536423396
 10
22.827007255363
 20
-13.830088440418
 10
22.533824267066
 20
-13.643517447865
 10
22.533824267066
 20
-13.643517447865
1001
ACAD
1000
TCW40_DEV_WIDTH
1002
{
1040
-3.0
1002
}
  0
LWPOLYLINE
  5
4C2
100
AcDbEntity
  8
0
 62
           1
100
AcDbPolyline
 90
        6
 70
           0
 10
24.879288173444
 20
-14.469760414884
 10
24.55945218621
 20
-14.469760414884
 10
24.133004203232
 20
-14.149924427651
 10
24.42618719153
 20
-14.149924427651
 10
24.879288173444
 20
-14.469760414884
 10
24.879288173444
 20
-14.469760414884
1001
ACAD
1000
TCW40_DEV_WIDTH
1002
{
1040
-3.0
1002
}
  0
LWPOLYLINE
  5
4C3
100
AcDbEntity
  8
0
 62
           1
100
AcDbPolyline
 90
       60
 70
           0
 10
24.053045206424
 20
-14.203230425523
 10
24.053045206424
 20
-14.469760414884
 10
23.759862218127
 20
-14.469760414884
 10
23.759862218127
 20
-13.643517447865
 10
23.839821214935
 20
-13.643517447865
 10
23.866474213871
 20
-13.616864448929
 10
23.973086209616
 20
-13.616864448929
 10
23.999739208552
 20
-13.590211449993
 10
24.399534192594
 20
-13.590211449993
 10
24.42618719153
 20
-13.616864448929
 10
24.532799187274
 20
-13.616864448929
 10
24.55945218621
 20
-13.643517447865
 10
24.612758184083
 20
-13.643517447865
 10
24.639411183019
 20
-13.670170446801
 10
24.666064181955
 20
-13.670170446801
 10
24.692717180891
 20
-13.696823445737
 10
24.719370179827
 20
-13.696823445737
 10
24.746023178763
 20
-13.723476444673
 10
24.772676177699
 20
-13.723476444673
 10
24.879288173444
 20
-13.830088440418
 10
24.879288173444
 20
-13.856741439354
 10
24.90594117238
 20
-13.910047437226
 10
24.90594117238
 20
-13.88339443829
 10
24.90594117238
 20
-13.990006434034
 10
24.852635174508
 20
-14.043312431907
 10
24.852635174508
 20
-14.069965430843
 10
24.799329176635
 20
-14.123271428715
 10
24.772676177699
 20
-14.123271428715
 10
24.719370179827
 20
-14.176577426587
 10
24.666064181955
 20
-14.176577426587
 10
24.639411183019
 20
-14.203230425523
 10
24.612758184083
 20
-14.203230425523
 10
24.586105185146
 20
-14.229883424459
 10
24.479493189402
 20
-14.229883424459
 10
24.452840190466
 20
-14.256536423396
 10
24.186310201105
 20
-14.256536423396
 10
24.159657202169
 20
-14.229883424459
 10
24.053045206424
 20
-14.229883424459
 10
24.026392207488
 20
-14.203230425523
 10
24.053045206424
 20
-13.990006434034
 10
24.053045206424
 20
-13.830088440418
 10
24.026392207488
 20
-13.830088440418
 10
24.106351204296
 20
-13.803435441482
 10
24.42618719153
 20
-13.803435441482
 10
24.452840190466
 20
-13.830088440418
 10
24.506146188338
 20
-13.830088440418
 10
24.532799187274
 20
-13.856741439354
 10
24.55945218621
 20
-13.856741439354
 10
24.612758184083
 20
-13.910047437226
 10
24.586105185146
 20
-13.963353435098
 10
24.55945218621
 20
-13.990006434034
 10
24.532799187274
 20
-13.990006434034
 10
24.506146188338
 20
-14.01665943297
 10
24.452840190466
 20
-14.01665943297
 10
24.42618719153
 20
-14.043312431907
 10
24.106351204296
 20
-14.043312431907
 10
24.07969820536
 20
-14.01665943297
 10
24.026392207488
 20
-14.01665943297
 10
24.053045206424
 20
-14.203230425523
 10
24.053045206424
 20
-14.203230425523
1001
ACAD
1000
TCW40_DEV_WIDTH
1002
{
1040
-3.0
1002
}
  0
LWPOLYLINE
  5
4C4
100
AcDbEntity
  8
0
 62
           1
100
AcDbPolyline
 90
       59
 70
           0
 10
20.142943348939
 20
-14.203230425523
 10
20.142943348939
 20
-14.469760414884
 10
19.849760360642
 20
-14.469760414884
 10
19.849760360642
 20
-13.643517447865
 10
19.92971935745
 20
-13.643517447865
 10
19.956372356386
 20
-13.616864448929
 10
20.062984352131
 20
-13.616864448929
 10
20.089637351067
 20
-13.590211449993
 10
20.489432335108
 20
-13.590211449993
 10
20.516085334044
 20
-13.616864448929
 10
20.622697329789
 20
-13.616864448929
 10
20.649350328725
 20
-13.643517447865
 10
20.729309325533
 20
-13.643517447865
 10
20.75596232447
 20
-13.670170446801
 10
20.782615323406
 20
-13.670170446801
 10
20.809268322342
 20
-13.696823445737
 10
20.835921321278
 20
-13.696823445737
 10
20.862574320214
 20
-13.723476444673
 10
20.88922731915
 20
-13.723476444673
 10
20.995839314895
 20
-13.830088440418
 10
20.995839314895
 20
-13.856741439354
 10
21.022492313831
 20
-13.910047437226
 10
21.022492313831
 20
-13.88339443829
 10
21.022492313831
 20
-13.990006434034
 10
20.969186315958
 20
-14.043312431907
 10
20.969186315958
 20
-14.069965430843
 10
20.915880318086
 20
-14.123271428715
 10
20.88922731915
 20
-14.123271428715
 10
20.835921321278
 20
-14.176577426587
 10
20.782615323406
 20
-14.176577426587
 10
20.75596232447
 20
-14.203230425523
 10
20.729309325533
 20
-14.203230425523
 10
20.702656326597
 20
-14.229883424459
 10
20.596044330853
 20
-14.229883424459
 10
20.569391331917
 20
-14.256536423396
 10
20.276208343619
 20
-14.256536423396
 10
20.249555344683
 20
-14.229883424459
 10
20.142943348939
 20
-14.229883424459
 10
20.142943348939
 20
-13.830088440418
 10
20.196249346811
 20
-13.830088440418
 10
20.222902345747
 20
-13.803435441482
 10
20.542738332981
 20
-13.803435441482
 10
20.569391331917
 20
-13.830088440418
 10
20.622697329789
 20
-13.830088440418
 10
20.649350328725
 20
-13.856741439354
 10
20.676003327661
 20
-13.856741439354
 10
20.729309325533
 20
-13.910047437226
 10
20.702656326597
 20
-13.963353435098
 10
20.676003327661
 20
-13.990006434034
 10
20.649350328725
 20
-13.990006434034
 10
20.622697329789
 20
-14.01665943297
 10
20.569391331917
 20
-14.01665943297
 10
20.542738332981
 20
-14.043312431907
 10
20.222902345747
 20
-14.043312431907
 10
20.196249346811
 20
-14.01665943297
 10
20.142943348939
 20
-14.01665943297
 10
20.142943348939
 20
-13.990006434034
 10
20.142943348939
 20
-14.203230425523
 10
20.142943348939
 20
-14.203230425523
1001
ACAD
1000
TCW40_DEV_WIDTH
1002
{
1040
-3.0
1002
}
  0
LWPOLYLINE
  5
4C5
100
AcDbEntity
  8
0
 62
           1
100
AcDbPolyline
 90
      117
 70
           0
 10
16.944583476605
 20
-14.256536423396
 10
16.944583476605
 20
-14.283189422332
 10
16.917930477669
 20
-14.283189422332
 10
16.917930477669
 20
-14.336495420204
 10
16.891277478733
 20
-14.336495420204
 10
16.891277478733
 20
-14.36314841914
 10
16.864624479797
 20
-14.36314841914
 10
16.864624479797
 20
-14.389801418076
 10
16.811318481925
 20
-14.389801418076
 10
16.811318481925
 20
-14.416454417012
 10
16.758012484053
 20
-14.416454417012
 10
16.731359485116
 20
-14.443107415948
 10
16.624747489372
 20
-14.443107415948
 10
16.624747489372
 20
-14.469760414884
 10
16.171646507458
 20
-14.469760414884
 10
16.144993508522
 20
-14.443107415948
 10
16.011728513841
 20
-14.443107415948
 10
15.985075514905
 20
-14.416454417012
 10
15.905116518097
 20
-14.416454417012
 10
15.905116518097
 20
-14.389801418076
 10
15.851810520225
 20
-14.389801418076
 10
15.851810520225
 20
-14.36314841914
 10
15.825157521289
 20
-14.36314841914
 10
15.878463519161
 20
-14.176577426587
 10
15.905116518097
 20
-14.176577426587
 10
15.905116518097
 20
-14.203230425523
 10
15.958422515969
 20
-14.203230425523
 10
15.958422515969
 20
-14.229883424459
 10
16.038381512778
 20
-14.229883424459
 10
16.038381512778
 20
-14.256536423396
 10
16.144993508522
 20
-14.256536423396
 10
16.144993508522
 20
-14.283189422332
 10
16.278258503203
 20
-14.283189422332
 10
16.278258503203
 20
-14.309842421268
 10
16.624747489372
 20
-14.309842421268
 10
16.624747489372
 20
-14.283189422332
 10
16.651400488308
 20
-14.283189422332
 10
16.651400488308
 20
-14.229883424459
 10
16.624747489372
 20
-14.229883424459
 10
16.624747489372
 20
-14.203230425523
 10
16.5714414915
 20
-14.203230425523
 10
16.544788492564
 20
-14.176577426587
 10
16.491482494691
 20
-14.176577426587
 10
16.464829495755
 20
-14.149924427651
 10
16.198299506394
 20
-14.149924427651
 10
16.198299506394
 20
-14.123271428715
 10
16.065034511714
 20
-14.123271428715
 10
16.065034511714
 20
-14.096618429779
 10
15.985075514905
 20
-14.096618429779
 10
15.958422515969
 20
-14.069965430843
 10
15.905116518097
 20
-14.069965430843
 10
15.905116518097
 20
-14.043312431907
 10
15.878463519161
 20
-14.043312431907
 10
15.798504522353
 20
-13.963353435098
 10
15.798504522353
 20
-13.936700436162
 10
15.771851523417
 20
-13.910047437226
 10
15.771851523417
 20
-13.803435441482
 10
15.798504522353
 20
-13.776782442545
 10
15.798504522353
 20
-13.750129443609
 10
15.825157521289
 20
-13.723476444673
 10
15.825157521289
 20
-13.696823445737
 10
15.851810520225
 20
-13.696823445737
 10
15.878463519161
 20
-13.670170446801
 10
15.905116518097
 20
-13.670170446801
 10
15.905116518097
 20
-13.643517447865
 10
15.958422515969
 20
-13.643517447865
 10
15.958422515969
 20
-13.616864448929
 10
16.065034511714
 20
-13.616864448929
 10
16.09168751065
 20
-13.590211449993
 10
16.518135493628
 20
-13.590211449993
 10
16.544788492564
 20
-13.616864448929
 10
16.678053487244
 20
-13.616864448929
 10
16.70470648618
 20
-13.643517447865
 10
16.784665482989
 20
-13.643517447865
 10
16.784665482989
 20
-13.670170446801
 10
16.864624479797
 20
-13.670170446801
 10
16.864624479797
 20
-13.696823445737
 10
16.891277478733
 20
-13.696823445737
 10
16.837971480861
 20
-13.910047437226
 10
16.811318481925
 20
-13.910047437226
 10
16.784665482989
 20
-13.88339443829
 10
16.731359485116
 20
-13.88339443829
 10
16.731359485116
 20
-13.856741439354
 10
16.651400488308
 20
-13.856741439354
 10
16.651400488308
 20
-13.830088440418
 10
16.5714414915
 20
-13.830088440418
 10
16.544788492564
 20
-13.803435441482
 10
16.438176496819
 20
-13.803435441482
 10
16.411523497883
 20
-13.776782442545
 10
16.251605504267
 20
-13.776782442545
 10
16.22495250533
 20
-13.750129443609
 10
16.09168751065
 20
-13.750129443609
 10
16.065034511714
 20
-13.776782442545
 10
16.065034511714
 20
-13.803435441482
 10
16.038381512778
 20
-13.803435441482
 10
16.038381512778
 20
-13.856741439354
 10
16.065034511714
 20
-13.856741439354
 10
16.065034511714
 20
-13.88339443829
 10
16.118340509586
 20
-13.88339443829
 10
16.118340509586
 20
-13.910047437226
 10
16.411523497883
 20
-13.910047437226
 10
16.438176496819
 20
-13.936700436162
 10
16.518135493628
 20
-13.936700436162
 10
16.518135493628
 20
-13.963353435098
 10
16.624747489372
 20
-13.963353435098
 10
16.651400488308
 20
-13.990006434034
 10
16.731359485116
 20
-13.990006434034
 10
16.731359485116
 20
-14.01665943297
 10
16.784665482989
 20
-14.01665943297
 10
16.811318481925
 20
-14.043312431907
 10
16.837971480861
 20
-14.043312431907
 10
16.891277478733
 20
-14.096618429779
 10
16.917930477669
 20
-14.096618429779
 10
16.917930477669
 20
-14.149924427651
 10
16.944583476605
 20
-14.149924427651
 10
16.944583476605
 20
-14.256536423396
 10
16.944583476605
 20
-14.256536423396
1001
ACAD
1000
TCW40_DEV_WIDTH
1002
{
1040
-3.0
1002
}
  0
LWPOLYLINE
  5
4C6
100
AcDbEntity
  8
0
 62
           1
100
AcDbPolyline
 90
       27
 70
           0
 10
21.635511289361
 20
-13.750129443609
 10
21.582205291489
 20
-13.750129443609
 10
21.555552292553
 20
-13.776782442545
 10
21.50224629468
 20
-13.776782442545
 10
21.3689813
 20
-13.910047437226
 10
21.3689813
 20
-13.963353435098
 10
21.342328301064
 20
-13.990006434034
 10
21.342328301064
 20
-14.096618429779
 10
21.3689813
 20
-14.123271428715
 10
21.3689813
 20
-14.176577426587
 10
21.50224629468
 20
-14.309842421268
 10
21.555552292553
 20
-14.309842421268
 10
21.582205291489
 20
-14.336495420204
 10
21.688817287233
 20
-14.336495420204
 10
21.715470286169
 20
-14.309842421268
 10
21.768776284042
 20
-14.309842421268
 10
21.902041278722
 20
-14.176577426587
 10
21.902041278722
 20
-14.123271428715
 10
21.928694277658
 20
-14.096618429779
 10
21.928694277658
 20
-13.990006434034
 10
21.902041278722
 20
-13.963353435098
 10
21.902041278722
 20
-13.910047437226
 10
21.768776284042
 20
-13.776782442545
 10
21.715470286169
 20
-13.776782442545
 10
21.688817287233
 20
-13.750129443609
 10
21.635511289361
 20
-13.750129443609
 10
21.635511289361
 20
-13.750129443609
1001
ACAD
1000
TCW40_DEV_WIDTH
1002
{
1040
-3.0
1002
}
  0
LWPOLYLINE
  5
4C7
100
AcDbEntity
  8
0
 62
           1
100
AcDbPolyline
 90
       15
 70
           0
 10
18.543763412772
 20
-14.469760414884
 10
18.650375408517
 20
-13.590211449993
 10
18.943558396814
 20
-13.590211449993
 10
19.156782388303
 20
-14.096618429779
 10
19.370006379792
 20
-13.590211449993
 10
19.663189368089
 20
-13.590211449993
 10
19.769801363833
 20
-14.469760414884
 10
19.503271374472
 20
-14.469760414884
 10
19.476618375536
 20
-14.096618429779
 10
19.290047382983
 20
-14.469760414884
 10
19.023517393622
 20
-14.469760414884
 10
18.863599400006
 20
-14.096618429779
 10
18.810293402133
 20
-14.469760414884
 10
18.543763412772
 20
-14.469760414884
 10
18.543763412772
 20
-14.469760414884
1001
ACAD
1000
TCW40_DEV_WIDTH
1002
{
1040
-3.0
1002
}
  0
LWPOLYLINE
  5
4C8
100
AcDbEntity
  8
0
 62
           1
100
AcDbPolyline
 90
        5
 70
           0
 10
18.170621427667
 20
-13.590211449993
 10
18.463804415964
 20
-13.590211449993
 10
18.463804415964
 20
-14.49641341382
 10
18.170621427667
 20
-14.49641341382
 10
18.170621427667
 20
-13.590211449993
1001
ACAD
1000
TCW40_DEV_WIDTH
1002
{
1040
-3.0
1002
}
  0
LWPOLYLINE
  5
4C9
100
AcDbEntity
  8
0
 62
           1
100
AcDbPolyline
 90
       14
 70
           0
 10
17.024542473414
 20
-14.469760414884
 10
17.024542473414
 20
-13.590211449993
 10
17.291072462775
 20
-13.590211449993
 10
17.291072462775
 20
-13.936700436162
 10
17.744173444689
 20
-13.936700436162
 10
17.744173444689
 20
-13.590211449993
 10
18.037356432986
 20
-13.590211449993
 10
18.037356432986
 20
-14.469760414884
 10
17.744173444689
 20
-14.469760414884
 10
17.744173444689
 20
-14.149924427651
 10
17.291072462775
 20
-14.149924427651
 10
17.291072462775
 20
-14.469760414884
 10
17.024542473414
 20
-14.469760414884
 10
17.024542473414
 20
-14.469760414884
1001
ACAD
1000
TCW40_DEV_WIDTH
1002
{
1040
-3.0
1002
}
  0
LINE
  5
4CA
100
AcDbEntity
  8
0
 62
           1
100
AcDbLine
 10
21.635511289361
 20
-13.590211449993
 30
0.0
 11
21.528899293617
 21
-13.590211449993
 31
0.0
1001
ACAD
1000
TCW40_DEV_WIDTH
1002
{
1040
-3.0
1002
}
  0
LINE
  5
4CB
100
AcDbEntity
  8
0
 62
           1
100
AcDbLine
 10
21.528899293617
 20
-13.590211449993
 30
0.0
 11
21.50224629468
 21
-13.616864448929
 31
0.0
1001
ACAD
1000
TCW40_DEV_WIDTH
1002
{
1040
-3.0
1002
}
  0
LINE
  5
4CC
100
AcDbEntity
  8
0
 62
           1
100
AcDbLine
 10
21.50224629468
 20
-13.616864448929
 30
0.0
 11
21.448940296808
 21
-13.616864448929
 31
0.0
1001
ACAD
1000
TCW40_DEV_WIDTH
1002
{
1040
-3.0
1002
}
  0
LINE
  5
4CD
100
AcDbEntity
  8
0
 62
           1
100
AcDbLine
 10
21.448940296808
 20
-13.616864448929
 30
0.0
 11
21.422287297872
 21
-13.643517447865
 31
0.0
1001
ACAD
1000
TCW40_DEV_WIDTH
1002
{
1040
-3.0
1002
}
  0
LINE
  5
4CE
100
AcDbEntity
  8
0
 62
           1
100
AcDbLine
 10
21.422287297872
 20
-13.643517447865
 30
0.0
 11
21.395634298936
 21
-13.643517447865
 31
0.0
1001
ACAD
1000
TCW40_DEV_WIDTH
1002
{
1040
-3.0
1002
}
  0
LINE
  5
4CF
100
AcDbEntity
  8
0
 62
           1
100
AcDbLine
 10
21.395634298936
 20
-13.643517447865
 30
0.0
 11
21.3689813
 21
-13.670170446801
 31
0.0
1001
ACAD
1000
TCW40_DEV_WIDTH
1002
{
1040
-3.0
1002
}
  0
LINE
  5
4D0
100
AcDbEntity
  8
0
 62
           1
100
AcDbLine
 10
21.3689813
 20
-13.670170446801
 30
0.0
 11
21.342328301064
 21
-13.670170446801
 31
0.0
1001
ACAD
1000
TCW40_DEV_WIDTH
1002
{
1040
-3.0
1002
}
  0
LINE
  5
4D1
100
AcDbEntity
  8
0
 62
           1
100
AcDbLine
 10
21.342328301064
 20
-13.670170446801
 30
0.0
 11
21.315675302128
 21
-13.696823445737
 31
0.0
1001
ACAD
1000
TCW40_DEV_WIDTH
1002
{
1040
-3.0
1002
}
  0
LINE
  5
4D2
100
AcDbEntity
  8
0
 62
           1
100
AcDbLine
 10
21.315675302128
 20
-13.696823445737
 30
0.0
 11
21.289022303192
 21
-13.696823445737
 31
0.0
1001
ACAD
1000
TCW40_DEV_WIDTH
1002
{
1040
-3.0
1002
}
  0
LINE
  5
4D3
100
AcDbEntity
  8
0
 62
           1
100
AcDbLine
 10
21.289022303192
 20
-13.696823445737
 30
0.0
 11
21.182410307447
 21
-13.803435441482
 31
0.0
1001
ACAD
1000
TCW40_DEV_WIDTH
1002
{
1040
-3.0
1002
}
  0
LINE
  5
4D4
100
AcDbEntity
  8
0
 62
           1
100
AcDbLine
 10
21.182410307447
 20
-13.803435441482
 30
0.0
 11
21.182410307447
 21
-13.830088440418
 31
0.0
1001
ACAD
1000
TCW40_DEV_WIDTH
1002
{
1040
-3.0
1002
}
  0
LINE
  5
4D5
100
AcDbEntity
  8
0
 62
           1
100
AcDbLine
 10
21.182410307447
 20
-13.830088440418
 30
0.0
 11
21.155757308511
 21
-13.856741439354
 31
0.0
1001
ACAD
1000
TCW40_DEV_WIDTH
1002
{
1040
-3.0
1002
}
  0
LINE
  5
4D6
100
AcDbEntity
  8
0
 62
           1
100
AcDbLine
 10
21.155757308511
 20
-13.856741439354
 30
0.0
 11
21.155757308511
 21
-13.88339443829
 31
0.0
1001
ACAD
1000
TCW40_DEV_WIDTH
1002
{
1040
-3.0
1002
}
  0
LINE
  5
4D7
100
AcDbEntity
  8
0
 62
           1
100
AcDbLine
 10
21.155757308511
 20
-13.88339443829
 30
0.0
 11
21.129104309575
 21
-13.910047437226
 31
0.0
1001
ACAD
1000
TCW40_DEV_WIDTH
1002
{
1040
-3.0
1002
}
  0
LINE
  5
4D8
100
AcDbEntity
  8
0
 62
           1
100
AcDbLine
 10
21.129104309575
 20
-13.910047437226
 30
0.0
 11
21.129104309575
 21
-13.936700436162
 31
0.0
1001
ACAD
1000
TCW40_DEV_WIDTH
1002
{
1040
-3.0
1002
}
  0
LINE
  5
4D9
100
AcDbEntity
  8
0
 62
           1
100
AcDbLine
 10
21.129104309575
 20
-13.936700436162
 30
0.0
 11
21.102451310639
 21
-13.963353435098
 31
0.0
1001
ACAD
1000
TCW40_DEV_WIDTH
1002
{
1040
-3.0
1002
}
  0
LINE
  5
4DA
100
AcDbEntity
  8
0
 62
           1
100
AcDbLine
 10
21.102451310639
 20
-13.963353435098
 30
0.0
 11
21.102451310639
 21
-14.123271428715
 31
0.0
1001
ACAD
1000
TCW40_DEV_WIDTH
1002
{
1040
-3.0
1002
}
  0
LINE
  5
4DB
100
AcDbEntity
  8
0
 62
           1
100
AcDbLine
 10
21.102451310639
 20
-14.123271428715
 30
0.0
 11
21.129104309575
 21
-14.149924427651
 31
0.0
1001
ACAD
1000
TCW40_DEV_WIDTH
1002
{
1040
-3.0
1002
}
  0
LINE
  5
4DC
100
AcDbEntity
  8
0
 62
           1
100
AcDbLine
 10
21.129104309575
 20
-14.149924427651
 30
0.0
 11
21.129104309575
 21
-14.176577426587
 31
0.0
1001
ACAD
1000
TCW40_DEV_WIDTH
1002
{
1040
-3.0
1002
}
  0
LINE
  5
4DD
100
AcDbEntity
  8
0
 62
           1
100
AcDbLine
 10
21.129104309575
 20
-14.176577426587
 30
0.0
 11
21.155757308511
 21
-14.203230425523
 31
0.0
1001
ACAD
1000
TCW40_DEV_WIDTH
1002
{
1040
-3.0
1002
}
  0
LINE
  5
4DE
100
AcDbEntity
  8
0
 62
           1
100
AcDbLine
 10
21.155757308511
 20
-14.203230425523
 30
0.0
 11
21.155757308511
 21
-14.229883424459
 31
0.0
1001
ACAD
1000
TCW40_DEV_WIDTH
1002
{
1040
-3.0
1002
}
  0
LINE
  5
4DF
100
AcDbEntity
  8
0
 62
           1
100
AcDbLine
 10
21.155757308511
 20
-14.229883424459
 30
0.0
 11
21.182410307447
 21
-14.256536423396
 31
0.0
1001
ACAD
1000
TCW40_DEV_WIDTH
1002
{
1040
-3.0
1002
}
  0
LINE
  5
4E0
100
AcDbEntity
  8
0
 62
           1
100
AcDbLine
 10
21.182410307447
 20
-14.256536423396
 30
0.0
 11
21.182410307447
 21
-14.283189422332
 31
0.0
1001
ACAD
1000
TCW40_DEV_WIDTH
1002
{
1040
-3.0
1002
}
  0
LINE
  5
4E1
100
AcDbEntity
  8
0
 62
           1
100
AcDbLine
 10
21.182410307447
 20
-14.283189422332
 30
0.0
 11
21.289022303192
 21
-14.389801418076
 31
0.0
1001
ACAD
1000
TCW40_DEV_WIDTH
1002
{
1040
-3.0
1002
}
  0
LINE
  5
4E2
100
AcDbEntity
  8
0
 62
           1
100
AcDbLine
 10
21.289022303192
 20
-14.389801418076
 30
0.0
 11
21.315675302128
 21
-14.389801418076
 31
0.0
1001
ACAD
1000
TCW40_DEV_WIDTH
1002
{
1040
-3.0
1002
}
  0
LINE
  5
4E3
100
AcDbEntity
  8
0
 62
           1
100
AcDbLine
 10
21.315675302128
 20
-14.389801418076
 30
0.0
 11
21.342328301064
 21
-14.416454417012
 31
0.0
1001
ACAD
1000
TCW40_DEV_WIDTH
1002
{
1040
-3.0
1002
}
  0
LINE
  5
4E4
100
AcDbEntity
  8
0
 62
           1
100
AcDbLine
 10
21.342328301064
 20
-14.416454417012
 30
0.0
 11
21.3689813
 21
-14.416454417012
 31
0.0
1001
ACAD
1000
TCW40_DEV_WIDTH
1002
{
1040
-3.0
1002
}
  0
LINE
  5
4E5
100
AcDbEntity
  8
0
 62
           1
100
AcDbLine
 10
21.3689813
 20
-14.416454417012
 30
0.0
 11
21.395634298936
 21
-14.443107415948
 31
0.0
1001
ACAD
1000
TCW40_DEV_WIDTH
1002
{
1040
-3.0
1002
}
  0
LINE
  5
4E6
100
AcDbEntity
  8
0
 62
           1
100
AcDbLine
 10
21.395634298936
 20
-14.443107415948
 30
0.0
 11
21.422287297872
 21
-14.443107415948
 31
0.0
1001
ACAD
1000
TCW40_DEV_WIDTH
1002
{
1040
-3.0
1002
}
  0
LINE
  5
4E7
100
AcDbEntity
  8
0
 62
           1
100
AcDbLine
 10
21.422287297872
 20
-14.443107415948
 30
0.0
 11
21.448940296808
 21
-14.469760414884
 31
0.0
1001
ACAD
1000
TCW40_DEV_WIDTH
1002
{
1040
-3.0
1002
}
  0
LINE
  5
4E8
100
AcDbEntity
  8
0
 62
           1
100
AcDbLine
 10
21.448940296808
 20
-14.469760414884
 30
0.0
 11
21.50224629468
 21
-14.469760414884
 31
0.0
1001
ACAD
1000
TCW40_DEV_WIDTH
1002
{
1040
-3.0
1002
}
  0
LINE
  5
4E9
100
AcDbEntity
  8
0
 62
           1
100
AcDbLine
 10
21.50224629468
 20
-14.469760414884
 30
0.0
 11
21.528899293617
 21
-14.49641341382
 31
0.0
1001
ACAD
1000
TCW40_DEV_WIDTH
1002
{
1040
-3.0
1002
}
  0
LINE
  5
4EA
100
AcDbEntity
  8
0
 62
           1
100
AcDbLine
 10
21.528899293617
 20
-14.49641341382
 30
0.0
 11
21.768776284042
 21
-14.49641341382
 31
0.0
1001
ACAD
1000
TCW40_DEV_WIDTH
1002
{
1040
-3.0
1002
}
  0
LINE
  5
4EB
100
AcDbEntity
  8
0
 62
           1
100
AcDbLine
 10
21.768776284042
 20
-14.49641341382
 30
0.0
 11
21.795429282978
 21
-14.469760414884
 31
0.0
1001
ACAD
1000
TCW40_DEV_WIDTH
1002
{
1040
-3.0
1002
}
  0
LINE
  5
4EC
100
AcDbEntity
  8
0
 62
           1
100
AcDbLine
 10
21.795429282978
 20
-14.469760414884
 30
0.0
 11
21.84873528085
 21
-14.469760414884
 31
0.0
1001
ACAD
1000
TCW40_DEV_WIDTH
1002
{
1040
-3.0
1002
}
  0
LINE
  5
4ED
100
AcDbEntity
  8
0
 62
           1
100
AcDbLine
 10
21.84873528085
 20
-14.469760414884
 30
0.0
 11
21.875388279786
 21
-14.443107415948
 31
0.0
1001
ACAD
1000
TCW40_DEV_WIDTH
1002
{
1040
-3.0
1002
}
  0
LINE
  5
4EE
100
AcDbEntity
  8
0
 62
           1
100
AcDbLine
 10
21.875388279786
 20
-14.443107415948
 30
0.0
 11
21.902041278722
 21
-14.443107415948
 31
0.0
1001
ACAD
1000
TCW40_DEV_WIDTH
1002
{
1040
-3.0
1002
}
  0
LINE
  5
4EF
100
AcDbEntity
  8
0
 62
           1
100
AcDbLine
 10
21.902041278722
 20
-14.443107415948
 30
0.0
 11
21.928694277658
 21
-14.416454417012
 31
0.0
1001
ACAD
1000
TCW40_DEV_WIDTH
1002
{
1040
-3.0
1002
}
  0
LINE
  5
4F0
100
AcDbEntity
  8
0
 62
           1
100
AcDbLine
 10
21.928694277658
 20
-14.416454417012
 30
0.0
 11
21.955347276595
 21
-14.416454417012
 31
0.0
1001
ACAD
1000
TCW40_DEV_WIDTH
1002
{
1040
-3.0
1002
}
  0
LINE
  5
4F1
100
AcDbEntity
  8
0
 62
           1
100
AcDbLine
 10
21.955347276595
 20
-14.416454417012
 30
0.0
 11
21.982000275531
 21
-14.389801418076
 31
0.0
1001
ACAD
1000
TCW40_DEV_WIDTH
1002
{
1040
-3.0
1002
}
  0
LINE
  5
4F2
100
AcDbEntity
  8
0
 62
           1
100
AcDbLine
 10
21.982000275531
 20
-14.389801418076
 30
0.0
 11
22.008653274467
 21
-14.389801418076
 31
0.0
1001
ACAD
1000
TCW40_DEV_WIDTH
1002
{
1040
-3.0
1002
}
  0
LINE
  5
4F3
100
AcDbEntity
  8
0
 62
           1
100
AcDbLine
 10
22.008653274467
 20
-14.389801418076
 30
0.0
 11
22.115265270211
 21
-14.283189422332
 31
0.0
1001
ACAD
1000
TCW40_DEV_WIDTH
1002
{
1040
-3.0
1002
}
  0
LINE
  5
4F4
100
AcDbEntity
  8
0
 62
           1
100
AcDbLine
 10
22.115265270211
 20
-14.283189422332
 30
0.0
 11
22.115265270211
 21
-14.256536423396
 31
0.0
1001
ACAD
1000
TCW40_DEV_WIDTH
1002
{
1040
-3.0
1002
}
  0
LINE
  5
4F5
100
AcDbEntity
  8
0
 62
           1
100
AcDbLine
 10
22.115265270211
 20
-14.256536423396
 30
0.0
 11
22.141918269147
 21
-14.229883424459
 31
0.0
1001
ACAD
1000
TCW40_DEV_WIDTH
1002
{
1040
-3.0
1002
}
  0
LINE
  5
4F6
100
AcDbEntity
  8
0
 62
           1
100
AcDbLine
 10
22.141918269147
 20
-14.229883424459
 30
0.0
 11
22.141918269147
 21
-14.203230425523
 31
0.0
1001
ACAD
1000
TCW40_DEV_WIDTH
1002
{
1040
-3.0
1002
}
  0
LINE
  5
4F7
100
AcDbEntity
  8
0
 62
           1
100
AcDbLine
 10
22.141918269147
 20
-14.203230425523
 30
0.0
 11
22.168571268083
 21
-14.176577426587
 31
0.0
1001
ACAD
1000
TCW40_DEV_WIDTH
1002
{
1040
-3.0
1002
}
  0
LINE
  5
4F8
100
AcDbEntity
  8
0
 62
           1
100
AcDbLine
 10
22.168571268083
 20
-14.176577426587
 30
0.0
 11
22.168571268083
 21
-14.149924427651
 31
0.0
1001
ACAD
1000
TCW40_DEV_WIDTH
1002
{
1040
-3.0
1002
}
  0
LINE
  5
4F9
100
AcDbEntity
  8
0
 62
           1
100
AcDbLine
 10
22.168571268083
 20
-14.149924427651
 30
0.0
 11
22.19522426702
 21
-14.123271428715
 31
0.0
1001
ACAD
1000
TCW40_DEV_WIDTH
1002
{
1040
-3.0
1002
}
  0
LINE
  5
4FA
100
AcDbEntity
  8
0
 62
           1
100
AcDbLine
 10
22.19522426702
 20
-14.123271428715
 30
0.0
 11
22.19522426702
 21
-13.963353435098
 31
0.0
1001
ACAD
1000
TCW40_DEV_WIDTH
1002
{
1040
-3.0
1002
}
  0
LINE
  5
4FB
100
AcDbEntity
  8
0
 62
           1
100
AcDbLine
 10
22.19522426702
 20
-13.963353435098
 30
0.0
 11
22.168571268083
 21
-13.936700436162
 31
0.0
1001
ACAD
1000
TCW40_DEV_WIDTH
1002
{
1040
-3.0
1002
}
  0
LINE
  5
4FC
100
AcDbEntity
  8
0
 62
           1
100
AcDbLine
 10
22.168571268083
 20
-13.936700436162
 30
0.0
 11
22.168571268083
 21
-13.910047437226
 31
0.0
1001
ACAD
1000
TCW40_DEV_WIDTH
1002
{
1040
-3.0
1002
}
  0
LINE
  5
4FD
100
AcDbEntity
  8
0
 62
           1
100
AcDbLine
 10
22.168571268083
 20
-13.910047437226
 30
0.0
 11
22.141918269147
 21
-13.88339443829
 31
0.0
1001
ACAD
1000
TCW40_DEV_WIDTH
1002
{
1040
-3.0
1002
}
  0
LINE
  5
4FE
100
AcDbEntity
  8
0
 62
           1
100
AcDbLine
 10
22.141918269147
 20
-13.88339443829
 30
0.0
 11
22.141918269147
 21
-13.856741439354
 31
0.0
1001
ACAD
1000
TCW40_DEV_WIDTH
1002
{
1040
-3.0
1002
}
  0
LINE
  5
4FF
100
AcDbEntity
  8
0
 62
           1
100
AcDbLine
 10
22.141918269147
 20
-13.856741439354
 30
0.0
 11
22.115265270211
 21
-13.830088440418
 31
0.0
1001
ACAD
1000
TCW40_DEV_WIDTH
1002
{
1040
-3.0
1002
}
  0
LINE
  5
500
100
AcDbEntity
  8
0
 62
           1
100
AcDbLine
 10
22.115265270211
 20
-13.830088440418
 30
0.0
 11
22.115265270211
 21
-13.803435441482
 31
0.0
1001
ACAD
1000
TCW40_DEV_WIDTH
1002
{
1040
-3.0
1002
}
  0
LINE
  5
501
100
AcDbEntity
  8
0
 62
           1
100
AcDbLine
 10
22.115265270211
 20
-13.803435441482
 30
0.0
 11
22.008653274467
 21
-13.696823445737
 31
0.0
1001
ACAD
1000
TCW40_DEV_WIDTH
1002
{
1040
-3.0
1002
}
  0
LINE
  5
502
100
AcDbEntity
  8
0
 62
           1
100
AcDbLine
 10
22.008653274467
 20
-13.696823445737
 30
0.0
 11
21.982000275531
 21
-13.696823445737
 31
0.0
1001
ACAD
1000
TCW40_DEV_WIDTH
1002
{
1040
-3.0
1002
}
  0
LINE
  5
503
100
AcDbEntity
  8
0
 62
           1
100
AcDbLine
 10
21.982000275531
 20
-13.696823445737
 30
0.0
 11
21.955347276595
 21
-13.670170446801
 31
0.0
1001
ACAD
1000
TCW40_DEV_WIDTH
1002
{
1040
-3.0
1002
}
  0
LINE
  5
504
100
AcDbEntity
  8
0
 62
           1
100
AcDbLine
 10
21.955347276595
 20
-13.670170446801
 30
0.0
 11
21.928694277658
 21
-13.670170446801
 31
0.0
1001
ACAD
1000
TCW40_DEV_WIDTH
1002
{
1040
-3.0
1002
}
  0
LINE
  5
505
100
AcDbEntity
  8
0
 62
           1
100
AcDbLine
 10
21.928694277658
 20
-13.670170446801
 30
0.0
 11
21.902041278722
 21
-13.643517447865
 31
0.0
1001
ACAD
1000
TCW40_DEV_WIDTH
1002
{
1040
-3.0
1002
}
  0
LINE
  5
506
100
AcDbEntity
  8
0
 62
           1
100
AcDbLine
 10
21.902041278722
 20
-13.643517447865
 30
0.0
 11
21.875388279786
 21
-13.643517447865
 31
0.0
1001
ACAD
1000
TCW40_DEV_WIDTH
1002
{
1040
-3.0
1002
}
  0
LINE
  5
507
100
AcDbEntity
  8
0
 62
           1
100
AcDbLine
 10
21.875388279786
 20
-13.643517447865
 30
0.0
 11
21.84873528085
 21
-13.616864448929
 31
0.0
1001
ACAD
1000
TCW40_DEV_WIDTH
1002
{
1040
-3.0
1002
}
  0
LINE
  5
508
100
AcDbEntity
  8
0
 62
           1
100
AcDbLine
 10
21.84873528085
 20
-13.616864448929
 30
0.0
 11
21.795429282978
 21
-13.616864448929
 31
0.0
1001
ACAD
1000
TCW40_DEV_WIDTH
1002
{
1040
-3.0
1002
}
  0
LINE
  5
509
100
AcDbEntity
  8
0
 62
           1
100
AcDbLine
 10
21.795429282978
 20
-13.616864448929
 30
0.0
 11
21.768776284042
 21
-13.590211449993
 31
0.0
1001
ACAD
1000
TCW40_DEV_WIDTH
1002
{
1040
-3.0
1002
}
  0
LINE
  5
50A
100
AcDbEntity
  8
0
 62
           1
100
AcDbLine
 10
21.768776284042
 20
-13.590211449993
 30
0.0
 11
21.635511289361
 21
-13.590211449993
 31
0.0
1001
ACAD
1000
TCW40_DEV_WIDTH
1002
{
1040
-3.0
1002
}
  0
LINE
  5
50B
100
AcDbEntity
  8
0
 62
           1
100
AcDbLine
 10
21.635511289361
 20
-13.590211449993
 30
0.0
 11
21.635511289361
 21
-13.590211449993
 31
0.0
1001
ACAD
1000
TCW40_DEV_WIDTH
1002
{
1040
-3.0
1002
}
  0
INSERT
  5
50C
100
AcDbEntity
  8
0
100
AcDbBlockReference
  2
Block_0
 10
-24.656965941563
 20
-21.350047273987
 30
0.0
 41
4.370919332406
 42
4.370919332406
 43
4.229524083164
  0
INSERT
  5
50D
100
AcDbEntity
  8
0
100
AcDbBlockReference
  2
Block_3
 10
-24.656965941563
 20
-21.350047273987
 30
0.0
 41
4.370919332406
 42
4.370919332406
 43
4.229524083164
  0
TEXT
  5
50E
100
AcDbEntity
  8
0
  6
Continuous
100
AcDbText
 10
13.583116604268
 20
-15.827115273597
 30
0.0
 40
0.642341575839
  1
Itasca, IL 60143, USA Tel: (630) 924-7138
  7
_TCW_TXTSTY_3
100
AcDbText
1001
TCAD
1000
TCW40_TEXT
1002
{
1000
Times New Roman
1070
           0
1070
        1025
1002
}
  0
TEXT
  5
50F
100
AcDbEntity
  8
0
  6
Continuous
100
AcDbText
 10
-18.747642584887
 20
-15.094885335853
 30
0.0
 40
0.62049565532
  1
FRAME SIZE
  7
_TCW_TXTSTY_3
100
AcDbText
1001
TCAD
1000
TCW40_TEXT
1002
{
1000
Times New Roman
1070
           0
1070
        1025
1002
}
  0
TEXT
  5
510
100
AcDbEntity
  8
0
  6
Continuous
100
AcDbText
 10
-18.778576243749
 20
-18.670633675963
 30
0.0
 40
0.620495584878
  1
MOUNTING
  7
_TCW_TXTSTY_3
100
AcDbText
1001
TCAD
1000
TCW40_TEXT
1002
{
1000
Times New Roman
1070
           0
1070
        1025
1002
}
  0
MTEXT
  5
511
100
AcDbEntity
  8
0
100
AcDbMText
 10
-18.783758784708
 20
-20.55649695764
 30
0.0
 40
0.62049565532
 41
4.586186015417
 71
           1
 72
           1
  1
REDUCTION\PRATIOS
  7
_TCW_TXTSTY_3
 73
           1
 44
1.0
1001
TCAD
1000
TCW_REFPOINT
1002
{
1010
-18.783758784708
1020
-20.55649695764
1030
0.0
1002
}
1000
TCW40_TEXT
1002
{
1000
Times New Roman
1070
           0
1070
         257
1002
}
  0
TEXT
  5
512
100
AcDbEntity
  8
0
  6
Continuous
100
AcDbText
 10
18.959939850818
 20
-22.370448068385
 30
0.0
 40
1.124128993865
  1
C5
100
AcDbText
1001
TCAD
1000
TCW40_TEXT
1002
{
1000
romand.shx
1070
           0
1070
        1025
1002
}
  0
LINE
  5
513
100
AcDbEntity
  8
0
100
AcDbLine
 10
-31.595117512616
 20
-16.568379399089
 30
0.0
 11
-20.035431997791
 21
-16.568379399089
 31
0.0
1001
ACAD
1000
TCW40_DEV_WIDTH
1002
{
1040
-3.0
1002
}
  0
LINE
  5
514
100
AcDbEntity
  8
0
100
AcDbLine
 10
-31.595117512616
 20
-12.88994082973
 30
0.0
 11
-31.595117512616
 21
-23.385764797195
 31
0.0
1001
ACAD
1000
TCW40_DEV_WIDTH
1002
{
1040
-3.0
1002
}
  0
LINE
  5
515
100
AcDbEntity
  8
0
100
AcDbLine
 10
-31.595117512616
 20
-14.449915609762
 30
0.0
 11
-20.035431997791
 21
-14.449915609762
 31
0.0
1001
ACAD
1000
TCW40_DEV_WIDTH
1002
{
1040
-3.0
1002
}
  0
LINE
  5
516
100
AcDbEntity
  8
0
100
AcDbLine
 10
-31.595117512616
 20
-18.17137584723
 30
0.0
 11
-20.035431997791
 21
-18.17137584723
 31
0.0
1001
ACAD
1000
TCW40_DEV_WIDTH
1002
{
1040
-3.0
1002
}
  0
LINE
  5
517
100
AcDbEntity
  8
0
100
AcDbLine
 10
-31.595117512616
 20
-20.486950984374
 30
0.0
 11
-20.035431997791
 21
-20.486950984374
 31
0.0
1001
ACAD
1000
TCW40_DEV_WIDTH
1002
{
1040
-3.0
1002
}
  0
LINE
  5
518
100
AcDbEntity
  8
0
100
AcDbLine
 10
-25.538024625816
 20
-14.449915609762
 30
0.0
 11
-25.538024625816
 21
-23.385764797195
 31
0.0
1001
ACAD
1000
TCW40_DEV_WIDTH
1002
{
1040
-3.0
1002
}
  0
TEXT
  5
519
100
AcDbEntity
  8
0
  6
Continuous
100
AcDbText
 10
-31.208658702744
 20
-15.018980947667
 30
0.0
 40
0.301955483176
  1
HANDWHEEL
  7
_TCW_TXTSTY_3
100
AcDbText
1001
TCAD
1000
TCW40_TEXT
1002
{
1000
Times New Roman
1070
           0
1070
        1025
1002
}
  0
TEXT
  5
51A
100
AcDbEntity
  8
0
  6
Continuous
100
AcDbText
 10
-31.208658702744
 20
-15.507861255407
 30
0.0
 40
0.301955483176
  1
REVOLUTIONS
  7
_TCW_TXTSTY_3
100
AcDbText
1001
TCAD
1000
TCW40_TEXT
1002
{
1000
Times New Roman
1070
           0
1070
        1025
1002
}
  0
TEXT
  5
51B
100
AcDbEntity
  8
0
  6
Continuous
100
AcDbText
 10
-25.178961930278
 20
-15.067772692547
 30
0.0
 40
0.301955483176
  1
WEIGHT
  7
_TCW_TXTSTY_3
100
AcDbText
1001
TCAD
1000
TCW40_TEXT
1002
{
1000
Times New Roman
1070
           0
1070
        1025
1002
}
  0
TEXT
  5
51C
100
AcDbEntity
  8
0
  6
Continuous
100
AcDbText
 10
-25.154550287999
 20
-17.556149682701
 30
0.0
 40
0.301955483176
  1
REDUCTION SECTION
  7
_TCW_TXTSTY_3
100
AcDbText
1001
TCAD
1000
TCW40_TEXT
1002
{
1000
Times New Roman
1070
           0
1070
        1025
1002
}
  0
TEXT
  5
51D
100
AcDbEntity
  8
0
  6
Continuous
100
AcDbText
 10
-30.98895331853
 20
-17.580545555141
 30
0.0
 40
0.301955483176
  1
VER.SPEED SECTION
  7
_TCW_TXTSTY_3
100
AcDbText
1001
TCAD
1000
TCW40_TEXT
1002
{
1000
Times New Roman
1070
           0
1070
        1025
1002
}
  0
TEXT
  5
51E
100
AcDbEntity
  8
0
  6
Continuous
100
AcDbText
 10
-25.224801346479
 20
-18.775942214486
 30
0.0
 40
0.301955483176
  1
RATIO
  7
_TCW_TXTSTY_3
100
AcDbText
1001
TCAD
1000
TCW40_TEXT
1002
{
1000
Times New Roman
1070
           0
1070
        1025
1002
}
  0
TEXT
  5
51F
100
AcDbEntity
  8
0
  6
Continuous
100
AcDbText
 10
-25.252197158966
 20
-21.069152406822
 30
0.0
 40
0.301955483176
  1
LUBRICATION
  7
_TCW_TXTSTY_3
100
AcDbText
1001
TCAD
1000
TCW40_TEXT
1002
{
1000
Times New Roman
1070
           0
1070
        1025
1002
}
  0
TEXT
  5
520
100
AcDbEntity
  8
0
  6
Continuous
100
AcDbText
 10
-31.233070646872
 20
-21.069152406822
 30
0.0
 40
0.301955483176
  1
LUBRICATION
  7
_TCW_TXTSTY_3
100
AcDbText
1001
TCAD
1000
TCW40_TEXT
1002
{
1000
Times New Roman
1070
           0
1070
        1025
1002
}
  0
TEXT
  5
521
100
AcDbEntity
  8
0
  6
Continuous
100
AcDbText
 10
-25.224801346479
 20
-22.801257896442
 30
0.0
 40
0.301955483176
  1
QTY.
  7
_TCW_TXTSTY_3
100
AcDbText
1001
TCAD
1000
TCW40_TEXT
1002
{
1000
Times New Roman
1070
           0
1070
        1025
1002
}
  0
TEXT
  5
522
100
AcDbEntity
  8
0
  6
Continuous
100
AcDbText
 10
-24.677226075636
 20
-16.147150847684
 30
0.0
 40
0.682006958992
  1
64 lbs.
100
AcDbText
1001
TCAD
1000
TCW40_TEXT
1002
{
1000
romand.shx
1070
           0
1070
        1025
1002
}
  0
TEXT
  5
523
100
AcDbEntity
  8
0
  6
Continuous
100
AcDbText
 10
-24.583353875428
 20
-19.930916342826
 30
0.0
 40
0.682006885159
  1
   : 1
100
AcDbText
1001
TCAD
1000
TCW40_TEXT
1002
{
1000
romand.shx
1070
           0
1070
        1025
1002
}
  0
TEXT
  5
524
100
AcDbEntity
  8
0
  6
Continuous
100
AcDbText
 10
-25.364248044461
 20
-21.917487110818
 30
0.0
 40
0.412180672922
  1
NLGI #0 grease
100
AcDbText
1001
TCAD
1000
TCW40_TEXT
1002
{
1000
romand.shx
1070
           0
1070
        1025
1002
}
  0
TEXT
  5
525
100
AcDbEntity
  8
0
  6
Continuous
100
AcDbText
 10
-23.532193311403
 20
-22.95645295445
 30
0.0
 40
0.524593550159
  1
14 oz
100
AcDbText
1001
TCAD
1000
TCW40_TEXT
1002
{
1000
romand.shx
1070
           0
1070
        1025
1002
}
  0
LINE
  5
526
100
AcDbEntity
  8
0
100
AcDbLine
 10
12.605415175664
 20
-12.834258793164
 30
0.0
 11
12.605415175664
 21
-23.278786324088
 31
0.0
1001
ACAD
1000
TCW40_DEV_WIDTH
1002
{
1040
-3.0
1002
}
  0
TEXT
  5
527
100
AcDbEntity
  8
0
  6
Continuous
100
AcDbText
 10
-11.460150743812
 20
-16.099456312919
 30
0.0
 40
0.682006885159
  1
301, 303, 305, 307
100
AcDbText
1001
TCAD
1000
TCW40_TEXT
1002
{
1000
romand.shx
1070
           0
1070
        1025
1002
}
  0
TEXT
  5
528
100
AcDbEntity
  8
0
  6
Continuous
100
AcDbText
 10
-11.371528890465
 20
-18.699203986568
 30
0.0
 40
0.682006885159
  1
BASE
100
AcDbText
1001
TCAD
1000
TCW40_TEXT
1002
{
1000
romand.shx
1070
           0
1070
        1025
1002
}
  0
LINE
  5
529
100
AcDbEntity
  8
0
100
AcDbLine
 10
2.503764223169
 20
-20.296695106466
 30
0.0
 11
12.605415175664
 21
-20.296695106466
 31
0.0
1001
ACAD
1000
TCW40_DEV_WIDTH
1002
{
1040
-3.0
1002
}
  0
LINE
  5
52A
100
AcDbEntity
  8
0
100
AcDbLine
 10
2.503764223169
 20
-18.71202912407
 30
0.0
 11
12.605415175664
 21
-18.71202912407
 31
0.0
1001
ACAD
1000
TCW40_DEV_WIDTH
1002
{
1040
-3.0
1002
}
  0
LINE
  5
52B
100
AcDbEntity
  8
0
100
AcDbLine
 10
2.503764223169
 20
-16.790494224661
 30
0.0
 11
12.605415175664
 21
-16.790494224661
 31
0.0
1001
ACAD
1000
TCW40_DEV_WIDTH
1002
{
1040
-3.0
1002
}
  0
LINE
  5
52C
100
AcDbEntity
  8
0
100
AcDbLine
 10
2.503764223169
 20
-14.868959325252
 30
0.0
 11
12.605415175664
 21
-14.868959325252
 31
0.0
1001
ACAD
1000
TCW40_DEV_WIDTH
1002
{
1040
-3.0
1002
}
  0
LINE
  5
52D
100
AcDbEntity
  8
0
100
AcDbLine
 10
7.008809848794
 20
-12.834258793164
 30
0.0
 11
7.008809848794
 21
-18.71202912407
 31
0.0
1001
ACAD
1000
TCW40_DEV_WIDTH
1002
{
1040
-3.0
1002
}
  0
TEXT
  5
52E
100
AcDbEntity
  8
0
  6
Continuous
100
AcDbText
 10
7.373593121103
 20
-13.452222672786
 30
0.0
 40
0.301955483176
  1
APPROVED BY
  7
_TCW_TXTSTY_3
100
AcDbText
1001
TCAD
1000
TCW40_TEXT
1002
{
1000
Times New Roman
1070
           0
1070
        1025
1002
}
  0
TEXT
  5
52F
100
AcDbEntity
  8
0
  6
Continuous
100
AcDbText
 10
7.373593121103
 20
-15.386782368083
 30
0.0
 40
0.301955483176
  1
CHECKED BY
  7
_TCW_TXTSTY_3
100
AcDbText
1001
TCAD
1000
TCW40_TEXT
1002
{
1000
Times New Roman
1070
           0
1070
        1025
1002
}
  0
TEXT
  5
530
100
AcDbEntity
  8
0
  6
Continuous
100
AcDbText
 10
7.373593121103
 20
-17.308317267492
 30
0.0
 40
0.301955483176
  1
DRAWN BY
  7
_TCW_TXTSTY_3
100
AcDbText
1001
TCAD
1000
TCW40_TEXT
1002
{
1000
Times New Roman
1070
           0
1070
        1025
1002
}
  0
TEXT
  5
531
100
AcDbEntity
  8
0
  6
Continuous
100
AcDbText
 10
4.066393559081
 20
-16.35862498966
 30
0.0
 40
0.682006885159
  1
1:1
100
AcDbText
1001
TCAD
1000
TCW40_TEXT
1002
{
1000
romand.shx
1070
           0
1070
        1025
1002
}
  0
TEXT
  5
532
100
AcDbEntity
  8
0
  6
Continuous
100
AcDbText
 10
4.931822841825
 20
-19.904352303684
 30
0.0
 40
0.682006885159
  1
11/03/05
100
AcDbText
1001
TCAD
1000
TCW40_TEXT
1002
{
1000
romand.shx
1070
           0
1070
        1025
1002
}
  0
TEXT
  5
533
100
AcDbEntity
  8
0
  6
Continuous
100
AcDbText
 10
3.732593593349
 20
-18.318049447356
 30
0.0
 40
0.682006885159
  1
INCH
100
AcDbText
1001
TCAD
1000
TCW40_TEXT
1002
{
1000
romand.shx
1070
           0
1070
        1025
1002
}
  0
LINE
  5
534
100
AcDbEntity
  8
0
100
AcDbLine
 10
2.503764223169
 20
-12.834258793164
 30
0.0
 11
2.503764223169
 21
-23.374311278927
 31
0.0
1001
ACAD
1000
TCW40_DEV_WIDTH
1002
{
1040
-3.0
1002
}
  0
LINE
  5
535
100
AcDbEntity
  8
0
100
AcDbLine
 10
2.348219532488
 20
-12.834258793164
 30
0.0
 11
2.348219532488
 21
-23.317035865874
 31
0.0
1001
ACAD
1000
TCW40_DEV_WIDTH
1002
{
1040
-3.0
1002
}
  0
TEXT
  5
536
100
AcDbEntity
  8
0
  6
Continuous
100
AcDbText
 10
13.137915671445
 20
-20.7985583915
 30
0.0
 40
0.301417236978
  1
DRAWING NO.
  7
_TCW_TXTSTY_3
100
AcDbText
1001
TCAD
1000
TCW40_TEXT
1002
{
1000
Times New Roman
1070
           0
1070
        1025
1002
}
  0
TEXT
  5
537
100
AcDbEntity
  8
0
  6
Continuous
100
AcDbText
 10
2.958417913355
 20
-15.407649372433
 30
0.0
 40
0.301955483176
  1
SCALE
  7
_TCW_TXTSTY_3
100
AcDbText
1001
TCAD
1000
TCW40_TEXT
1002
{
1000
Times New Roman
1070
           0
1070
        1025
1002
}
  0
TEXT
  5
538
100
AcDbEntity
  8
0
  6
Continuous
100
AcDbText
 10
2.968825779621
 20
-17.295902923024
 30
0.0
 40
0.301955483176
  1
UNITS
  7
_TCW_TXTSTY_3
100
AcDbText
1001
TCAD
1000
TCW40_TEXT
1002
{
1000
Times New Roman
1070
           0
1070
        1025
1002
}
  0
TEXT
  5
539
100
AcDbEntity
  8
0
  6
Continuous
100
AcDbText
 10
3.027925756035
 20
-19.252550782658
 30
0.0
 40
0.301955483176
  1
DATE
  7
_TCW_TXTSTY_3
100
AcDbText
1001
TCAD
1000
TCW40_TEXT
1002
{
1000
Times New Roman
1070
           0
1070
        1025
1002
}
  0
TEXT
  5
53A
100
AcDbEntity
  8
0
  6
Continuous
100
AcDbText
 10
-31.18837767714
 20
-18.767847669419
 30
0.0
 40
0.301955483176
  1
RATIO
  7
_TCW_TXTSTY_3
100
AcDbText
1001
TCAD
1000
TCW40_TEXT
1002
{
1000
Times New Roman
1070
           0
1070
        1025
1002
}
  0
TEXT
  5
53B
100
AcDbEntity
  8
0
  6
Continuous
100
AcDbText
 10
-31.167721205123
 20
-22.764402417564
 30
0.0
 40
0.301955483176
  1
QTY.
  7
_TCW_TXTSTY_3
100
AcDbText
1001
TCAD
1000
TCW40_TEXT
1002
{
1000
Times New Roman
1070
           0
1070
        1025
1002
}
  0
LINE
  5
53C
100
AcDbEntity
  8
0
100
AcDbLine
 10
-20.035431997791
 20
-12.834258793164
 30
0.0
 11
-20.035431997791
 21
-23.359101122024
 31
0.0
1001
ACAD
1000
TCW40_DEV_WIDTH
1002
{
1040
-3.0
1002
}
  0
MTEXT
  5
53D
100
AcDbEntity
  8
0
 62
           7
100
AcDbMText
 10
-11.338786397131
 20
-20.961453614325
 30
0.0
 40
0.68197166689
 41
10.685161590576
 71
           1
 72
           1
  1
11,17,29,35,47,59,71
 73
           1
 44
1.0
1001
TCAD
1000
TCW_REFPOINT
1002
{
1010
-11.338786397131
1020
-20.961453614325
1030
0.0
1002
}
1000
TCW40_TEXT
1002
{
1000
romand.shx
1070
           0
1070
         257
1002
}
  0
LINE
  5
53E
100
AcDbEntity
  8
0
100
AcDbLine
 10
-12.296791853086
 20
-14.832738594946
 30
0.0
 11
2.348219532488
 21
-14.832738594946
 31
0.0
1001
ACAD
1000
TCW40_DEV_WIDTH
1002
{
1040
-3.0
1002
}
  0
TEXT
  5
53F
100
AcDbEntity
  8
0
  6
Continuous
100
AcDbText
 10
-11.491947092593
 20
-14.223471734836
 30
0.0
 40
0.682006885159
  1
C01, C03, C05, C07
100
AcDbText
1001
TCAD
1000
TCW40_TEXT
1002
{
1000
romand.shx
1070
           0
1070
        1025
1002
}
  0
TEXT
  5
540
100
AcDbEntity
  8
PV-0
  6
Continuous
100
AcDbText
 10
17.006817808209
 20
-18.102297810165
 30
0.0
 40
1.07249996337
  1
Circulute 3000
  7
_TCW_TXTSTY_3
100
AcDbText
1001
TCAD
1000
TCW40_TEXT
1002
{
1000
Times New Roman
1070
           0
1070
        1025
1002
}
  0
DIMENSION
  5
54E
100
AcDbEntity
  8
1
  6
Continuous
 62
           7
100
AcDbDimension
  2
*D47
 10
-19.702768543627
 20
7.47033235873
 30
0.0
 11
-17.366950949654
 21
8.451478213749
 31
0.0
 70
         129
 71
           5
 72
           1
 41
1.0
 42
0.0
  1
%%c1.750^M^J%%c1.749
  3
STANDARD
100
AcDbAlignedDimension
 13
-23.920268753435
 23
11.734199486755
 33
0.0
 14
-19.702768543627
 24
11.734199486755
 34
0.0
1001
ACAD
1000
DSTYLE
1002
{
1070
         285
1070
           8
1070
          41
1040
0.44
1070
         176
1070
           7
1070
         177
1070
           7
1070
         178
1070
           7
1070
         179
1070
           3
1070
         271
1070
           3
1070
          43
1040
0.25
1070
          44
1040
0.2
1070
          42
1040
0.2
1070
         147
1040
0.1
1070
          77
1070
           1
1070
         272
1070
           2
1070
          73
1070
           0
1070
         172
1070
           1
1070
          74
1070
           0
1070
         140
1040
0.5
1002
}
  0
DIMENSION
  5
55C
100
AcDbEntity
  8
1
  6
Continuous
 62
           7
100
AcDbDimension
  2
*D48
 10
-5.737782652813
 20
7.62033235873
 30
0.0
 11
-3.116950949654
 21
8.601478213749
 31
0.0
 70
         128
 71
           5
 72
           1
 41
1.0
 42
0.0
  1
%%c1.000^M^J%%c0.999
  3
STANDARD
100
AcDbAlignedDimension
 13
-9.112782652812
 23
11.868836474669
 33
0.0
 14
-5.737782652813
 24
11.868836474669
 34
0.0
100
AcDbRotatedDimension
1001
ACAD
1000
DSTYLE
1002
{
1070
         285
1070
           8
1070
          41
1040
0.44
1070
         176
1070
           7
1070
         177
1070
           7
1070
         178
1070
           7
1070
         179
1070
           3
1070
         271
1070
           3
1070
          43
1040
0.25
1070
          44
1040
0.2
1070
          42
1040
0.2
1070
         147
1040
0.1
1070
          77
1070
           1
1070
         272
1070
           2
1070
          73
1070
           0
1070
         172
1070
           1
1070
          74
1070
           0
1070
         140
1040
0.5
1002
}
  0
ENDSEC
  0
SECTION
  2
OBJECTS
  0
DICTIONARY
  5
19
100
AcDbDictionary
280
           0
281
           1
  3
ACAD_GROUP
350
1A
  3
ACAD_MLINESTYLE
350
1B
  3
ACAD_LAYOUT
350
1E
  3
ACAD_PLOTSETTINGS
350
22
  3
ACAD_PLOTSTYLENAME
350
1F
  0
DICTIONARY
  5
1A
102
{ACAD_REACTORS
330
19
102
}
100
AcDbDictionary
280
           0
281
           1
  0
DICTIONARY
  5
1B
102
{ACAD_REACTORS
330
19
102
}
100
AcDbDictionary
280
           0
281
           1
  3
Standard
350
1C
  0
MLINESTYLE
  5
1C
100
AcDbMlineStyle
  2
STANDARD
 70
           0
  3

 62
         256
 51
90.0
 52
90.0
 71
           2
 49
0.5
 62
         256
  6
ByLayer
 49
-0.5
 62
         256
  6
ByLayer
  0
ACDBDICTIONARYWDFLT
  5
1F
102
{ACAD_REACTORS
330
19
102
}
100
AcDbDictionary
281
           1
  3
Normal
350
1D
100
AcDbDictionaryWithDefault
340
1D
  0
ACDBPLACEHOLDER
  5
1D
102
{ACAD_REACTORS
330
1F
102
}
  0
LAYOUT
  5
21
102
{ACAD_REACTORS
330
1E
102
}
100
AcDbPlotSettings
  1

  2

  4

  6

 40
0.0
 41
0.0
 42
0.0
 43
0.0
 44
0.0
 45
0.0
 46
0.0
 47
0.0
 48
0.0
 49
0.0
140
0.0
141
0.0
142
1.0
143
1.0
 70
           0
 72
           0
 73
           0
 74
           0
  7

 75
           0
147
1.0
148
0.0
149
0.0
100
AcDbLayout
  1
Layout1
 70
           0
 71
           0
 10
0.0
 20
0.0
 11
0.0
 21
0.0
 12
0.0
 22
0.0
 32
0.0
 14
0.0
 24
0.0
 34
0.0
 15
0.0
 25
0.0
 35
0.0
146
0.0
 13
0.0
 23
0.0
 33
0.0
 16
0.0
 26
0.0
 36
0.0
 17
0.0
 27
0.0
 37
0.0
 76
           0
330
B
331
0
345
0
346
0
  0
DICTIONARY
  5
1E
102
{ACAD_REACTORS
330
19
102
}
100
AcDbDictionary
280
           0
281
           1
  3
Model
350
55D
  3
_PAPER_SPACE
350
560
  0
DICTIONARY
  5
22
102
{ACAD_REACTORS
330
19
102
}
100
AcDbDictionary
280
           0
281
           1
  0
LAYOUT
  5
55D
100
AcDbPlotSettings
  1

  2

  4

  6

 40
0.0
 41
0.0
 42
0.0
 43
0.0
 44
0.0
 45
0.0
 46
0.0
 47
0.0
 48
0.0
 49
0.0
140
0.0
141
0.0
142
1.0
143
1.0
 70
           0
 72
           0
 73
           0
 74
           0
  7

 75
           0
147
1.0
148
0.0
149
0.0
100
AcDbLayout
  1
Model
 70
           0
 71
           0
 10
0.0
 20
0.0
 11
0.0
 21
0.0
 12
0.0
 22
0.0
 32
0.0
 14
0.0
 24
0.0
 34
0.0
 15
0.0
 25
0.0
 35
0.0
146
0.0
 13
0.0
 23
0.0
 33
0.0
 16
0.0
 26
0.0
 36
0.0
 17
0.0
 27
0.0
 37
0.0
 76
           0
330
A
331
0
345
0
346
0
  0
LAYOUT
  5
560
100
AcDbPlotSettings
  1

  2
none_device
  4

  6

 40
0.0
 41
0.0
 42
0.0
 43
0.0
 44
279.399912484328
 45
215.899932375062
 46
26.214881589837
 47
26.384243731587
 48
0.0
 49
0.0
140
0.0
141
0.0
142
1.0
143
1.136364
 70
           0
 72
           0
 73
           0
 74
           0
  7

 75
           0
147
1.0
148
0.0
149
0.0
100
AcDbLayout
  1
_PAPER_SPACE
 70
           1
 71
           1
 10
-26.214881589837
 20
-26.384243731587
 11
253.185030894491
 21
189.515688643475
 12
0.0
 22
0.0
 32
0.0
 14
0.0
 24
0.0
 34
0.0
 15
0.0
 25
0.0
 35
0.0
146
0.0
 13
0.0
 23
0.0
 33
0.0
 16
0.0
 26
0.0
 36
0.0
 17
0.0
 27
0.0
 37
0.0
 76
           0
330
B
331
55E
345
0
346
0
  0
ENDSEC
  0
EOF
