  0
SECTION
  2
HEADER
  9
$ACADVER
  1
AC1015
  9
$ACADMAINTVER
 70
           6
  9
$DWGCODEPAGE
  3
ANSI_1252
  9
$INSBASE
 10
0.0
 20
0.0
 30
0.0
  9
$EXTMIN
 10
-26.178066500264
 20
-19.333408082183
 30
-0.5
  9
$EXTMAX
 10
26.178066500264
 20
19.333408082183
 30
0.5
  9
$LIMMIN
 10
-26.178066500264
 20
-19.333408082183
  9
$LIMMAX
 10
26.178066500264
 20
19.333408082183
  9
$ORTHOMODE
 70
           0
  9
$REGENMODE
 70
           1
  9
$FILLMODE
 70
           1
  9
$QTEXTMODE
 70
           0
  9
$MIRRTEXT
 70
           1
  9
$LTSCALE
 40
1.0
  9
$ATTMODE
 70
           1
  9
$TEXTSIZE
 40
0.3229166567
  9
$TRACEWID
 40
0.05
  9
$TEXTSTYLE
  7
STANDARD
  9
$CLAYER
  8
0
  9
$CELTYPE
  6
Continuous
  9
$CECOLOR
 62
           7
  9
$CELTSCALE
 40
1.0
  9
$DISPSILH
 70
           0
  9
$DIMSCALE
 40
1.0
  9
$DIMASZ
 40
0.18
  9
$DIMEXO
 40
0.0625
  9
$DIMDLI
 40
0.38
  9
$DIMRND
 40
0.0000001
  9
$DIMDLE
 40
0.0
  9
$DIMEXE
 40
0.18
  9
$DIMTP
 40
0.0
  9
$DIMTM
 40
0.0
  9
$DIMTXT
 40
0.185806451613
  9
$DIMCEN
 40
0.09
  9
$DIMTSZ
 40
0.0
  9
$DIMTOL
 70
           0
  9
$DIMLIM
 70
           0
  9
$DIMTIH
 70
           1
  9
$DIMTOH
 70
           1
  9
$DIMSE1
 70
           0
  9
$DIMSE2
 70
           0
  9
$DIMTAD
 70
           0
  9
$DIMZIN
 70
           0
  9
$DIMBLK
  1

  9
$DIMASO
 70
           0
  9
$DIMSHO
 70
           1
  9
$DIMPOST
  1

  9
$DIMAPOST
  1

  9
$DIMALT
 70
           0
  9
$DIMALTD
 70
           2
  9
$DIMALTF
 40
25.4
  9
$DIMLFAC
 40
1.0
  9
$DIMTOFL
 70
           0
  9
$DIMTVP
 40
0.0
  9
$DIMTIX
 70
           0
  9
$DIMSOXD
 70
           0
  9
$DIMSAH
 70
           0
  9
$DIMBLK1
  1

  9
$DIMBLK2
  1

  9
$DIMSTYLE
  2
STANDARD
  9
$DIMCLRD
 70
           0
  9
$DIMCLRE
 70
           0
  9
$DIMCLRT
 70
           0
  9
$DIMTFAC
 40
1.0
  9
$DIMGAP
 40
0.09
  9
$DIMJUST
 70
           0
  9
$DIMSD1
 70
           0
  9
$DIMSD2
 70
           0
  9
$DIMTOLJ
 70
           1
  9
$DIMTZIN
 70
           0
  9
$DIMALTZ
 70
           8
  9
$DIMALTTZ
 70
           0
  9
$DIMUPT
 70
           0
  9
$DIMDEC
 70
           4
  9
$DIMTDEC
 70
           4
  9
$DIMALTU
 70
           2
  9
$DIMALTTD
 70
           2
  9
$DIMTXSTY
  7
STANDARD
  9
$DIMAUNIT
 70
           0
  9
$DIMADEC
 70
           4
  9
$DIMALTRND
 40
0.0
  9
$DIMAZIN
 70
           0
  9
$DIMDSEP
 70
           0
  9
$DIMATFIT
 70
           0
  9
$DIMFRAC
 70
           0
  9
$DIMLDRBLK
  1

  9
$DIMLUNIT
 70
           2
  9
$DIMLWD
 70
           0
  9
$DIMLWE
 70
           0
  9
$DIMTMOVE
 70
           0
  9
$LUNITS
 70
           2
  9
$LUPREC
 70
           4
  9
$SKETCHINC
 40
0.1
  9
$FILLETRAD
 40
0.5
  9
$AUNITS
 70
           0
  9
$AUPREC
 70
           0
  9
$MENU
  1
acad
  9
$ELEVATION
 40
0.0
  9
$PELEVATION
 40
0.0
  9
$THICKNESS
 40
0.0
  9
$LIMCHECK
 70
           0
  9
$CHAMFERA
 40
0.0
  9
$CHAMFERB
 40
0.0
  9
$CHAMFERC
 40
0.0
  9
$CHAMFERD
 40
0.0
  9
$SKPOLY
 70
           0
  9
$TDCREATE
 40
0.000000000
  9
$TDUCREATE
 40
0.000000000
  9
$TDUPDATE
 40
2451620.903704861
  9
$TDUUPDATE
 40
0.000000000
  9
$TDINDWG
 40
0.4995559838
  9
$TDUSRTIMER
 40
0.4995559838
  9
$USRTIMER
 70
           1
  9
$ANGBASE
 50
0.0
  9
$ANGDIR
 70
           1
  9
$PDMODE
 70
           0
  9
$PDSIZE
 40
0.0
  9
$PLINEWID
 40
0.0
  9
$SPLFRAME
 70
           0
  9
$SPLINETYPE
 70
           6
  9
$SPLINESEGS
 70
           8
  9
$HANDSEED
  5
55D
  9
$SURFTAB1
 70
           6
  9
$SURFTAB2
 70
           6
  9
$SURFTYPE
 70
           6
  9
$SURFU
 70
           6
  9
$SURFV
 70
           6
  9
$UCSBASE
  2

  9
$UCSNAME
  2

  9
$UCSORG
 10
0.0
 20
0.0
 30
0.0
  9
$UCSXDIR
 10
1.0
 20
0.0
 30
0.0
  9
$UCSYDIR
 10
0.0
 20
1.0
 30
0.0
  9
$UCSORTHOREF
  2

  9
$UCSORTHOVIEW
 70
           0
  9
$UCSORGTOP
 10
0.0
 20
0.0
 30
0.0
  9
$UCSORGBOTTOM
 10
0.0
 20
0.0
 30
0.0
  9
$UCSORGLEFT
 10
0.0
 20
0.0
 30
0.0
  9
$UCSORGRIGHT
 10
0.0
 20
0.0
 30
0.0
  9
$UCSORGFRONT
 10
0.0
 20
0.0
 30
0.0
  9
$UCSORGBACK
 10
0.0
 20
0.0
 30
0.0
  9
$PUCSBASE
  2

  9
$PUCSNAME
  2

  9
$PUCSORG
 10
0.0
 20
0.0
 30
0.0
  9
$PUCSXDIR
 10
1.0
 20
0.0
 30
0.0
  9
$PUCSYDIR
 10
0.0
 20
1.0
 30
0.0
  9
$PUCSORTHOREF
  2

  9
$PUCSORTHOVIEW
 70
           0
  9
$PUCSORGTOP
 10
0.0
 20
0.0
 30
0.0
  9
$PUCSORGBOTTOM
 10
0.0
 20
0.0
 30
0.0
  9
$PUCSORGLEFT
 10
0.0
 20
0.0
 30
0.0
  9
$PUCSORGRIGHT
 10
0.0
 20
0.0
 30
0.0
  9
$PUCSORGFRONT
 10
0.0
 20
0.0
 30
0.0
  9
$PUCSORGBACK
 10
0.0
 20
0.0
 30
0.0
  9
$USERI1
 70
           0
  9
$USERI2
 70
           0
  9
$USERI3
 70
           0
  9
$USERI4
 70
           0
  9
$USERI5
 70
           0
  9
$USERR1
 40
0.0
  9
$USERR2
 40
0.0
  9
$USERR3
 40
0.0
  9
$USERR4
 40
0.0
  9
$USERR5
 40
0.0
  9
$WORLDVIEW
 70
           1
  9
$SHADEDGE
 70
           3
  9
$SHADEDIF
 70
          70
  9
$TILEMODE
 70
           1
  9
$MAXACTVP
 70
          16
  9
$PINSBASE
 10
0.0
 20
0.0
 30
0.0
  9
$PLIMCHECK
 70
           0
  9
$PEXTMIN
 10
-1.172820775707
 20
-1.180397824559
 30
0.0
  9
$PEXTMAX
 10
11.327179308952
 20
8.478693149986
 30
0.0
  9
$PLIMMIN
 10
-1.172820775707
 20
-1.180397824559
  9
$PLIMMAX
 10
11.327179308952
 20
8.478693149986
  9
$UNITMODE
 70
           0
  9
$VISRETAIN
 70
           0
  9
$PLINEGEN
 70
           1
  9
$PSLTSCALE
 70
           1
  9
$TREEDEPTH
 70
        3020
  9
$CMLSTYLE
  2
STANDARD
  9
$CMLJUST
 70
           0
  9
$CMLSCALE
 40
1.0
  9
$PROXYGRAPHICS
 70
           0
  9
$MEASUREMENT
 70
           0
  9
$CELWEIGHT
370
           0
  9
$ENDCAPS
280
           0
  9
$JOINSTYLE
280
           0
  9
$LWDISPLAY
290
           0
  9
$INSUNITS
 70
           0
  9
$HYPERLINKBASE
  1

  9
$STYLESHEET
  1

  9
$XEDIT
290
           1
  9
$CEPSNTYPE
380
           0
  9
$PSTYLEMODE
290
           1
  9
$FINGERPRINTGUID
  2

  9
$VERSIONGUID
  2

  9
$EXTNAMES
290
           1
  9
$PSVPSCALE
 40
0.0
  0
ENDSEC
  0
SECTION
  2
CLASSES
  0
CLASS
  1
LWPOLYLINE
  2
AcDbPolyline
  3
AutoCAD 2000
 90
        0
280
           0
281
           1
  0
CLASS
  1
IMAGE
  2
AcDbRasterImage
  3
ISM
 90
    32895
280
           0
281
           1
  0
CLASS
  1
OLE2FRAME
  2
AcDbOle2Frame
  3
AutoCAD 2000
 90
    32768
280
           0
281
           1
  0
CLASS
  1
HATCH
  2
AcDbHatch
  3
AutoCAD 2000
 90
        0
280
           0
281
           1
  0
CLASS
  1
DICTIONARYVAR
  2
AcDbDictionaryVar
  3
AutoCAD 2000
 90
    32768
280
           0
281
           0
  0
CLASS
  1
RASTERVARIABLES
  2
AcDbRasterVariables
  3
ISM
 90
    32768
280
           0
281
           0
  0
CLASS
  1
IMAGEDEF
  2
AcDbRasterImageDef
  3
ISM
 90
    32768
280
           0
281
           0
  0
CLASS
  1
IMAGEDEF_REACTOR
  2
AcDbRasterImageDefReactor
  3
ISM
 90
    32769
280
           0
281
           0
  0
CLASS
  1
IDBUFFER
  2
AcDbIdBuffer
  3
AutoCAD 2000
 90
    32768
280
           0
281
           0
  0
CLASS
  1
SPATIAL_FILTER
  2
AcDbSpatialFilter
  3
AutoCAD 2000
 90
    32768
280
           0
281
           0
  0
CLASS
  1
XRECORD
  2
AcDbXrecord
  3
AutoCAD 2000
 90
    32768
280
           0
281
           0
  0
CLASS
  1
SORTENTSTABLE
  2
AcDbSortentsTable
  3
AutoCAD 2000
 90
    32768
280
           0
281
           0
  0
CLASS
  1
LAYER_INDEX
  2
AcDbLayerIndex
  3
AutoCAD 2000
 90
    32768
280
           0
281
           0
  0
CLASS
  1
SPATIAL_INDEX
  2
AcDbSpatialIndex
  3
AutoCAD 2000
 90
    32768
280
           0
281
           0
  0
CLASS
  1
OBJECT_PTR
  2
CAseDLPNTableRecord
  3
"ASE-LPNTableRecord"
 90
    32769
280
           0
281
           0
  0
CLASS
  1
LAYOUT
  2
AcDbLayout
  3
AutoCAD 2000
 90
        0
280
           0
281
           0
  0
CLASS
  1
PLOTSETTINGS
  2
AcDbPlotSettings
  3
AutoCAD 2000
 90
    32768
280
           0
281
           0
  0
CLASS
  1
ACDBDICTIONARYWDFLT
  2
AcDbDictionaryWithDefault
  3
AutoCAD 2000
 90
        0
280
           0
281
           0
  0
CLASS
  1
ACDBPLACEHOLDER
  2
AcDbPlaceHolder
  3
AutoCAD 2000
 90
        0
280
           0
281
           0
  0
ENDSEC
  0
SECTION
  2
TABLES
  0
TABLE
  2
VPORT
  5
7
100
AcDbSymbolTable
 70
           1
  0
VPORT
  5
15
100
AcDbSymbolTableRecord
100
AcDbViewportTableRecord
  2
*ACTIVE
 70
           0
 10
0.0
 20
0.0
 11
1.0
 21
1.0
 12
0.0
 22
0.0
 13
0.0
 23
0.0
 14
0.05
 24
0.05
 15
0.05
 25
0.05
 16
0.0
 26
0.0
 36
1.0
 17
0.0
 27
0.0
 37
3.0
 40
39.440152487652
 41
1.911704312115
 42
50.0
 43
0.0
 44
0.0
 50
0.0
 51
0.0
 71
           0
 72
         100
 73
           1
 74
           1
 75
           0
 76
           1
 77
           0
 78
           0
281
           0
 65
           0
110
0.0
120
0.0
130
0.0
111
1.0
121
0.0
131
0.0
112
0.0
122
1.0
132
0.0
345
0
346
0
 79
           0
146
0.0
  0
ENDTAB
  0
TABLE
  2
LTYPE
  5
4
100
AcDbSymbolTable
 70
          14
  0
LTYPE
  5
11
100
AcDbSymbolTableRecord
100
AcDbLinetypeTableRecord
  2
ByBlock
 70
          64
  3

 72
          65
 73
           0
 40
0.0
  0
LTYPE
  5
12
100
AcDbSymbolTableRecord
100
AcDbLinetypeTableRecord
  2
ByLayer
 70
          64
  3

 72
          65
 73
           0
 40
0.0
  0
LTYPE
  5
13
100
AcDbSymbolTableRecord
100
AcDbLinetypeTableRecord
  2
Continuous
 70
          64
  3
Solid line
 72
          65
 73
           0
 40
0.0
  0
LTYPE
  5
24
100
AcDbSymbolTableRecord
100
AcDbLinetypeTableRecord
  2
BORDER
 70
           0
  3
BORDER
 72
          65
 73
           6
 40
1.75
 49
0.5
 74
           0
 49
-0.25
 74
           0
 49
0.5
 74
           0
 49
-0.25
 74
           0
 49
0.0
 74
           0
 49
-0.25
 74
           0
  0
LTYPE
  5
25
100
AcDbSymbolTableRecord
100
AcDbLinetypeTableRecord
  2
CENTER
 70
           0
  3
CENTER
 72
          65
 73
           4
 40
19.4
 49
13.0
 74
           0
 49
-2.1
 74
           0
 49
2.2
 74
           0
 49
-2.1
 74
           0
  0
LTYPE
  5
26
100
AcDbSymbolTableRecord
100
AcDbLinetypeTableRecord
  2
DASHDOT
 70
           0
  3
DASHDOT
 72
          65
 73
           4
 40
1.0
 49
0.5
 74
           0
 49
-0.25
 74
           0
 49
0.0
 74
           0
 49
-0.25
 74
           0
  0
LTYPE
  5
27
100
AcDbSymbolTableRecord
100
AcDbLinetypeTableRecord
  2
DASHED
 70
           0
  3
DASHED
 72
          65
 73
           2
 40
2.2
 49
1.3
 74
           0
 49
-0.9
 74
           0
  0
LTYPE
  5
28
100
AcDbSymbolTableRecord
100
AcDbLinetypeTableRecord
  2
DIVIDE
 70
           0
  3
DIVIDE
 72
          65
 73
           6
 40
1.25
 49
0.5
 74
           0
 49
-0.25
 74
           0
 49
0.0
 74
           0
 49
-0.25
 74
           0
 49
0.0
 74
           0
 49
-0.25
 74
           0
  0
LTYPE
  5
29
100
AcDbSymbolTableRecord
100
AcDbLinetypeTableRecord
  2
DOT
 70
           0
  3
DOT
 72
          65
 73
           2
 40
0.25
 49
0.0
 74
           0
 49
-0.25
 74
           0
  0
LTYPE
  5
2A
100
AcDbSymbolTableRecord
100
AcDbLinetypeTableRecord
  2
HIDDEN
 70
           0
  3
HIDDEN
 72
          65
 73
           2
 40
0.375
 49
0.25
 74
           0
 49
-0.125
 74
           0
  0
LTYPE
  5
2B
100
AcDbSymbolTableRecord
100
AcDbLinetypeTableRecord
  2
PHANTOM
 70
           0
  3
PHANTOM
 72
          65
 73
           6
 40
2.5
 49
1.25
 74
           0
 49
-0.25
 74
           0
 49
0.25
 74
           0
 49
-0.25
 74
           0
 49
0.25
 74
           0
 49
-0.25
 74
           0
  0
LTYPE
  5
2C
100
AcDbSymbolTableRecord
100
AcDbLinetypeTableRecord
  2
$INVISIBLE
 70
           0
  3
$INVISIBLE
 72
          65
 73
           2
 40
200.0
 49
-100.0
 74
           0
 49
-100.0
 74
           0
  0
LTYPE
  5
2D
100
AcDbSymbolTableRecord
100
AcDbLinetypeTableRecord
  2
$SNAPEXT
 70
           0
  3
$SNAPEXT
 72
          65
 73
           2
 40
0.04
 49
0.02
 74
           0
 49
-0.02
 74
           0
  0
LTYPE
  5
2E
100
AcDbSymbolTableRecord
100
AcDbLinetypeTableRecord
  2
$AUXILIARY
 70
           0
  3
$AUXILIARY
 72
          65
 73
           2
 40
0.1
 49
0.05
 74
           0
 49
-0.05
 74
           0
  0
ENDTAB
  0
TABLE
  2
LAYER
  5
2
100
AcDbSymbolTable
 70
           5
  0
LAYER
  5
14
100
AcDbSymbolTableRecord
100
AcDbLayerTableRecord
  2
0
 70
           0
 62
           7
  6
Continuous
290
           1
370
           0
390
0
1001
TCAD
1000
TCW_LAYER_ORDER
1002
{
1071
        0
1002
}
  0
LAYER
  5
2F
100
AcDbSymbolTableRecord
100
AcDbLayerTableRecord
  2
DEFPOINTS
 70
           0
 62
           7
  6
Continuous
290
           0
370
           0
390
0
1001
TCAD
1000
TCW_LAYER_ORDER
1002
{
1071
        0
1002
}
  0
LAYER
  5
30
100
AcDbSymbolTableRecord
100
AcDbLayerTableRecord
  2
DEFPOINTS-0
 70
           0
 62
           3
  6
Continuous
290
           1
370
           0
390
0
1001
TCAD
1000
TCW_LAYER_ORDER
1002
{
1071
        0
1002
}
  0
LAYER
  5
31
100
AcDbSymbolTableRecord
100
AcDbLayerTableRecord
  2
PV-0
 70
           0
 62
           7
  6
Continuous
290
           1
370
           0
390
0
1001
TCAD
1000
TCW_LAYER_ORDER
1002
{
1071
        0
1002
}
  0
LAYER
  5
32
100
AcDbSymbolTableRecord
100
AcDbLayerTableRecord
  2
1
 70
           0
 62
           7
  6
Continuous
290
           1
370
           0
390
0
1001
TCAD
1000
TCW_LAYER_ORDER
1002
{
1071
        0
1002
}
  0
ENDTAB
  0
TABLE
  2
STYLE
  5
3
100
AcDbSymbolTable
 70
           5
  0
STYLE
  5
17
100
AcDbSymbolTableRecord
100
AcDbTextStyleTableRecord
  2
STANDARD
 70
           0
 40
0.0
 41
1.0
 50
0.0
 71
           0
 42
0.20000000298
  3
ROMAND.SHX
  4

  0
STYLE
  5
37
100
AcDbSymbolTableRecord
100
AcDbTextStyleTableRecord
  2
ATTR
 70
           0
 40
0.008020019159
 41
1.0
 50
0.0
 71
           0
 42
0.20000000298
  3
ROMAND.SHX
  4

  0
STYLE
  5
1DB
100
AcDbSymbolTableRecord
100
AcDbTextStyleTableRecord
  2
_TCW_TXTSTY_1
 70
           0
 40
0.0
 41
1.0
 50
0.0
 71
           0
 42
0.2
  3
ROMANS.SHX
  4

  0
STYLE
  5
260
100
AcDbSymbolTableRecord
100
AcDbTextStyleTableRecord
  2
_TCW_TXTSTY_2
 70
           0
 40
0.0
 41
1.0
 50
0.0
 71
           0
 42
0.2
  3
TXT.SHX
  4

  0
STYLE
  5
4B3
100
AcDbSymbolTableRecord
100
AcDbTextStyleTableRecord
  2
_TCW_TXTSTY_3
 70
           0
 40
0.0
 41
1.0
 50
0.0
 71
           0
 42
0.249549984932
  3
TIMES.TTF
  4

1001
ACAD
1000
Times New Roman
1071
      290
  0
ENDTAB
  0
TABLE
  2
VIEW
  5
5
100
AcDbSymbolTable
 70
           4
  0
VIEW
  5
33
100
AcDbSymbolTableRecord
100
AcDbViewTableRecord
  2
View_0
 70
           0
 40
8.267716535433
 10
5.846456692913
 20
4.133858267717
 41
11.692913385827
 11
0.0
 21
0.0
 31
1.0
 12
0.0
 22
0.0
 32
0.0
 42
45.247172312671
 43
0.0
 44
0.0
 50
0.0
 71
           0
281
           0
 72
           0
110
0.0
120
0.0
130
0.0
111
1.0
121
0.0
131
0.0
112
0.0
122
1.0
132
0.0
  0
VIEW
  5
34
100
AcDbSymbolTableRecord
100
AcDbViewTableRecord
  2
View_1
 70
           0
 40
92.164911746979
 10
149.583045959473
 20
39.027971982956
 41
121.657699584961
 11
0.0
 21
0.0
 31
1.0
 12
0.0
 22
0.0
 32
0.0
 42
96.321836770587
 43
0.0
 44
0.0
 50
0.0
 71
           0
281
           0
 72
           0
110
0.0
120
0.0
130
0.0
111
1.0
121
0.0
131
0.0
112
0.0
122
1.0
132
0.0
  0
VIEW
  5
35
100
AcDbSymbolTableRecord
100
AcDbViewTableRecord
  2
OLE1
 70
           0
 40
3.485294342041
 10
9.612509012222
 20
4.419694423676
 41
5.789809703827
 11
0.0
 21
0.0
 31
1.0
 12
0.0
 22
0.0
 32
0.0
 42
82.265564008146
 43
0.0
 44
0.0
 50
0.0
 71
           0
281
           0
 72
           0
110
0.0
120
0.0
130
0.0
111
1.0
121
0.0
131
0.0
112
0.0
122
1.0
132
0.0
  0
VIEW
  5
36
100
AcDbSymbolTableRecord
100
AcDbViewTableRecord
  2
View_3
 70
           0
 40
94.793879834024
 10
149.583045959473
 20
39.027971982956
 41
121.657699584961
 11
0.0
 21
0.0
 31
1.0
 12
0.0
 22
0.0
 32
0.0
 42
98.040483136436
 43
0.0
 44
0.0
 50
0.0
 71
           0
281
           0
 72
           0
110
0.0
120
0.0
130
0.0
111
1.0
121
0.0
131
0.0
112
0.0
122
1.0
132
0.0
  0
ENDTAB
  0
TABLE
  2
UCS
  5
6
100
AcDbSymbolTable
 70
           1
  0
UCS
  5
38
100
AcDbSymbolTableRecord
100
AcDbUCSTableRecord
  2
CK_VIEW_1
 70
           0
 10
0.0
 20
0.0
 30
1.0
 11
1.0
 21
0.0
 31
0.0
 12
0.0
 22
1.0
 32
0.0
 79
           0
146
0.0
  0
ENDTAB
  0
TABLE
  2
APPID
  5
8
100
AcDbSymbolTable
 70
           2
  0
APPID
  5
16
100
AcDbSymbolTableRecord
100
AcDbRegAppTableRecord
  2
ACAD
 70
           0
  0
APPID
  5
23
100
AcDbSymbolTableRecord
100
AcDbRegAppTableRecord
  2
TCAD
 70
           0
  0
ENDTAB
  0
TABLE
  2
DIMSTYLE
  5
9
100
AcDbSymbolTable
 70
           1
100
AcDbDimStyleTable
 71
           0
  0
DIMSTYLE
105
18
100
AcDbSymbolTableRecord
100
AcDbDimStyleTableRecord
  2
STANDARD
 70
           0
  3

  4

 40
1.0
 41
0.18
 42
0.0625
 43
0.38
 44
0.18
 45
0.0000001
 46
0.0
 47
0.0
 48
0.0
 71
           0
 72
           0
 73
           1
 74
           1
 75
           0
 76
           0
 77
           0
 78
           0
 79
           0
140
0.185806451613
141
0.09
142
0.0
143
25.4
144
1.0
145
0.0
146
1.0
147
0.09
148
0.0000001
170
           0
171
           2
172
           0
173
           0
174
           0
175
           0
176
           0
177
           0
178
           0
179
           4
271
           4
272
           4
273
           2
274
           2
275
           0
276
           0
277
           2
278
          46
279
           0
280
           0
281
           0
282
           0
283
           1
284
           0
285
           8
286
           0
288
           0
340
17
341
0
342
0
343
0
344
0
371
          -2
372
          -2
  0
ENDTAB
  0
TABLE
  2
BLOCK_RECORD
  5
1
100
AcDbSymbolTable
 70
          46
  0
BLOCK_RECORD
  5
A
100
AcDbSymbolTableRecord
100
AcDbBlockTableRecord
  2
*MODEL_SPACE
340
559
  0
BLOCK_RECORD
  5
B
100
AcDbSymbolTableRecord
100
AcDbBlockTableRecord
  2
*PAPER_SPACE
340
55C
  0
BLOCK_RECORD
  5
39
100
AcDbSymbolTableRecord
100
AcDbBlockTableRecord
  2
Block_0
340
0
102
{BLKREFS
331
508
102
}
  0
BLOCK_RECORD
  5
58
100
AcDbSymbolTableRecord
100
AcDbBlockTableRecord
  2
Block_3
340
0
102
{BLKREFS
331
509
102
}
  0
BLOCK_RECORD
  5
1D9
100
AcDbSymbolTableRecord
100
AcDbBlockTableRecord
  2
Fuse
340
0
102
{BLKREFS
331
2C2
102
}
  0
BLOCK_RECORD
  5
1E2
100
AcDbSymbolTableRecord
100
AcDbBlockTableRecord
  2
Lamp 1
340
0
  0
BLOCK_RECORD
  5
1EB
100
AcDbSymbolTableRecord
100
AcDbBlockTableRecord
  2
Transformer
340
0
  0
BLOCK_RECORD
  5
1F9
100
AcDbSymbolTableRecord
100
AcDbBlockTableRecord
  2
3-Phase Delta
340
0
  0
BLOCK_RECORD
  5
210
100
AcDbSymbolTableRecord
100
AcDbBlockTableRecord
  2
Inductor
340
0
  0
BLOCK_RECORD
  5
219
100
AcDbSymbolTableRecord
100
AcDbBlockTableRecord
  2
Resistor
340
0
102
{BLKREFS
331
23C
102
}
  0
BLOCK_RECORD
  5
21E
100
AcDbSymbolTableRecord
100
AcDbBlockTableRecord
  2
Capacitor
340
0
  0
BLOCK_RECORD
  5
226
100
AcDbSymbolTableRecord
100
AcDbBlockTableRecord
  2
Locking Switch Open
340
0
  0
BLOCK_RECORD
  5
233
100
AcDbSymbolTableRecord
100
AcDbBlockTableRecord
  2
Power Ground
340
0
  0
BLOCK_RECORD
  5
23A
100
AcDbSymbolTableRecord
100
AcDbBlockTableRecord
  2
A$C03040EC0
340
0
  0
BLOCK_RECORD
  5
23E
100
AcDbSymbolTableRecord
100
AcDbBlockTableRecord
  2
A$C6A19271A
340
0
  0
BLOCK_RECORD
  5
242
100
AcDbSymbolTableRecord
100
AcDbBlockTableRecord
  2
Ohm Symbol
340
0
102
{BLKREFS
331
276
102
}
  0
BLOCK_RECORD
  5
249
100
AcDbSymbolTableRecord
100
AcDbBlockTableRecord
  2
Rheostat
340
0
102
{BLKREFS
331
25F
102
}
  0
BLOCK_RECORD
  5
25A
100
AcDbSymbolTableRecord
100
AcDbBlockTableRecord
  2
A$C08006EF5
340
0
  0
BLOCK_RECORD
  5
27C
100
AcDbSymbolTableRecord
100
AcDbBlockTableRecord
  2
A$C26A43B7E
340
0
  0
BLOCK_RECORD
  5
283
100
AcDbSymbolTableRecord
100
AcDbBlockTableRecord
  2
A$C06E97278
340
0
  0
BLOCK_RECORD
  5
28E
100
AcDbSymbolTableRecord
100
AcDbBlockTableRecord
  2
A$C3881095A
340
0
  0
BLOCK_RECORD
  5
295
100
AcDbSymbolTableRecord
100
AcDbBlockTableRecord
  2
A$C7C7A5DC8
340
0
  0
BLOCK_RECORD
  5
299
100
AcDbSymbolTableRecord
100
AcDbBlockTableRecord
  2
A$C4FB532C2
340
0
  0
BLOCK_RECORD
  5
2A1
100
AcDbSymbolTableRecord
100
AcDbBlockTableRecord
  2
A$C581B394E
340
0
  0
BLOCK_RECORD
  5
2A8
100
AcDbSymbolTableRecord
100
AcDbBlockTableRecord
  2
A$C25FD3304
340
0
  0
BLOCK_RECORD
  5
2AC
100
AcDbSymbolTableRecord
100
AcDbBlockTableRecord
  2
A$C79987CD6
340
0
  0
BLOCK_RECORD
  5
2B0
100
AcDbSymbolTableRecord
100
AcDbBlockTableRecord
  2
A$C16C43627
340
0
  0
BLOCK_RECORD
  5
2B5
100
AcDbSymbolTableRecord
100
AcDbBlockTableRecord
  2
A$C4FC73B81
340
0
  0
BLOCK_RECORD
  5
2B9
100
AcDbSymbolTableRecord
100
AcDbBlockTableRecord
  2
A$C2EB3516B
340
0
  0
BLOCK_RECORD
  5
2BE
100
AcDbSymbolTableRecord
100
AcDbBlockTableRecord
  2
A$C40435073
340
0
  0
BLOCK_RECORD
  5
2C4
100
AcDbSymbolTableRecord
100
AcDbBlockTableRecord
  2
Thermal Overload Switch
340
0
  0
BLOCK_RECORD
  5
2CC
100
AcDbSymbolTableRecord
100
AcDbBlockTableRecord
  2
Momentary Switch NO
340
0
  0
BLOCK_RECORD
  5
2D4
100
AcDbSymbolTableRecord
100
AcDbBlockTableRecord
  2
Block_2
340
0
  0
BLOCK_RECORD
  5
2DD
100
AcDbSymbolTableRecord
100
AcDbBlockTableRecord
  2
*D31
340
0
  0
BLOCK_RECORD
  5
2EA
100
AcDbSymbolTableRecord
100
AcDbBlockTableRecord
  2
*D32
340
0
  0
BLOCK_RECORD
  5
2F8
100
AcDbSymbolTableRecord
100
AcDbBlockTableRecord
  2
*D33
340
0
  0
BLOCK_RECORD
  5
305
100
AcDbSymbolTableRecord
100
AcDbBlockTableRecord
  2
*D34
340
0
  0
BLOCK_RECORD
  5
321
100
AcDbSymbolTableRecord
100
AcDbBlockTableRecord
  2
*D35
340
0
  0
BLOCK_RECORD
  5
32E
100
AcDbSymbolTableRecord
100
AcDbBlockTableRecord
  2
*D36
340
0
  0
BLOCK_RECORD
  5
351
100
AcDbSymbolTableRecord
100
AcDbBlockTableRecord
  2
*D37
340
0
  0
BLOCK_RECORD
  5
35F
100
AcDbSymbolTableRecord
100
AcDbBlockTableRecord
  2
*D38
340
0
  0
BLOCK_RECORD
  5
379
100
AcDbSymbolTableRecord
100
AcDbBlockTableRecord
  2
*D39
340
0
  0
BLOCK_RECORD
  5
392
100
AcDbSymbolTableRecord
100
AcDbBlockTableRecord
  2
*D40
340
0
  0
BLOCK_RECORD
  5
3C5
100
AcDbSymbolTableRecord
100
AcDbBlockTableRecord
  2
*D41
340
0
  0
BLOCK_RECORD
  5
43E
100
AcDbSymbolTableRecord
100
AcDbBlockTableRecord
  2
*D42
340
0
  0
BLOCK_RECORD
  5
44B
100
AcDbSymbolTableRecord
100
AcDbBlockTableRecord
  2
*D43
340
0
  0
BLOCK_RECORD
  5
53D
100
AcDbSymbolTableRecord
100
AcDbBlockTableRecord
  2
*D44
340
0
  0
BLOCK_RECORD
  5
54B
100
AcDbSymbolTableRecord
100
AcDbBlockTableRecord
  2
*D45
340
0
  0
ENDTAB
  0
ENDSEC
  0
SECTION
  2
BLOCKS
  0
BLOCK
  5
D
100
AcDbEntity
  8
0
100
AcDbBlockBegin
  2
*MODEL_SPACE
 70
           0
 10
0.0
 20
0.0
 30
0.0
  3
*MODEL_SPACE
  1

  0
ENDBLK
  5
E
100
AcDbEntity
  8
0
100
AcDbBlockEnd
  0
BLOCK
  5
F
100
AcDbEntity
 67
           1
  8
0
100
AcDbBlockBegin
  2
*PAPER_SPACE
 70
           0
 10
0.0
 20
0.0
 30
0.0
  3
*PAPER_SPACE
  1

  0
ENDBLK
  5
10
100
AcDbEntity
 67
           1
  8
0
100
AcDbBlockEnd
  0
BLOCK
  5
3A
100
AcDbEntity
  8
0
100
AcDbBlockBegin
  2
Block_0
 70
           0
 10
0.0
 20
0.0
 30
0.0
  3
Block_0
  1

  0
LINE
  5
3B
100
AcDbEntity
  8
0
 62
           0
100
AcDbLine
 10
10.506844388461
 20
1.597298945511
 30
0.0
 11
10.540382297308
 21
1.630836854358
 31
0.0
1001
ACAD
1000
TCW40_DEV_WIDTH
1002
{
1040
-3.0
1002
}
  0
LINE
  5
3C
100
AcDbEntity
  8
0
 62
           0
100
AcDbLine
 10
10.631849321437
 20
1.722303878487
 30
0.0
 11
10.665387230284
 21
1.755841787334
 31
0.0
1001
ACAD
1000
TCW40_DEV_WIDTH
1002
{
1040
-3.0
1002
}
  0
LINE
  5
3D
100
AcDbEntity
  8
0
 62
           0
100
AcDbLine
 10
10.498005553696
 20
1.606137780276
 30
0.0
 11
10.531543462544
 21
1.639675689123
 31
0.0
1001
ACAD
1000
TCW40_DEV_WIDTH
1002
{
1040
-3.0
1002
}
  0
LINE
  5
3E
100
AcDbEntity
  8
0
 62
           0
100
AcDbLine
 10
10.623010486672
 20
1.731142713251
 30
0.0
 11
10.653499494715
 21
1.761631721294
 31
0.0
1001
ACAD
1000
TCW40_DEV_WIDTH
1002
{
1040
-3.0
1002
}
  0
LINE
  5
3F
100
AcDbEntity
  8
0
 62
           0
100
AcDbLine
 10
10.489166718932
 20
1.61497661504
 30
0.0
 11
10.528802429387
 21
1.654612325496
 31
0.0
1001
ACAD
1000
TCW40_DEV_WIDTH
1002
{
1040
-3.0
1002
}
  0
LINE
  5
40
100
AcDbEntity
  8
0
 62
           0
100
AcDbLine
 10
10.608073850299
 20
1.733883746408
 30
0.0
 11
10.641611759146
 21
1.767421655255
 31
0.0
1001
ACAD
1000
TCW40_DEV_WIDTH
1002
{
1040
-3.0
1002
}
  0
LINE
  5
41
100
AcDbEntity
  8
0
 62
           0
100
AcDbLine
 10
10.483376784971
 20
1.626864350609
 30
0.0
 11
10.523940330262
 21
1.667427895901
 31
0.0
1001
ACAD
1000
TCW40_DEV_WIDTH
1002
{
1040
-3.0
1002
}
  0
LINE
  5
42
100
AcDbEntity
  8
0
 62
           0
100
AcDbLine
 10
10.595258279894
 20
1.738745845533
 30
0.0
 11
10.626675122773
 21
1.770162688411
 31
0.0
1001
ACAD
1000
TCW40_DEV_WIDTH
1002
{
1040
-3.0
1002
}
  0
LINE
  5
43
100
AcDbEntity
  8
0
 62
           0
100
AcDbLine
 10
10.47758685101
 20
1.638752086179
 30
0.0
 11
10.530038131871
 21
1.691203367039
 31
0.0
1001
ACAD
1000
TCW40_DEV_WIDTH
1002
{
1040
-3.0
1002
}
  0
LINE
  5
44
100
AcDbEntity
  8
0
 62
           0
100
AcDbLine
 10
10.571482808756
 20
1.732648043924
 30
0.0
 11
10.614167420016
 21
1.775332655184
 31
0.0
1001
ACAD
1000
TCW40_DEV_WIDTH
1002
{
1040
-3.0
1002
}
  0
LINE
  5
45
100
AcDbEntity
  8
0
 62
           0
100
AcDbLine
 10
10.47179691705
 20
1.650639821748
 30
0.0
 11
10.596489750486
 21
1.775332655184
 31
0.0
1001
ACAD
1000
TCW40_DEV_WIDTH
1002
{
1040
-3.0
1002
}
  0
LINE
  5
46
100
AcDbEntity
  8
0
 62
           0
100
AcDbLine
 10
10.469060115785
 20
1.665580690013
 30
0.0
 11
10.578812080957
 21
1.775332655184
 31
0.0
1001
ACAD
1000
TCW40_DEV_WIDTH
1002
{
1040
-3.0
1002
}
  0
LINE
  5
47
100
AcDbEntity
  8
0
 62
           0
100
AcDbLine
 10
10.469060115785
 20
1.683258359542
 30
0.0
 11
10.555036609818
 21
1.769234853575
 31
0.0
1001
ACAD
1000
TCW40_DEV_WIDTH
1002
{
1040
-3.0
1002
}
  0
LINE
  5
48
100
AcDbEntity
  8
0
 62
           0
100
AcDbLine
 10
10.481255719002
 20
1.713131632289
 30
0.0
 11
10.525163337071
 21
1.757039250358
 31
0.0
1001
ACAD
1000
TCW40_DEV_WIDTH
1002
{
1040
-3.0
1002
}
  0
LINE
  5
49
100
AcDbEntity
  8
0
 62
           0
100
AcDbLine
 10
10.51873212403
 20
1.59150901155
 30
0.0
 11
10.549221132073
 21
1.621998019593
 31
0.0
1001
ACAD
1000
TCW40_DEV_WIDTH
1002
{
1040
-3.0
1002
}
  0
LINE
  5
4A
100
AcDbEntity
  8
0
 62
           0
100
AcDbLine
 10
10.640688156202
 20
1.713465043722
 30
0.0
 11
10.677274965853
 21
1.750051853373
 31
0.0
1001
ACAD
1000
TCW40_DEV_WIDTH
1002
{
1040
-3.0
1002
}
  0
LINE
  5
4B
100
AcDbEntity
  8
0
 62
           0
100
AcDbLine
 10
10.530619859599
 20
1.58571907759
 30
0.0
 11
10.558059966838
 21
1.613159184828
 31
0.0
1001
ACAD
1000
TCW40_DEV_WIDTH
1002
{
1040
-3.0
1002
}
  0
LINE
  5
4C
100
AcDbEntity
  8
0
 62
           0
100
AcDbLine
 10
10.649526990967
 20
1.704626208957
 30
0.0
 11
10.686113800618
 21
1.741213018608
 31
0.0
1001
ACAD
1000
TCW40_DEV_WIDTH
1002
{
1040
-3.0
1002
}
  0
LINE
  5
4D
100
AcDbEntity
  8
0
 62
           0
100
AcDbLine
 10
10.542507595169
 20
1.579929143629
 30
0.0
 11
10.572996603211
 21
1.610418151672
 31
0.0
1001
ACAD
1000
TCW40_DEV_WIDTH
1002
{
1040
-3.0
1002
}
  0
LINE
  5
4E
100
AcDbEntity
  8
0
 62
           0
100
AcDbLine
 10
10.652268024123
 20
1.689689572583
 30
0.0
 11
10.694952635383
 21
1.732374183844
 31
0.0
1001
ACAD
1000
TCW40_DEV_WIDTH
1002
{
1040
-3.0
1002
}
  0
LINE
  5
4F
100
AcDbEntity
  8
0
 62
           0
100
AcDbLine
 10
10.55436132317
 20
1.574105202101
 30
0.0
 11
10.584850331213
 21
1.604594210144
 31
0.0
1001
ACAD
1000
TCW40_DEV_WIDTH
1002
{
1040
-3.0
1002
}
  0
LINE
  5
50
100
AcDbEntity
  8
0
 62
           0
100
AcDbLine
 10
10.658091965651
 20
1.677835844582
 30
0.0
 11
10.700776576911
 21
1.720520455842
 31
0.0
1001
ACAD
1000
TCW40_DEV_WIDTH
1002
{
1040
-3.0
1002
}
  0
LINE
  5
51
100
AcDbEntity
  8
0
 62
           0
100
AcDbLine
 10
10.566283066307
 20
1.568349275708
 30
0.0
 11
10.602528000743
 21
1.604594210144
 31
0.0
1001
ACAD
1000
TCW40_DEV_WIDTH
1002
{
1040
-3.0
1002
}
  0
LINE
  5
52
100
AcDbEntity
  8
0
 62
           0
100
AcDbLine
 10
10.658091965651
 20
1.660158175052
 30
0.0
 11
10.70687437852
 21
1.708940587921
 31
0.0
1001
ACAD
1000
TCW40_DEV_WIDTH
1002
{
1040
-3.0
1002
}
  0
LINE
  5
53
100
AcDbEntity
  8
0
 62
           0
100
AcDbLine
 10
10.583618860621
 20
1.568007400492
 30
0.0
 11
10.712972180128
 21
1.69736072
 31
0.0
1001
ACAD
1000
TCW40_DEV_WIDTH
1002
{
1040
-3.0
1002
}
  0
LINE
  5
54
100
AcDbEntity
  8
0
 62
           0
100
AcDbLine
 10
10.60129653015
 20
1.568007400492
 30
0.0
 11
10.719069981737
 21
1.685780852079
 31
0.0
1001
ACAD
1000
TCW40_DEV_WIDTH
1002
{
1040
-3.0
1002
}
  0
LINE
  5
55
100
AcDbEntity
  8
0
 62
           0
100
AcDbLine
 10
10.61897419968
 20
1.568007400492
 30
0.0
 11
10.719069981737
 21
1.668103182549
 31
0.0
1001
ACAD
1000
TCW40_DEV_WIDTH
1002
{
1040
-3.0
1002
}
  0
LINE
  5
56
100
AcDbEntity
  8
0
 62
           0
100
AcDbLine
 10
10.648847472427
 20
1.580203003709
 30
0.0
 11
10.712972180128
 21
1.644327711411
 31
0.0
1001
ACAD
1000
TCW40_DEV_WIDTH
1002
{
1040
-3.0
1002
}
  0
ENDBLK
  5
57
100
AcDbEntity
  8
0
100
AcDbBlockEnd
  0
BLOCK
  5
59
100
AcDbEntity
  8
0
100
AcDbBlockBegin
  2
Block_3
 70
           0
 10
0.0
 20
0.0
 30
0.0
  3
Block_3
  1

  0
LINE
  5
5A
100
AcDbEntity
  8
0
 62
           0
100
AcDbLine
 10
10.421500709726
 20
1.653376623012
 30
0.0
 11
10.438571107742
 21
1.670447021029
 31
0.0
1001
ACAD
1000
TCW40_DEV_WIDTH
1002
{
1040
-3.0
1002
}
  0
LINE
  5
5B
100
AcDbEntity
  8
0
 62
           0
100
AcDbLine
 10
10.38552963537
 20
1.635083218187
 30
0.0
 11
10.450766710959
 21
1.700320293776
 31
0.0
1001
ACAD
1000
TCW40_DEV_WIDTH
1002
{
1040
-3.0
1002
}
  0
LINE
  5
5C
100
AcDbEntity
  8
0
 62
           0
100
AcDbLine
 10
10.361754164232
 20
1.628985416578
 30
0.0
 11
10.445487068485
 21
1.712718320831
 31
0.0
1001
ACAD
1000
TCW40_DEV_WIDTH
1002
{
1040
-3.0
1002
}
  0
LINE
  5
5D
100
AcDbEntity
  8
0
 62
           0
100
AcDbLine
 10
10.337978693094
 20
1.62288761497
 30
0.0
 11
10.440106214091
 21
1.725015135967
 31
0.0
1001
ACAD
1000
TCW40_DEV_WIDTH
1002
{
1040
-3.0
1002
}
  0
LINE
  5
5E
100
AcDbEntity
  8
0
 62
           0
100
AcDbLine
 10
10.320301023564
 20
1.62288761497
 30
0.0
 11
10.431267379326
 21
1.733853970732
 31
0.0
1001
ACAD
1000
TCW40_DEV_WIDTH
1002
{
1040
-3.0
1002
}
  0
LINE
  5
5F
100
AcDbEntity
  8
0
 62
           0
100
AcDbLine
 10
10.302623354034
 20
1.62288761497
 30
0.0
 11
10.357503568512
 21
1.677767829447
 31
0.0
1001
ACAD
1000
TCW40_DEV_WIDTH
1002
{
1040
-3.0
1002
}
  0
LINE
  5
60
100
AcDbEntity
  8
0
 62
           0
100
AcDbLine
 10
10.382792834105
 20
1.703057095041
 30
0.0
 11
10.422428544561
 21
1.742692805496
 31
0.0
1001
ACAD
1000
TCW40_DEV_WIDTH
1002
{
1040
-3.0
1002
}
  0
LINE
  5
61
100
AcDbEntity
  8
0
 62
           0
100
AcDbLine
 10
10.236163271636
 20
1.574105202101
 30
0.0
 11
10.249539257876
 21
1.587481188341
 31
0.0
1001
ACAD
1000
TCW40_DEV_WIDTH
1002
{
1040
-3.0
1002
}
  0
LINE
  5
62
100
AcDbEntity
  8
0
 62
           0
100
AcDbLine
 10
10.373953999341
 20
1.711895929805
 30
0.0
 11
10.410540808992
 21
1.748482739457
 31
0.0
1001
ACAD
1000
TCW40_DEV_WIDTH
1002
{
1040
-3.0
1002
}
  0
LINE
  5
63
100
AcDbEntity
  8
0
 62
           0
100
AcDbLine
 10
10.284945684505
 20
1.62288761497
 30
0.0
 11
10.333728097373
 21
1.671670027838
 31
0.0
1001
ACAD
1000
TCW40_DEV_WIDTH
1002
{
1040
-3.0
1002
}
  0
LINE
  5
64
100
AcDbEntity
  8
0
 62
           0
100
AcDbLine
 10
10.218485602106
 20
1.574105202101
 30
0.0
 11
10.249539257876
 21
1.605158857871
 31
0.0
1001
ACAD
1000
TCW40_DEV_WIDTH
1002
{
1040
-3.0
1002
}
  0
LINE
  5
65
100
AcDbEntity
  8
0
 62
           0
100
AcDbLine
 10
10.362066263772
 20
1.717685863766
 30
0.0
 11
10.398653073423
 21
1.754272673417
 31
0.0
1001
ACAD
1000
TCW40_DEV_WIDTH
1002
{
1040
-3.0
1002
}
  0
LINE
  5
66
100
AcDbEntity
  8
0
 62
           0
100
AcDbLine
 10
10.273365816584
 20
1.628985416578
 30
0.0
 11
10.316050427844
 21
1.671670027838
 31
0.0
1001
ACAD
1000
TCW40_DEV_WIDTH
1002
{
1040
-3.0
1002
}
  0
LINE
  5
67
100
AcDbEntity
  8
0
 62
           0
100
AcDbLine
 10
10.200807932577
 20
1.574105202101
 30
0.0
 11
10.249539257876
 21
1.6228365274
 31
0.0
1001
ACAD
1000
TCW40_DEV_WIDTH
1002
{
1040
-3.0
1002
}
  0
LINE
  5
68
100
AcDbEntity
  8
0
 62
           0
100
AcDbLine
 10
10.347155171183
 20
1.720452440707
 30
0.0
 11
10.386765337854
 21
1.760062607378
 31
0.0
1001
ACAD
1000
TCW40_DEV_WIDTH
1002
{
1040
-3.0
1002
}
  0
LINE
  5
69
100
AcDbEntity
  8
0
 62
           0
100
AcDbLine
 10
10.255688147054
 20
1.628985416578
 30
0.0
 11
10.298372758314
 21
1.671670027838
 31
0.0
1001
ACAD
1000
TCW40_DEV_WIDTH
1002
{
1040
-3.0
1002
}
  0
LINE
  5
6A
100
AcDbEntity
  8
0
 62
           0
100
AcDbLine
 10
10.183130263047
 20
1.574105202101
 30
0.0
 11
10.249539257876
 21
1.64051419693
 31
0.0
1001
ACAD
1000
TCW40_DEV_WIDTH
1002
{
1040
-3.0
1002
}
  0
LINE
  5
6B
100
AcDbEntity
  8
0
 62
           0
100
AcDbLine
 10
10.335575303262
 20
1.726550242315
 30
0.0
 11
10.372162112913
 21
1.763137051967
 31
0.0
1001
ACAD
1000
TCW40_DEV_WIDTH
1002
{
1040
-3.0
1002
}
  0
LINE
  5
6C
100
AcDbEntity
  8
0
 62
           0
100
AcDbLine
 10
10.249539257876
 20
1.64051419693
 30
0.0
 11
10.280695088784
 21
1.671670027838
 31
0.0
1001
ACAD
1000
TCW40_DEV_WIDTH
1002
{
1040
-3.0
1002
}
  0
LINE
  5
6D
100
AcDbEntity
  8
0
 62
           0
100
AcDbLine
 10
10.182463440182
 20
1.591116048765
 30
0.0
 11
10.249539257876
 21
1.65819186646
 31
0.0
1001
ACAD
1000
TCW40_DEV_WIDTH
1002
{
1040
-3.0
1002
}
  0
LINE
  5
6E
100
AcDbEntity
  8
0
 62
           0
100
AcDbLine
 10
10.317897633732
 20
1.726550242315
 30
0.0
 11
10.359940965911
 21
1.768593574495
 31
0.0
1001
ACAD
1000
TCW40_DEV_WIDTH
1002
{
1040
-3.0
1002
}
  0
LINE
  5
6F
100
AcDbEntity
  8
0
 62
           0
100
AcDbLine
 10
10.249539257876
 20
1.65819186646
 30
0.0
 11
10.265425040978
 21
1.674077649562
 31
0.0
1001
ACAD
1000
TCW40_DEV_WIDTH
1002
{
1040
-3.0
1002
}
  0
LINE
  5
70
100
AcDbEntity
  8
0
 62
           0
100
AcDbLine
 10
10.147774923988
 20
1.574105202101
 30
0.0
 11
10.162397590884
 21
1.588727868997
 31
0.0
1001
ACAD
1000
TCW40_DEV_WIDTH
1002
{
1040
-3.0
1002
}
  0
LINE
  5
71
100
AcDbEntity
  8
0
 62
           0
100
AcDbLine
 10
10.300219964202
 20
1.726550242315
 30
0.0
 11
10.342904575462
 21
1.769234853575
 31
0.0
1001
ACAD
1000
TCW40_DEV_WIDTH
1002
{
1040
-3.0
1002
}
  0
LINE
  5
72
100
AcDbEntity
  8
0
 62
           0
100
AcDbLine
 10
10.182463440182
 20
1.608793718295
 30
0.0
 11
10.249539257876
 21
1.675869535989
 31
0.0
1001
ACAD
1000
TCW40_DEV_WIDTH
1002
{
1040
-3.0
1002
}
  0
LINE
  5
73
100
AcDbEntity
  8
0
 62
           0
100
AcDbLine
 10
10.249539257876
 20
1.675869535989
 30
0.0
 11
10.251437551334
 21
1.677767829447
 31
0.0
1001
ACAD
1000
TCW40_DEV_WIDTH
1002
{
1040
-3.0
1002
}
  0
LINE
  5
74
100
AcDbEntity
  8
0
 62
           0
100
AcDbLine
 10
10.130097254458
 20
1.574105202101
 30
0.0
 11
10.160486491475
 21
1.604494439118
 31
0.0
1001
ACAD
1000
TCW40_DEV_WIDTH
1002
{
1040
-3.0
1002
}
  0
LINE
  5
75
100
AcDbEntity
  8
0
 62
           0
100
AcDbLine
 10
10.282542294673
 20
1.726550242315
 30
0.0
 11
10.330067693165
 21
1.774075640807
 31
0.0
1001
ACAD
1000
TCW40_DEV_WIDTH
1002
{
1040
-3.0
1002
}
  0
LINE
  5
76
100
AcDbEntity
  8
0
 62
           0
100
AcDbLine
 10
10.182463440182
 20
1.626471387825
 30
0.0
 11
10.249539257876
 21
1.693547205519
 31
0.0
1001
ACAD
1000
TCW40_DEV_WIDTH
1002
{
1040
-3.0
1002
}
  0
LINE
  5
77
100
AcDbEntity
  8
0
 62
           0
100
AcDbLine
 10
10.112419584928
 20
1.574105202101
 30
0.0
 11
10.158575392067
 21
1.620261009239
 31
0.0
1001
ACAD
1000
TCW40_DEV_WIDTH
1002
{
1040
-3.0
1002
}
  0
LINE
  5
78
100
AcDbEntity
  8
0
 62
           0
100
AcDbLine
 10
10.258766823534
 20
1.720452440707
 30
0.0
 11
10.313647038012
 21
1.775332655184
 31
0.0
1001
ACAD
1000
TCW40_DEV_WIDTH
1002
{
1040
-3.0
1002
}
  0
LINE
  5
79
100
AcDbEntity
  8
0
 62
           0
100
AcDbLine
 10
10.182463440182
 20
1.644149057354
 30
0.0
 11
10.249539257876
 21
1.711224875049
 31
0.0
1001
ACAD
1000
TCW40_DEV_WIDTH
1002
{
1040
-3.0
1002
}
  0
LINE
  5
7A
100
AcDbEntity
  8
0
 62
           0
100
AcDbLine
 10
10.102628679012
 20
1.581991965714
 30
0.0
 11
10.156664292658
 21
1.63602757936
 31
0.0
1001
ACAD
1000
TCW40_DEV_WIDTH
1002
{
1040
-3.0
1002
}
  0
LINE
  5
7B
100
AcDbEntity
  8
0
 62
           0
100
AcDbLine
 10
10.182463440182
 20
1.661826726884
 30
0.0
 11
10.295969368482
 21
1.775332655184
 31
0.0
1001
ACAD
1000
TCW40_DEV_WIDTH
1002
{
1040
-3.0
1002
}
  0
LINE
  5
7C
100
AcDbEntity
  8
0
 62
           0
100
AcDbLine
 10
10.10145016771
 20
1.598491123942
 30
0.0
 11
10.154753193249
 21
1.651794149481
 31
0.0
1001
ACAD
1000
TCW40_DEV_WIDTH
1002
{
1040
-3.0
1002
}
  0
LINE
  5
7D
100
AcDbEntity
  8
0
 62
           0
100
AcDbLine
 10
10.182463440182
 20
1.679504396414
 30
0.0
 11
10.278291698952
 21
1.775332655184
 31
0.0
1001
ACAD
1000
TCW40_DEV_WIDTH
1002
{
1040
-3.0
1002
}
  0
LINE
  5
7E
100
AcDbEntity
  8
0
 62
           0
100
AcDbLine
 10
10.100271656408
 20
1.61499028217
 30
0.0
 11
10.152842093841
 21
1.667560719602
 31
0.0
1001
ACAD
1000
TCW40_DEV_WIDTH
1002
{
1040
-3.0
1002
}
  0
LINE
  5
7F
100
AcDbEntity
  8
0
 62
           0
100
AcDbLine
 10
10.182463440182
 20
1.697182065943
 30
0.0
 11
10.260614029423
 21
1.775332655184
 31
0.0
1001
ACAD
1000
TCW40_DEV_WIDTH
1002
{
1040
-3.0
1002
}
  0
LINE
  5
80
100
AcDbEntity
  8
0
 62
           0
100
AcDbLine
 10
10.04170890681
 20
1.574105202101
 30
0.0
 11
10.067110305994
 21
1.599506601285
 31
0.0
1001
ACAD
1000
TCW40_DEV_WIDTH
1002
{
1040
-3.0
1002
}
  0
LINE
  5
81
100
AcDbEntity
  8
0
 62
           0
100
AcDbLine
 10
10.182463440182
 20
1.714859735473
 30
0.0
 11
10.242936359893
 21
1.775332655184
 31
0.0
1001
ACAD
1000
TCW40_DEV_WIDTH
1002
{
1040
-3.0
1002
}
  0
LINE
  5
82
100
AcDbEntity
  8
0
 62
           0
100
AcDbLine
 10
10.099093145106
 20
1.631489440397
 30
0.0
 11
10.150930994432
 21
1.683327289723
 31
0.0
1001
ACAD
1000
TCW40_DEV_WIDTH
1002
{
1040
-3.0
1002
}
  0
LINE
  5
83
100
AcDbEntity
  8
0
 62
           0
100
AcDbLine
 10
10.02403123728
 20
1.574105202101
 30
0.0
 11
10.084787975523
 21
1.634861940344
 31
0.0
1001
ACAD
1000
TCW40_DEV_WIDTH
1002
{
1040
-3.0
1002
}
  0
LINE
  5
84
100
AcDbEntity
  8
0
 62
           0
100
AcDbLine
 10
10.182463440182
 20
1.732537405003
 30
0.0
 11
10.219160888755
 21
1.769234853575
 31
0.0
1001
ACAD
1000
TCW40_DEV_WIDTH
1002
{
1040
-3.0
1002
}
  0
LINE
  5
85
100
AcDbEntity
  8
0
 62
           0
100
AcDbLine
 10
10.097914633804
 20
1.647988598625
 30
0.0
 11
10.149019895024
 21
1.699093859844
 31
0.0
1001
ACAD
1000
TCW40_DEV_WIDTH
1002
{
1040
-3.0
1002
}
  0
LINE
  5
86
100
AcDbEntity
  8
0
 62
           0
100
AcDbLine
 10
10.00635356775
 20
1.574105202101
 30
0.0
 11
10.147108795615
 21
1.714860429965
 31
0.0
1001
ACAD
1000
TCW40_DEV_WIDTH
1002
{
1040
-3.0
1002
}
  0
LINE
  5
87
100
AcDbEntity
  8
0
 62
           0
100
AcDbLine
 10
10.182463440182
 20
1.750215074532
 30
0.0
 11
10.195385417616
 21
1.763137051967
 31
0.0
1001
ACAD
1000
TCW40_DEV_WIDTH
1002
{
1040
-3.0
1002
}
  0
LINE
  5
88
100
AcDbEntity
  8
0
 62
           0
100
AcDbLine
 10
9.992004882687
 20
1.577434186568
 30
0.0
 11
10.145197696206
 21
1.730627000087
 31
0.0
1001
ACAD
1000
TCW40_DEV_WIDTH
1002
{
1040
-3.0
1002
}
  0
LINE
  5
89
100
AcDbEntity
  8
0
 62
           0
100
AcDbLine
 10
9.986701581829
 20
1.589808555238
 30
0.0
 11
10.143286596798
 21
1.746393570208
 31
0.0
1001
ACAD
1000
TCW40_DEV_WIDTH
1002
{
1040
-3.0
1002
}
  0
LINE
  5
8A
100
AcDbEntity
  8
0
 62
           0
100
AcDbLine
 10
9.98139828097
 20
1.602182923909
 30
0.0
 11
10.141375497389
 21
1.762160140329
 31
0.0
1001
ACAD
1000
TCW40_DEV_WIDTH
1002
{
1040
-3.0
1002
}
  0
LINE
  5
8B
100
AcDbEntity
  8
0
 62
           0
100
AcDbLine
 10
9.935642889632
 20
1.574105202101
 30
0.0
 11
9.946150225417
 21
1.584612537886
 31
0.0
1001
ACAD
1000
TCW40_DEV_WIDTH
1002
{
1040
-3.0
1002
}
  0
LINE
  5
8C
100
AcDbEntity
  8
0
 62
           0
100
AcDbLine
 10
10.026035861055
 20
1.664498173524
 30
0.0
 11
10.136870342715
 21
1.775332655184
 31
0.0
1001
ACAD
1000
TCW40_DEV_WIDTH
1002
{
1040
-3.0
1002
}
  0
LINE
  5
8D
100
AcDbEntity
  8
0
 62
           0
100
AcDbLine
 10
9.976094980111
 20
1.61455729258
 30
0.0
 11
10.023058824668
 21
1.661521137137
 31
0.0
1001
ACAD
1000
TCW40_DEV_WIDTH
1002
{
1040
-3.0
1002
}
  0
LINE
  5
8E
100
AcDbEntity
  8
0
 62
           0
100
AcDbLine
 10
9.917965220102
 20
1.574105202101
 30
0.0
 11
9.949096503672
 21
1.60523648567
 31
0.0
1001
ACAD
1000
TCW40_DEV_WIDTH
1002
{
1040
-3.0
1002
}
  0
LINE
  5
8F
100
AcDbEntity
  8
0
 62
           0
100
AcDbLine
 10
10.038892347986
 20
1.695032329984
 30
0.0
 11
10.119192673185
 21
1.775332655184
 31
0.0
1001
ACAD
1000
TCW40_DEV_WIDTH
1002
{
1040
-3.0
1002
}
  0
LINE
  5
90
100
AcDbEntity
  8
0
 62
           0
100
AcDbLine
 10
9.970791679252
 20
1.626931661251
 30
0.0
 11
10.017820996659
 21
1.673960978658
 31
0.0
1001
ACAD
1000
TCW40_DEV_WIDTH
1002
{
1040
-3.0
1002
}
  0
LINE
  5
91
100
AcDbEntity
  8
0
 62
           0
100
AcDbLine
 10
9.900287550573
 20
1.574105202101
 30
0.0
 11
9.952042781926
 21
1.625860433455
 31
0.0
1001
ACAD
1000
TCW40_DEV_WIDTH
1002
{
1040
-3.0
1002
}
  0
LINE
  5
92
100
AcDbEntity
  8
0
 62
           0
100
AcDbLine
 10
10.051748834916
 20
1.725566486445
 30
0.0
 11
10.101515003656
 21
1.775332655184
 31
0.0
1001
ACAD
1000
TCW40_DEV_WIDTH
1002
{
1040
-3.0
1002
}
  0
LINE
  5
93
100
AcDbEntity
  8
0
 62
           0
100
AcDbLine
 10
9.965488378393
 20
1.639306029921
 30
0.0
 11
10.01258316865
 21
1.686400820179
 31
0.0
1001
ACAD
1000
TCW40_DEV_WIDTH
1002
{
1040
-3.0
1002
}
  0
LINE
  5
94
100
AcDbEntity
  8
0
 62
           0
100
AcDbLine
 10
9.883817544854
 20
1.575312865912
 30
0.0
 11
9.954989060181
 21
1.64648438124
 31
0.0
1001
ACAD
1000
TCW40_DEV_WIDTH
1002
{
1040
-3.0
1002
}
  0
LINE
  5
95
100
AcDbEntity
  8
0
 62
           0
100
AcDbLine
 10
10.064605321847
 20
1.756100642905
 30
0.0
 11
10.083837334126
 21
1.775332655184
 31
0.0
1001
ACAD
1000
TCW40_DEV_WIDTH
1002
{
1040
-3.0
1002
}
  0
LINE
  5
96
100
AcDbEntity
  8
0
 62
           0
100
AcDbLine
 10
9.960185077534
 20
1.651680398592
 30
0.0
 11
10.007345340642
 21
1.6988406617
 31
0.0
1001
ACAD
1000
TCW40_DEV_WIDTH
1002
{
1040
-3.0
1002
}
  0
LINE
  5
97
100
AcDbEntity
  8
0
 62
           0
100
AcDbLine
 10
9.858834409905
 20
1.568007400492
 30
0.0
 11
9.865377756536
 21
1.574550747124
 31
0.0
1001
ACAD
1000
TCW40_DEV_WIDTH
1002
{
1040
-3.0
1002
}
  0
LINE
  5
98
100
AcDbEntity
  8
0
 62
           0
100
AcDbLine
 10
9.886255844099
 20
1.595428834687
 30
0.0
 11
10.002107512633
 21
1.711280503221
 31
0.0
1001
ACAD
1000
TCW40_DEV_WIDTH
1002
{
1040
-3.0
1002
}
  0
LINE
  5
99
100
AcDbEntity
  8
0
 62
           0
100
AcDbLine
 10
9.841156740375
 20
1.568007400492
 30
0.0
 11
9.865377756536
 21
1.592228416653
 31
0.0
1001
ACAD
1000
TCW40_DEV_WIDTH
1002
{
1040
-3.0
1002
}
  0
LINE
  5
9A
100
AcDbEntity
  8
0
 62
           0
100
AcDbLine
 10
9.888694143345
 20
1.615544803462
 30
0.0
 11
9.996869684624
 21
1.723720344741
 31
0.0
1001
ACAD
1000
TCW40_DEV_WIDTH
1002
{
1040
-3.0
1002
}
  0
LINE
  5
9B
100
AcDbEntity
  8
0
 62
           0
100
AcDbLine
 10
9.823479070845
 20
1.568007400492
 30
0.0
 11
9.865377756536
 21
1.609906086183
 31
0.0
1001
ACAD
1000
TCW40_DEV_WIDTH
1002
{
1040
-3.0
1002
}
  0
LINE
  5
9C
100
AcDbEntity
  8
0
 62
           0
100
AcDbLine
 10
9.89113244259
 20
1.635660772237
 30
0.0
 11
9.991631856615
 21
1.736160186262
 31
0.0
1001
ACAD
1000
TCW40_DEV_WIDTH
1002
{
1040
-3.0
1002
}
  0
LINE
  5
9D
100
AcDbEntity
  8
0
 62
           0
100
AcDbLine
 10
9.805801401316
 20
1.568007400492
 30
0.0
 11
9.865377756536
 21
1.627583755713
 31
0.0
1001
ACAD
1000
TCW40_DEV_WIDTH
1002
{
1040
-3.0
1002
}
  0
LINE
  5
9E
100
AcDbEntity
  8
0
 62
           0
100
AcDbLine
 10
9.893570741836
 20
1.655776741012
 30
0.0
 11
9.986394028606
 21
1.748600027783
 31
0.0
1001
ACAD
1000
TCW40_DEV_WIDTH
1002
{
1040
-3.0
1002
}
  0
LINE
  5
9F
100
AcDbEntity
  8
0
 62
           0
100
AcDbLine
 10
9.798301938841
 20
1.578185607548
 30
0.0
 11
9.865377756536
 21
1.645261425242
 31
0.0
1001
ACAD
1000
TCW40_DEV_WIDTH
1002
{
1040
-3.0
1002
}
  0
LINE
  5
A0
100
AcDbEntity
  8
0
 62
           0
100
AcDbLine
 10
9.896009041081
 20
1.675892709788
 30
0.0
 11
9.981156200598
 21
1.761039869304
 31
0.0
1001
ACAD
1000
TCW40_DEV_WIDTH
1002
{
1040
-3.0
1002
}
  0
LINE
  5
A1
100
AcDbEntity
  8
0
 62
           0
100
AcDbLine
 10
9.798301938841
 20
1.595863277078
 30
0.0
 11
9.865377756536
 21
1.662939094772
 31
0.0
1001
ACAD
1000
TCW40_DEV_WIDTH
1002
{
1040
-3.0
1002
}
  0
LINE
  5
A2
100
AcDbEntity
  8
0
 62
           0
100
AcDbLine
 10
9.898447340327
 20
1.696008678563
 30
0.0
 11
9.975918372589
 21
1.773479710825
 31
0.0
1001
ACAD
1000
TCW40_DEV_WIDTH
1002
{
1040
-3.0
1002
}
  0
LINE
  5
A3
100
AcDbEntity
  8
0
 62
           0
100
AcDbLine
 10
9.758866194335
 20
1.574105202101
 30
0.0
 11
9.767812930799
 21
1.583051938564
 31
0.0
1001
ACAD
1000
TCW40_DEV_WIDTH
1002
{
1040
-3.0
1002
}
  0
LINE
  5
A4
100
AcDbEntity
  8
0
 62
           0
100
AcDbLine
 10
9.900885639572
 20
1.716124647338
 30
0.0
 11
9.960093647418
 21
1.775332655184
 31
0.0
1001
ACAD
1000
TCW40_DEV_WIDTH
1002
{
1040
-3.0
1002
}
  0
LINE
  5
A5
100
AcDbEntity
  8
0
 62
           0
100
AcDbLine
 10
9.798301938841
 20
1.613540946607
 30
0.0
 11
9.865377756536
 21
1.680616764302
 31
0.0
1001
ACAD
1000
TCW40_DEV_WIDTH
1002
{
1040
-3.0
1002
}
  0
LINE
  5
A6
100
AcDbEntity
  8
0
 62
           0
100
AcDbLine
 10
9.741188524806
 20
1.574105202101
 30
0.0
 11
9.767812930799
 21
1.600729608094
 31
0.0
1001
ACAD
1000
TCW40_DEV_WIDTH
1002
{
1040
-3.0
1002
}
  0
LINE
  5
A7
100
AcDbEntity
  8
0
 62
           0
100
AcDbLine
 10
9.903323938818
 20
1.736240616113
 30
0.0
 11
9.942415977889
 21
1.775332655184
 31
0.0
1001
ACAD
1000
TCW40_DEV_WIDTH
1002
{
1040
-3.0
1002
}
  0
LINE
  5
A8
100
AcDbEntity
  8
0
 62
           0
100
AcDbLine
 10
9.798301938841
 20
1.631218616137
 30
0.0
 11
9.865377756536
 21
1.698294433831
 31
0.0
1001
ACAD
1000
TCW40_DEV_WIDTH
1002
{
1040
-3.0
1002
}
  0
LINE
  5
A9
100
AcDbEntity
  8
0
 62
           0
100
AcDbLine
 10
9.723510855276
 20
1.574105202101
 30
0.0
 11
9.767812930799
 21
1.618407277624
 31
0.0
1001
ACAD
1000
TCW40_DEV_WIDTH
1002
{
1040
-3.0
1002
}
  0
LINE
  5
AA
100
AcDbEntity
  8
0
 62
           0
100
AcDbLine
 10
9.905762238063
 20
1.756356584888
 30
0.0
 11
9.924738308359
 21
1.775332655184
 31
0.0
1001
ACAD
1000
TCW40_DEV_WIDTH
1002
{
1040
-3.0
1002
}
  0
LINE
  5
AB
100
AcDbEntity
  8
0
 62
           0
100
AcDbLine
 10
9.798301938841
 20
1.648896285667
 30
0.0
 11
9.865377756536
 21
1.715972103361
 31
0.0
1001
ACAD
1000
TCW40_DEV_WIDTH
1002
{
1040
-3.0
1002
}
  0
LINE
  5
AC
100
AcDbEntity
  8
0
 62
           0
100
AcDbLine
 10
9.705833185746
 20
1.574105202101
 30
0.0
 11
9.767812930799
 21
1.636084947153
 31
0.0
1001
ACAD
1000
TCW40_DEV_WIDTH
1002
{
1040
-3.0
1002
}
  0
LINE
  5
AD
100
AcDbEntity
  8
0
 62
           0
100
AcDbLine
 10
9.798301938841
 20
1.666573955196
 30
0.0
 11
9.865377756536
 21
1.733649772891
 31
0.0
1001
ACAD
1000
TCW40_DEV_WIDTH
1002
{
1040
-3.0
1002
}
  0
LINE
  5
AE
100
AcDbEntity
  8
0
 62
           0
100
AcDbLine
 10
9.700737113104
 20
1.586686798989
 30
0.0
 11
9.767812930799
 21
1.653762616683
 31
0.0
1001
ACAD
1000
TCW40_DEV_WIDTH
1002
{
1040
-3.0
1002
}
  0
LINE
  5
AF
100
AcDbEntity
  8
0
 62
           0
100
AcDbLine
 10
9.798301938841
 20
1.684251624726
 30
0.0
 11
9.865377756536
 21
1.75132744242
 31
0.0
1001
ACAD
1000
TCW40_DEV_WIDTH
1002
{
1040
-3.0
1002
}
  0
LINE
  5
B0
100
AcDbEntity
  8
0
 62
           0
100
AcDbLine
 10
9.700737113104
 20
1.604364468518
 30
0.0
 11
9.767812930799
 21
1.671440286213
 31
0.0
1001
ACAD
1000
TCW40_DEV_WIDTH
1002
{
1040
-3.0
1002
}
  0
LINE
  5
B1
100
AcDbEntity
  8
0
 62
           0
100
AcDbLine
 10
9.798301938841
 20
1.701929294255
 30
0.0
 11
9.865377756536
 21
1.76900511195
 31
0.0
1001
ACAD
1000
TCW40_DEV_WIDTH
1002
{
1040
-3.0
1002
}
  0
LINE
  5
B2
100
AcDbEntity
  8
0
 62
           0
100
AcDbLine
 10
9.700737113104
 20
1.622042138048
 30
0.0
 11
9.767812930799
 21
1.689117955742
 31
0.0
1001
ACAD
1000
TCW40_DEV_WIDTH
1002
{
1040
-3.0
1002
}
  0
LINE
  5
B3
100
AcDbEntity
  8
0
 62
           0
100
AcDbLine
 10
9.798301938841
 20
1.719606963785
 30
0.0
 11
9.85402763024
 21
1.775332655184
 31
0.0
1001
ACAD
1000
TCW40_DEV_WIDTH
1002
{
1040
-3.0
1002
}
  0
LINE
  5
B4
100
AcDbEntity
  8
0
 62
           0
100
AcDbLine
 10
9.700737113104
 20
1.639719807578
 30
0.0
 11
9.767812930799
 21
1.706795625272
 31
0.0
1001
ACAD
1000
TCW40_DEV_WIDTH
1002
{
1040
-3.0
1002
}
  0
LINE
  5
B5
100
AcDbEntity
  8
0
 62
           0
100
AcDbLine
 10
9.798301938841
 20
1.737284633315
 30
0.0
 11
9.836349960711
 21
1.775332655184
 31
0.0
1001
ACAD
1000
TCW40_DEV_WIDTH
1002
{
1040
-3.0
1002
}
  0
LINE
  5
B6
100
AcDbEntity
  8
0
 62
           0
100
AcDbLine
 10
9.690618457401
 20
1.647278821404
 30
0.0
 11
9.767812930799
 21
1.724473294802
 31
0.0
1001
ACAD
1000
TCW40_DEV_WIDTH
1002
{
1040
-3.0
1002
}
  0
LINE
  5
B7
100
AcDbEntity
  8
0
 62
           0
100
AcDbLine
 10
9.798301938841
 20
1.754962302844
 30
0.0
 11
9.818672291181
 21
1.775332655184
 31
0.0
1001
ACAD
1000
TCW40_DEV_WIDTH
1002
{
1040
-3.0
1002
}
  0
LINE
  5
B8
100
AcDbEntity
  8
0
 62
           0
100
AcDbLine
 10
9.672940787871
 20
1.647278821404
 30
0.0
 11
9.767812930799
 21
1.742150964331
 31
0.0
1001
ACAD
1000
TCW40_DEV_WIDTH
1002
{
1040
-3.0
1002
}
  0
LINE
  5
B9
100
AcDbEntity
  8
0
 62
           0
100
AcDbLine
 10
9.798301938841
 20
1.772639972374
 30
0.0
 11
9.800994621651
 21
1.775332655184
 31
0.0
1001
ACAD
1000
TCW40_DEV_WIDTH
1002
{
1040
-3.0
1002
}
  0
LINE
  5
BA
100
AcDbEntity
  8
0
 62
           0
100
AcDbLine
 10
9.582089499039
 20
1.574105202101
 30
0.0
 11
9.597074485758
 21
1.589090188821
 31
0.0
1001
ACAD
1000
TCW40_DEV_WIDTH
1002
{
1040
-3.0
1002
}
  0
LINE
  5
BB
100
AcDbEntity
  8
0
 62
           0
100
AcDbLine
 10
9.655263118342
 20
1.647278821404
 30
0.0
 11
9.767812930799
 21
1.759828633861
 31
0.0
1001
ACAD
1000
TCW40_DEV_WIDTH
1002
{
1040
-3.0
1002
}
  0
LINE
  5
BC
100
AcDbEntity
  8
0
 62
           0
100
AcDbLine
 10
9.564411829509
 20
1.574105202101
 30
0.0
 11
9.597074485758
 21
1.60676785835
 31
0.0
1001
ACAD
1000
TCW40_DEV_WIDTH
1002
{
1040
-3.0
1002
}
  0
LINE
  5
BD
100
AcDbEntity
  8
0
 62
           0
100
AcDbLine
 10
9.700737113104
 20
1.710430485696
 30
0.0
 11
9.765639282592
 21
1.775332655184
 31
0.0
1001
ACAD
1000
TCW40_DEV_WIDTH
1002
{
1040
-3.0
1002
}
  0
LINE
  5
BE
100
AcDbEntity
  8
0
 62
           0
100
AcDbLine
 10
9.637585448812
 20
1.647278821404
 30
0.0
 11
9.68636786168
 21
1.696061234272
 31
0.0
1001
ACAD
1000
TCW40_DEV_WIDTH
1002
{
1040
-3.0
1002
}
  0
LINE
  5
BF
100
AcDbEntity
  8
0
 62
           0
100
AcDbLine
 10
9.546734159979
 20
1.574105202101
 30
0.0
 11
9.597074485758
 21
1.62444552788
 31
0.0
1001
ACAD
1000
TCW40_DEV_WIDTH
1002
{
1040
-3.0
1002
}
  0
LINE
  5
C0
100
AcDbEntity
  8
0
 62
           0
100
AcDbLine
 10
9.700737113104
 20
1.728108155226
 30
0.0
 11
9.747961613062
 21
1.775332655184
 31
0.0
1001
ACAD
1000
TCW40_DEV_WIDTH
1002
{
1040
-3.0
1002
}
  0
LINE
  5
C1
100
AcDbEntity
  8
0
 62
           0
100
AcDbLine
 10
9.619907779282
 20
1.647278821404
 30
0.0
 11
9.668690192151
 21
1.696061234272
 31
0.0
1001
ACAD
1000
TCW40_DEV_WIDTH
1002
{
1040
-3.0
1002
}
  0
LINE
  5
C2
100
AcDbEntity
  8
0
 62
           0
100
AcDbLine
 10
9.536096469673
 20
1.581145181324
 30
0.0
 11
9.597074485758
 21
1.64212319741
 31
0.0
1001
ACAD
1000
TCW40_DEV_WIDTH
1002
{
1040
-3.0
1002
}
  0
LINE
  5
C3
100
AcDbEntity
  8
0
 62
           0
100
AcDbLine
 10
9.700737113104
 20
1.745785824756
 30
0.0
 11
9.730283943533
 21
1.775332655184
 31
0.0
1001
ACAD
1000
TCW40_DEV_WIDTH
1002
{
1040
-3.0
1002
}
  0
LINE
  5
C4
100
AcDbEntity
  8
0
 62
           0
100
AcDbLine
 10
9.602230109753
 20
1.647278821404
 30
0.0
 11
9.651012522621
 21
1.696061234272
 31
0.0
1001
ACAD
1000
TCW40_DEV_WIDTH
1002
{
1040
-3.0
1002
}
  0
LINE
  5
C5
100
AcDbEntity
  8
0
 62
           0
100
AcDbLine
 10
9.536096469673
 20
1.598822850854
 30
0.0
 11
9.633334853091
 21
1.696061234272
 31
0.0
1001
ACAD
1000
TCW40_DEV_WIDTH
1002
{
1040
-3.0
1002
}
  0
LINE
  5
C6
100
AcDbEntity
  8
0
 62
           0
100
AcDbLine
 10
9.700737113104
 20
1.763463494285
 30
0.0
 11
9.712606274003
 21
1.775332655184
 31
0.0
1001
ACAD
1000
TCW40_DEV_WIDTH
1002
{
1040
-3.0
1002
}
  0
LINE
  5
C7
100
AcDbEntity
  8
0
 62
           0
100
AcDbLine
 10
9.536096469673
 20
1.616500520383
 30
0.0
 11
9.615657183562
 21
1.696061234272
 31
0.0
1001
ACAD
1000
TCW40_DEV_WIDTH
1002
{
1040
-3.0
1002
}
  0
LINE
  5
C8
100
AcDbEntity
  8
0
 62
           0
100
AcDbLine
 10
9.494316886686
 20
1.592398606927
 30
0.0
 11
9.499509660021
 21
1.597591380261
 31
0.0
1001
ACAD
1000
TCW40_DEV_WIDTH
1002
{
1040
-3.0
1002
}
  0
LINE
  5
C9
100
AcDbEntity
  8
0
 62
           0
100
AcDbLine
 10
9.536096469673
 20
1.634178189913
 30
0.0
 11
9.597979514032
 21
1.696061234272
 31
0.0
1001
ACAD
1000
TCW40_DEV_WIDTH
1002
{
1040
-3.0
1002
}
  0
LINE
  5
CA
100
AcDbEntity
  8
0
 62
           0
100
AcDbLine
 10
9.500414688295
 20
1.598496408535
 30
0.0
 11
9.50560746163
 21
1.60368918187
 31
0.0
1001
ACAD
1000
TCW40_DEV_WIDTH
1002
{
1040
-3.0
1002
}
  0
LINE
  5
CB
100
AcDbEntity
  8
0
 62
           0
100
AcDbLine
 10
9.506512489903
 20
1.604594210144
 30
0.0
 11
9.511705263238
 21
1.609786983479
 31
0.0
1001
ACAD
1000
TCW40_DEV_WIDTH
1002
{
1040
-3.0
1002
}
  0
LINE
  5
CC
100
AcDbEntity
  8
0
 62
           0
100
AcDbLine
 10
9.464443613939
 20
1.580203003709
 30
0.0
 11
9.517803064847
 21
1.633562454617
 31
0.0
1001
ACAD
1000
TCW40_DEV_WIDTH
1002
{
1040
-3.0
1002
}
  0
LINE
  5
CD
100
AcDbEntity
  8
0
 62
           0
100
AcDbLine
 10
9.536096469673
 20
1.651855859443
 30
0.0
 11
9.597074485758
 21
1.712833875528
 31
0.0
1001
ACAD
1000
TCW40_DEV_WIDTH
1002
{
1040
-3.0
1002
}
  0
LINE
  5
CE
100
AcDbEntity
  8
0
 62
           0
100
AcDbLine
 10
9.440668142801
 20
1.574105202101
 30
0.0
 11
9.444629445544
 21
1.578066504844
 31
0.0
1001
ACAD
1000
TCW40_DEV_WIDTH
1002
{
1040
-3.0
1002
}
  0
LINE
  5
CF
100
AcDbEntity
  8
0
 62
           0
100
AcDbLine
 10
9.536096469673
 20
1.669533528972
 30
0.0
 11
9.597074485758
 21
1.730511545058
 31
0.0
1001
ACAD
1000
TCW40_DEV_WIDTH
1002
{
1040
-3.0
1002
}
  0
LINE
  5
D0
100
AcDbEntity
  8
0
 62
           0
100
AcDbLine
 10
9.44676594441
 20
1.580203003709
 30
0.0
 11
9.513841762104
 21
1.647278821404
 31
0.0
1001
ACAD
1000
TCW40_DEV_WIDTH
1002
{
1040
-3.0
1002
}
  0
LINE
  5
D1
100
AcDbEntity
  8
0
 62
           0
100
AcDbLine
 10
9.422990473272
 20
1.574105202101
 30
0.0
 11
9.508359695792
 21
1.659474424621
 31
0.0
1001
ACAD
1000
TCW40_DEV_WIDTH
1002
{
1040
-3.0
1002
}
  0
LINE
  5
D2
100
AcDbEntity
  8
0
 62
           0
100
AcDbLine
 10
9.536096469673
 20
1.687211198502
 30
0.0
 11
9.597074485758
 21
1.748189214588
 31
0.0
1001
ACAD
1000
TCW40_DEV_WIDTH
1002
{
1040
-3.0
1002
}
  0
LINE
  5
D3
100
AcDbEntity
  8
0
 62
           0
100
AcDbLine
 10
9.405312803742
 20
1.574105202101
 30
0.0
 11
9.441899613393
 21
1.610692011752
 31
0.0
1001
ACAD
1000
TCW40_DEV_WIDTH
1002
{
1040
-3.0
1002
}
  0
LINE
  5
D4
100
AcDbEntity
  8
0
 62
           0
100
AcDbLine
 10
9.536096469673
 20
1.704888868032
 30
0.0
 11
9.597074485758
 21
1.765866884117
 31
0.0
1001
ACAD
1000
TCW40_DEV_WIDTH
1002
{
1040
-3.0
1002
}
  0
LINE
  5
D5
100
AcDbEntity
  8
0
 62
           0
100
AcDbLine
 10
9.444629445544
 20
1.613421843903
 30
0.0
 11
9.447997415002
 21
1.616789813361
 31
0.0
1001
ACAD
1000
TCW40_DEV_WIDTH
1002
{
1040
-3.0
1002
}
  0
LINE
  5
D6
100
AcDbEntity
  8
0
 62
           0
100
AcDbLine
 10
9.450727247152
 20
1.619519645511
 30
0.0
 11
9.498144743946
 21
1.666937142305
 31
0.0
1001
ACAD
1000
TCW40_DEV_WIDTH
1002
{
1040
-3.0
1002
}
  0
LINE
  5
D7
100
AcDbEntity
  8
0
 62
           0
100
AcDbLine
 10
9.387635134212
 20
1.574105202101
 30
0.0
 11
9.424221943864
 21
1.610692011752
 31
0.0
1001
ACAD
1000
TCW40_DEV_WIDTH
1002
{
1040
-3.0
1002
}
  0
LINE
  5
D8
100
AcDbEntity
  8
0
 62
           0
100
AcDbLine
 10
9.536096469673
 20
1.722566537561
 30
0.0
 11
9.588862587295
 21
1.775332655184
 31
0.0
1001
ACAD
1000
TCW40_DEV_WIDTH
1002
{
1040
-3.0
1002
}
  0
LINE
  5
D9
100
AcDbEntity
  8
0
 62
           0
100
AcDbLine
 10
9.444629445544
 20
1.631099513433
 30
0.0
 11
9.486257008377
 21
1.672727076265
 31
0.0
1001
ACAD
1000
TCW40_DEV_WIDTH
1002
{
1040
-3.0
1002
}
  0
LINE
  5
DA
100
AcDbEntity
  8
0
 62
           0
100
AcDbLine
 10
9.369957464683
 20
1.574105202101
 30
0.0
 11
9.406544274334
 21
1.610692011752
 31
0.0
1001
ACAD
1000
TCW40_DEV_WIDTH
1002
{
1040
-3.0
1002
}
  0
LINE
  5
DB
100
AcDbEntity
  8
0
 62
           0
100
AcDbLine
 10
9.536096469673
 20
1.740244207091
 30
0.0
 11
9.571184917766
 21
1.775332655184
 31
0.0
1001
ACAD
1000
TCW40_DEV_WIDTH
1002
{
1040
-3.0
1002
}
  0
LINE
  5
DC
100
AcDbEntity
  8
0
 62
           0
100
AcDbLine
 10
9.431684661548
 20
1.635832398966
 30
0.0
 11
9.473620092028
 21
1.677767829447
 31
0.0
1001
ACAD
1000
TCW40_DEV_WIDTH
1002
{
1040
-3.0
1002
}
  0
LINE
  5
DD
100
AcDbEntity
  8
0
 62
           0
100
AcDbLine
 10
9.352279795153
 20
1.574105202101
 30
0.0
 11
9.388866604804
 21
1.610692011752
 31
0.0
1001
ACAD
1000
TCW40_DEV_WIDTH
1002
{
1040
-3.0
1002
}
  0
LINE
  5
DE
100
AcDbEntity
  8
0
 62
           0
100
AcDbLine
 10
9.536096469673
 20
1.757921876621
 30
0.0
 11
9.553507248236
 21
1.775332655184
 31
0.0
1001
ACAD
1000
TCW40_DEV_WIDTH
1002
{
1040
-3.0
1002
}
  0
LINE
  5
DF
100
AcDbEntity
  8
0
 62
           0
100
AcDbLine
 10
9.419355612847
 20
1.641181019795
 30
0.0
 11
9.462040224107
 21
1.683865631055
 31
0.0
1001
ACAD
1000
TCW40_DEV_WIDTH
1002
{
1040
-3.0
1002
}
  0
LINE
  5
E0
100
AcDbEntity
  8
0
 62
           0
100
AcDbLine
 10
9.483823842869
 20
1.705649249816
 30
0.0
 11
9.497771268239
 21
1.719596675187
 31
0.0
1001
ACAD
1000
TCW40_DEV_WIDTH
1002
{
1040
-3.0
1002
}
  0
LINE
  5
E1
100
AcDbEntity
  8
0
 62
           0
100
AcDbLine
 10
9.337784471911
 20
1.577287548388
 30
0.0
 11
9.371188935275
 21
1.610692011752
 31
0.0
1001
ACAD
1000
TCW40_DEV_WIDTH
1002
{
1040
-3.0
1002
}
  0
LINE
  5
E2
100
AcDbEntity
  8
0
 62
           0
100
AcDbLine
 10
9.469020651978
 20
1.708523728456
 30
0.0
 11
9.503663824749
 21
1.743166901227
 31
0.0
1001
ACAD
1000
TCW40_DEV_WIDTH
1002
{
1040
-3.0
1002
}
  0
LINE
  5
E3
100
AcDbEntity
  8
0
 62
           0
100
AcDbLine
 10
9.407775744926
 20
1.647278821404
 30
0.0
 11
9.447544900865
 21
1.687047977343
 31
0.0
1001
ACAD
1000
TCW40_DEV_WIDTH
1002
{
1040
-3.0
1002
}
  0
LINE
  5
E4
100
AcDbEntity
  8
0
 62
           0
100
AcDbLine
 10
9.323022257702
 20
1.580203003709
 30
0.0
 11
9.359609067354
 21
1.616789813361
 31
0.0
1001
ACAD
1000
TCW40_DEV_WIDTH
1002
{
1040
-3.0
1002
}
  0
LINE
  5
E5
100
AcDbEntity
  8
0
 62
           0
100
AcDbLine
 10
9.457173893091
 20
1.714354639098
 30
0.0
 11
9.499509660021
 21
1.756690406028
 31
0.0
1001
ACAD
1000
TCW40_DEV_WIDTH
1002
{
1040
-3.0
1002
}
  0
LINE
  5
E6
100
AcDbEntity
  8
0
 62
           0
100
AcDbLine
 10
9.390098075397
 20
1.647278821404
 30
0.0
 11
9.432782686657
 21
1.689963432664
 31
0.0
1001
ACAD
1000
TCW40_DEV_WIDTH
1002
{
1040
-3.0
1002
}
  0
LINE
  5
E7
100
AcDbEntity
  8
0
 62
           0
100
AcDbLine
 10
9.305344588173
 20
1.580203003709
 30
0.0
 11
9.341931397824
 21
1.616789813361
 31
0.0
1001
ACAD
1000
TCW40_DEV_WIDTH
1002
{
1040
-3.0
1002
}
  0
LINE
  5
E8
100
AcDbEntity
  8
0
 62
           0
100
AcDbLine
 10
9.44559402517
 20
1.720452440707
 30
0.0
 11
9.482180834821
 21
1.757039250358
 31
0.0
1001
ACAD
1000
TCW40_DEV_WIDTH
1002
{
1040
-3.0
1002
}
  0
LINE
  5
E9
100
AcDbEntity
  8
0
 62
           0
100
AcDbLine
 10
9.372420405867
 20
1.647278821404
 30
0.0
 11
9.42023823911
 21
1.695096654647
 31
0.0
1001
ACAD
1000
TCW40_DEV_WIDTH
1002
{
1040
-3.0
1002
}
  0
LINE
  5
EA
100
AcDbEntity
  8
0
 62
           0
100
AcDbLine
 10
9.293764720251
 20
1.586300805318
 30
0.0
 11
9.330351529903
 21
1.62288761497
 31
0.0
1001
ACAD
1000
TCW40_DEV_WIDTH
1002
{
1040
-3.0
1002
}
  0
LINE
  5
EB
100
AcDbEntity
  8
0
 62
           0
100
AcDbLine
 10
9.430175098983
 20
1.72271118405
 30
0.0
 11
9.4706009669
 21
1.763137051967
 31
0.0
1001
ACAD
1000
TCW40_DEV_WIDTH
1002
{
1040
-3.0
1002
}
  0
LINE
  5
EC
100
AcDbEntity
  8
0
 62
           0
100
AcDbLine
 10
9.354742736337
 20
1.647278821404
 30
0.0
 11
9.403525149206
 21
1.696061234272
 31
0.0
1001
ACAD
1000
TCW40_DEV_WIDTH
1002
{
1040
-3.0
1002
}
  0
LINE
  5
ED
100
AcDbEntity
  8
0
 62
           0
100
AcDbLine
 10
9.279988802112
 20
1.590202556709
 30
0.0
 11
9.312673860373
 21
1.62288761497
 31
0.0
1001
ACAD
1000
TCW40_DEV_WIDTH
1002
{
1040
-3.0
1002
}
  0
LINE
  5
EE
100
AcDbEntity
  8
0
 62
           0
100
AcDbLine
 10
9.416336487719
 20
1.726550242315
 30
0.0
 11
9.45792307387
 21
1.768136828466
 31
0.0
1001
ACAD
1000
TCW40_DEV_WIDTH
1002
{
1040
-3.0
1002
}
  0
LINE
  5
EF
100
AcDbEntity
  8
0
 62
           0
100
AcDbLine
 10
9.343162868416
 20
1.653376623012
 30
0.0
 11
9.391945281285
 21
1.702159035881
 31
0.0
1001
ACAD
1000
TCW40_DEV_WIDTH
1002
{
1040
-3.0
1002
}
  0
LINE
  5
F0
100
AcDbEntity
  8
0
 62
           0
100
AcDbLine
 10
9.267793198895
 20
1.595684623021
 30
0.0
 11
9.301093992452
 21
1.628985416578
 31
0.0
1001
ACAD
1000
TCW40_DEV_WIDTH
1002
{
1040
-3.0
1002
}
  0
LINE
  5
F1
100
AcDbEntity
  8
0
 62
           0
100
AcDbLine
 10
9.400301826237
 20
1.728193250363
 30
0.0
 11
9.441343429449
 21
1.769234853575
 31
0.0
1001
ACAD
1000
TCW40_DEV_WIDTH
1002
{
1040
-3.0
1002
}
  0
LINE
  5
F2
100
AcDbEntity
  8
0
 62
           0
100
AcDbLine
 10
9.325485198886
 20
1.653376623012
 30
0.0
 11
9.374267611755
 21
1.702159035881
 31
0.0
1001
ACAD
1000
TCW40_DEV_WIDTH
1002
{
1040
-3.0
1002
}
  0
LINE
  5
F3
100
AcDbEntity
  8
0
 62
           0
100
AcDbLine
 10
9.265202630249
 20
1.610771723905
 30
0.0
 11
9.289514124531
 21
1.635083218187
 31
0.0
1001
ACAD
1000
TCW40_DEV_WIDTH
1002
{
1040
-3.0
1002
}
  0
LINE
  5
F4
100
AcDbEntity
  8
0
 62
           0
100
AcDbLine
 10
9.387078950268
 20
1.732648043924
 30
0.0
 11
9.425000900319
 21
1.770569993975
 31
0.0
1001
ACAD
1000
TCW40_DEV_WIDTH
1002
{
1040
-3.0
1002
}
  0
LINE
  5
F5
100
AcDbEntity
  8
0
 62
           0
100
AcDbLine
 10
9.313905330965
 20
1.659474424621
 30
0.0
 11
9.356589942225
 21
1.702159035881
 31
0.0
1001
ACAD
1000
TCW40_DEV_WIDTH
1002
{
1040
-3.0
1002
}
  0
LINE
  5
F6
100
AcDbEntity
  8
0
 62
           0
100
AcDbLine
 10
9.272273698061
 20
1.635520461246
 30
0.0
 11
9.27793425661
 21
1.641181019795
 31
0.0
1001
ACAD
1000
TCW40_DEV_WIDTH
1002
{
1040
-3.0
1002
}
  0
LINE
  5
F7
100
AcDbEntity
  8
0
 62
           0
100
AcDbLine
 10
9.369401280739
 20
1.732648043924
 30
0.0
 11
9.412085891999
 21
1.775332655184
 31
0.0
1001
ACAD
1000
TCW40_DEV_WIDTH
1002
{
1040
-3.0
1002
}
  0
LINE
  5
F8
100
AcDbEntity
  8
0
 62
           0
100
AcDbLine
 10
9.297254934187
 20
1.660501697372
 30
0.0
 11
9.338912272696
 21
1.702159035881
 31
0.0
1001
ACAD
1000
TCW40_DEV_WIDTH
1002
{
1040
-3.0
1002
}
  0
LINE
  5
F9
100
AcDbEntity
  8
0
 62
           0
100
AcDbLine
 10
9.284647793515
 20
1.66557222623
 30
0.0
 11
9.327332404775
 21
1.70825683749
 31
0.0
1001
ACAD
1000
TCW40_DEV_WIDTH
1002
{
1040
-3.0
1002
}
  0
LINE
  5
FA
100
AcDbEntity
  8
0
 62
           0
100
AcDbLine
 10
9.355491917116
 20
1.736416349831
 30
0.0
 11
9.394408222469
 21
1.775332655184
 31
0.0
1001
ACAD
1000
TCW40_DEV_WIDTH
1002
{
1040
-3.0
1002
}
  0
LINE
  5
FB
100
AcDbEntity
  8
0
 62
           0
100
AcDbLine
 10
9.273479463049
 20
1.672081565293
 30
0.0
 11
9.315752536854
 21
1.714354639098
 31
0.0
1001
ACAD
1000
TCW40_DEV_WIDTH
1002
{
1040
-3.0
1002
}
  0
LINE
  5
FC
100
AcDbEntity
  8
0
 62
           0
100
AcDbLine
 10
9.340143743288
 20
1.738745845533
 30
0.0
 11
9.376730552939
 21
1.775332655184
 31
0.0
1001
ACAD
1000
TCW40_DEV_WIDTH
1002
{
1040
-3.0
1002
}
  0
LINE
  5
FD
100
AcDbEntity
  8
0
 62
           0
100
AcDbLine
 10
9.264640628284
 20
1.680920400058
 30
0.0
 11
9.35905288341
 21
1.775332655184
 31
0.0
1001
ACAD
1000
TCW40_DEV_WIDTH
1002
{
1040
-3.0
1002
}
  0
LINE
  5
FE
100
AcDbEntity
  8
0
 62
           0
100
AcDbLine
 10
9.255801793519
 20
1.689759234823
 30
0.0
 11
9.34137521388
 21
1.775332655184
 31
0.0
1001
ACAD
1000
TCW40_DEV_WIDTH
1002
{
1040
-3.0
1002
}
  0
LINE
  5
FF
100
AcDbEntity
  8
0
 62
           0
100
AcDbLine
 10
9.250011859558
 20
1.701646970392
 30
0.0
 11
9.32369754435
 21
1.775332655184
 31
0.0
1001
ACAD
1000
TCW40_DEV_WIDTH
1002
{
1040
-3.0
1002
}
  0
LINE
  5
100
100
AcDbEntity
  8
0
 62
           0
100
AcDbLine
 10
9.249499794069
 20
1.718812574433
 30
0.0
 11
9.299922073212
 21
1.769234853575
 31
0.0
1001
ACAD
1000
TCW40_DEV_WIDTH
1002
{
1040
-3.0
1002
}
  0
LINE
  5
101
100
AcDbEntity
  8
0
 62
           0
100
AcDbLine
 10
9.261695397286
 20
1.748685847179
 30
0.0
 11
9.263950998857
 21
1.75094144875
 31
0.0
1001
ACAD
1000
TCW40_DEV_WIDTH
1002
{
1040
-3.0
1002
}
  0
LINE
  5
102
100
AcDbEntity
  8
0
 62
           0
100
AcDbLine
 10
10.796536522365
 20
1.745569723177
 30
0.0
 11
10.807272112181
 21
1.756305312993
 31
0.0
1001
ACAD
1000
TCW40_DEV_WIDTH
1002
{
1040
-3.0
1002
}
  0
LINE
  5
103
100
AcDbEntity
  8
0
 62
           0
100
AcDbLine
 10
10.807903617464
 20
1.756936818276
 30
0.0
 11
10.820201652763
 21
1.769234853575
 31
0.0
1001
ACAD
1000
TCW40_DEV_WIDTH
1002
{
1040
-3.0
1002
}
  0
LINE
  5
104
100
AcDbEntity
  8
0
 62
           0
100
AcDbLine
 10
10.796536522365
 20
1.727892053648
 30
0.0
 11
10.818075132449
 21
1.749430663732
 31
0.0
1001
ACAD
1000
TCW40_DEV_WIDTH
1002
{
1040
-3.0
1002
}
  0
LINE
  5
105
100
AcDbEntity
  8
0
 62
           0
100
AcDbLine
 10
10.819342109513
 20
1.750697640795
 30
0.0
 11
10.837879322293
 21
1.769234853575
 31
0.0
1001
ACAD
1000
TCW40_DEV_WIDTH
1002
{
1040
-3.0
1002
}
  0
LINE
  5
106
100
AcDbEntity
  8
0
 62
           0
100
AcDbLine
 10
10.796536522365
 20
1.710214384118
 30
0.0
 11
10.828878152717
 21
1.74255601447
 31
0.0
1001
ACAD
1000
TCW40_DEV_WIDTH
1002
{
1040
-3.0
1002
}
  0
LINE
  5
107
100
AcDbEntity
  8
0
 62
           0
100
AcDbLine
 10
10.830780601561
 20
1.744458463314
 30
0.0
 11
10.861654793431
 21
1.775332655184
 31
0.0
1001
ACAD
1000
TCW40_DEV_WIDTH
1002
{
1040
-3.0
1002
}
  0
LINE
  5
108
100
AcDbEntity
  8
0
 62
           0
100
AcDbLine
 10
10.796536522365
 20
1.692536714588
 30
0.0
 11
10.839681172985
 21
1.735681365209
 31
0.0
1001
ACAD
1000
TCW40_DEV_WIDTH
1002
{
1040
-3.0
1002
}
  0
LINE
  5
109
100
AcDbEntity
  8
0
 62
           0
100
AcDbLine
 10
10.84221909361
 20
1.738219285833
 30
0.0
 11
10.879332462961
 21
1.775332655184
 31
0.0
1001
ACAD
1000
TCW40_DEV_WIDTH
1002
{
1040
-3.0
1002
}
  0
LINE
  5
10A
100
AcDbEntity
  8
0
 62
           0
100
AcDbLine
 10
10.796536522365
 20
1.674859045059
 30
0.0
 11
10.850484193253
 21
1.728806715947
 31
0.0
1001
ACAD
1000
TCW40_DEV_WIDTH
1002
{
1040
-3.0
1002
}
  0
LINE
  5
10B
100
AcDbEntity
  8
0
 62
           0
100
AcDbLine
 10
10.853657585659
 20
1.731980108352
 30
0.0
 11
10.89701013249
 21
1.775332655184
 31
0.0
1001
ACAD
1000
TCW40_DEV_WIDTH
1002
{
1040
-3.0
1002
}
  0
LINE
  5
10C
100
AcDbEntity
  8
0
 62
           0
100
AcDbLine
 10
10.796536522365
 20
1.657181375529
 30
0.0
 11
10.861287213522
 21
1.721932066685
 31
0.0
1001
ACAD
1000
TCW40_DEV_WIDTH
1002
{
1040
-3.0
1002
}
  0
LINE
  5
10D
100
AcDbEntity
  8
0
 62
           0
100
AcDbLine
 10
10.865905389152
 20
1.726550242315
 30
0.0
 11
10.91468780202
 21
1.775332655184
 31
0.0
1001
ACAD
1000
TCW40_DEV_WIDTH
1002
{
1040
-3.0
1002
}
  0
LINE
  5
10E
100
AcDbEntity
  8
0
 62
           0
100
AcDbLine
 10
10.796536522365
 20
1.639503705999
 30
0.0
 11
10.863612340059
 21
1.706579523694
 31
0.0
1001
ACAD
1000
TCW40_DEV_WIDTH
1002
{
1040
-3.0
1002
}
  0
LINE
  5
10F
100
AcDbEntity
  8
0
 62
           0
100
AcDbLine
 10
10.88968086029
 20
1.732648043924
 30
0.0
 11
10.926267669941
 21
1.769234853575
 31
0.0
1001
ACAD
1000
TCW40_DEV_WIDTH
1002
{
1040
-3.0
1002
}
  0
LINE
  5
110
100
AcDbEntity
  8
0
 62
           0
100
AcDbLine
 10
10.796536522365
 20
1.62182603647
 30
0.0
 11
10.863612340059
 21
1.688901854164
 31
0.0
1001
ACAD
1000
TCW40_DEV_WIDTH
1002
{
1040
-3.0
1002
}
  0
LINE
  5
111
100
AcDbEntity
  8
0
 62
           0
100
AcDbLine
 10
10.907358529819
 20
1.732648043924
 30
0.0
 11
10.943945339471
 21
1.769234853575
 31
0.0
1001
ACAD
1000
TCW40_DEV_WIDTH
1002
{
1040
-3.0
1002
}
  0
LINE
  5
112
100
AcDbEntity
  8
0
 62
           0
100
AcDbLine
 10
10.796536522365
 20
1.60414836694
 30
0.0
 11
10.863612340059
 21
1.671224184634
 31
0.0
1001
ACAD
1000
TCW40_DEV_WIDTH
1002
{
1040
-3.0
1002
}
  0
LINE
  5
113
100
AcDbEntity
  8
0
 62
           0
100
AcDbLine
 10
10.925036199349
 20
1.732648043924
 30
0.0
 11
10.955525207392
 21
1.763137051967
 31
0.0
1001
ACAD
1000
TCW40_DEV_WIDTH
1002
{
1040
-3.0
1002
}
  0
LINE
  5
114
100
AcDbEntity
  8
0
 62
           0
100
AcDbLine
 10
10.796536522365
 20
1.58647069741
 30
0.0
 11
10.863612340059
 21
1.653546515105
 31
0.0
1001
ACAD
1000
TCW40_DEV_WIDTH
1002
{
1040
-3.0
1002
}
  0
LINE
  5
115
100
AcDbEntity
  8
0
 62
           0
100
AcDbLine
 10
10.936701013316
 20
1.726635188361
 30
0.0
 11
10.970238922163
 21
1.760173097209
 31
0.0
1001
ACAD
1000
TCW40_DEV_WIDTH
1002
{
1040
-3.0
1002
}
  0
LINE
  5
116
100
AcDbEntity
  8
0
 62
           0
100
AcDbLine
 10
10.807946498194
 20
1.580203003709
 30
0.0
 11
10.863612340059
 21
1.635868845575
 31
0.0
1001
ACAD
1000
TCW40_DEV_WIDTH
1002
{
1040
-3.0
1002
}
  0
LINE
  5
117
100
AcDbEntity
  8
0
 62
           0
100
AcDbLine
 10
10.95163764969
 20
1.723894155205
 30
0.0
 11
10.984782744843
 21
1.757039250358
 31
0.0
1001
ACAD
1000
TCW40_DEV_WIDTH
1002
{
1040
-3.0
1002
}
  0
LINE
  5
118
100
AcDbEntity
  8
0
 62
           0
100
AcDbLine
 10
10.819526366115
 20
1.574105202101
 30
0.0
 11
10.862210977375
 21
1.616789813361
 31
0.0
1001
ACAD
1000
TCW40_DEV_WIDTH
1002
{
1040
-3.0
1002
}
  0
LINE
  5
119
100
AcDbEntity
  8
0
 62
           0
100
AcDbLine
 10
10.963525385259
 20
1.718104221245
 30
0.0
 11
10.996362612764
 21
1.75094144875
 31
0.0
1001
ACAD
1000
TCW40_DEV_WIDTH
1002
{
1040
-3.0
1002
}
  0
LINE
  5
11A
100
AcDbEntity
  8
0
 62
           0
100
AcDbLine
 10
10.837204035645
 20
1.574105202101
 30
0.0
 11
10.874799394286
 21
1.611700560743
 31
0.0
1001
ACAD
1000
TCW40_DEV_WIDTH
1002
{
1040
-3.0
1002
}
  0
LINE
  5
11B
100
AcDbEntity
  8
0
 62
           0
100
AcDbLine
 10
10.972364220024
 20
1.70926538648
 30
0.0
 11
11.005902128871
 21
1.742803295327
 31
0.0
1001
ACAD
1000
TCW40_DEV_WIDTH
1002
{
1040
-3.0
1002
}
  0
LINE
  5
11C
100
AcDbEntity
  8
0
 62
           0
100
AcDbLine
 10
10.848783903566
 20
1.568007400492
 30
0.0
 11
10.891468514826
 21
1.610692011752
 31
0.0
1001
ACAD
1000
TCW40_DEV_WIDTH
1002
{
1040
-3.0
1002
}
  0
LINE
  5
11D
100
AcDbEntity
  8
0
 62
           0
100
AcDbLine
 10
10.984251955593
 20
1.703475452519
 30
0.0
 11
11.01778986444
 21
1.737013361367
 31
0.0
1001
ACAD
1000
TCW40_DEV_WIDTH
1002
{
1040
-3.0
1002
}
  0
LINE
  5
11E
100
AcDbEntity
  8
0
 62
           0
100
AcDbLine
 10
10.866461573095
 20
1.568007400492
 30
0.0
 11
10.909146184355
 21
1.610692011752
 31
0.0
1001
ACAD
1000
TCW40_DEV_WIDTH
1002
{
1040
-3.0
1002
}
  0
LINE
  5
11F
100
AcDbEntity
  8
0
 62
           0
100
AcDbLine
 10
10.990041889553
 20
1.69158771695
 30
0.0
 11
11.026628699205
 21
1.728174526602
 31
0.0
1001
ACAD
1000
TCW40_DEV_WIDTH
1002
{
1040
-3.0
1002
}
  0
LINE
  5
120
100
AcDbEntity
  8
0
 62
           0
100
AcDbLine
 10
10.884139242625
 20
1.568007400492
 30
0.0
 11
10.926823853885
 21
1.610692011752
 31
0.0
1001
ACAD
1000
TCW40_DEV_WIDTH
1002
{
1040
-3.0
1002
}
  0
LINE
  5
121
100
AcDbEntity
  8
0
 62
           0
100
AcDbLine
 10
11.07703539636
 20
1.760903554227
 30
0.0
 11
11.0792688941
 21
1.763137051967
 31
0.0
1001
ACAD
1000
TCW40_DEV_WIDTH
1002
{
1040
-3.0
1002
}
  0
LINE
  5
122
100
AcDbEntity
  8
0
 62
           0
100
AcDbLine
 10
10.997763975448
 20
1.681632133315
 30
0.0
 11
11.03546753397
 21
1.719335691837
 31
0.0
1001
ACAD
1000
TCW40_DEV_WIDTH
1002
{
1040
-3.0
1002
}
  0
LINE
  5
123
100
AcDbEntity
  8
0
 62
           0
100
AcDbLine
 10
10.901816912155
 20
1.568007400492
 30
0.0
 11
10.956697126632
 21
1.62288761497
 31
0.0
1001
ACAD
1000
TCW40_DEV_WIDTH
1002
{
1040
-3.0
1002
}
  0
LINE
  5
124
100
AcDbEntity
  8
0
 62
           0
100
AcDbLine
 10
11.07703539636
 20
1.743225884697
 30
0.0
 11
11.103044365238
 21
1.769234853575
 31
0.0
1001
ACAD
1000
TCW40_DEV_WIDTH
1002
{
1040
-3.0
1002
}
  0
LINE
  5
125
100
AcDbEntity
  8
0
 62
           0
100
AcDbLine
 10
10.997763975448
 20
1.663954463786
 30
0.0
 11
11.044306368734
 21
1.710496857072
 31
0.0
1001
ACAD
1000
TCW40_DEV_WIDTH
1002
{
1040
-3.0
1002
}
  0
LINE
  5
126
100
AcDbEntity
  8
0
 62
           0
100
AcDbLine
 10
10.925592383293
 20
1.574105202101
 30
0.0
 11
11.050096302695
 21
1.698609121503
 31
0.0
1001
ACAD
1000
TCW40_DEV_WIDTH
1002
{
1040
-3.0
1002
}
  0
LINE
  5
127
100
AcDbEntity
  8
0
 62
           0
100
AcDbLine
 10
11.07703539636
 20
1.725548215168
 30
0.0
 11
11.120722034768
 21
1.769234853575
 31
0.0
1001
ACAD
1000
TCW40_DEV_WIDTH
1002
{
1040
-3.0
1002
}
  0
LINE
  5
128
100
AcDbEntity
  8
0
 62
           0
100
AcDbLine
 10
10.943270052823
 20
1.574105202101
 30
0.0
 11
11.055886236656
 21
1.686721385934
 31
0.0
1001
ACAD
1000
TCW40_DEV_WIDTH
1002
{
1040
-3.0
1002
}
  0
LINE
  5
129
100
AcDbEntity
  8
0
 62
           0
100
AcDbLine
 10
11.07703539636
 20
1.707870545638
 30
0.0
 11
11.144497505906
 21
1.775332655184
 31
0.0
1001
ACAD
1000
TCW40_DEV_WIDTH
1002
{
1040
-3.0
1002
}
  0
LINE
  5
12A
100
AcDbEntity
  8
0
 62
           0
100
AcDbLine
 10
10.967045523961
 20
1.580203003709
 30
0.0
 11
11.058741991534
 21
1.671899471283
 31
0.0
1001
ACAD
1000
TCW40_DEV_WIDTH
1002
{
1040
-3.0
1002
}
  0
LINE
  5
12B
100
AcDbEntity
  8
0
 62
           0
100
AcDbLine
 10
11.07703539636
 20
1.690192876108
 30
0.0
 11
11.162175175435
 21
1.775332655184
 31
0.0
1001
ACAD
1000
TCW40_DEV_WIDTH
1002
{
1040
-3.0
1002
}
  0
LINE
  5
12C
100
AcDbEntity
  8
0
 62
           0
100
AcDbLine
 10
10.996918796708
 20
1.592398606927
 30
0.0
 11
11.052644189925
 21
1.648124000144
 31
0.0
1001
ACAD
1000
TCW40_DEV_WIDTH
1002
{
1040
-3.0
1002
}
  0
LINE
  5
12D
100
AcDbEntity
  8
0
 62
           0
100
AcDbLine
 10
11.07703539636
 20
1.672515206579
 30
0.0
 11
11.179852844965
 21
1.775332655184
 31
0.0
1001
ACAD
1000
TCW40_DEV_WIDTH
1002
{
1040
-3.0
1002
}
  0
LINE
  5
12E
100
AcDbEntity
  8
0
 62
           0
100
AcDbLine
 10
11.07703539636
 20
1.654837537049
 30
0.0
 11
11.142650300018
 21
1.720452440707
 31
0.0
1001
ACAD
1000
TCW40_DEV_WIDTH
1002
{
1040
-3.0
1002
}
  0
LINE
  5
12F
100
AcDbEntity
  8
0
 62
           0
100
AcDbLine
 10
11.144968743804
 20
1.722770884493
 30
0.0
 11
11.197530514495
 21
1.775332655184
 31
0.0
1001
ACAD
1000
TCW40_DEV_WIDTH
1002
{
1040
-3.0
1002
}
  0
LINE
  5
130
100
AcDbEntity
  8
0
 62
           0
100
AcDbLine
 10
11.07703539636
 20
1.637159867519
 30
0.0
 11
11.144111214054
 21
1.704235685214
 31
0.0
1001
ACAD
1000
TCW40_DEV_WIDTH
1002
{
1040
-3.0
1002
}
  0
LINE
  5
131
100
AcDbEntity
  8
0
 62
           0
100
AcDbLine
 10
11.166425771156
 20
1.726550242315
 30
0.0
 11
11.215208184024
 21
1.775332655184
 31
0.0
1001
ACAD
1000
TCW40_DEV_WIDTH
1002
{
1040
-3.0
1002
}
  0
LINE
  5
132
100
AcDbEntity
  8
0
 62
           0
100
AcDbLine
 10
11.07703539636
 20
1.61948219799
 30
0.0
 11
11.144111214054
 21
1.686558015684
 31
0.0
1001
ACAD
1000
TCW40_DEV_WIDTH
1002
{
1040
-3.0
1002
}
  0
LINE
  5
133
100
AcDbEntity
  8
0
 62
           0
100
AcDbLine
 10
11.184103440685
 20
1.726550242315
 30
0.0
 11
11.22813424426
 21
1.77058104589
 31
0.0
1001
ACAD
1000
TCW40_DEV_WIDTH
1002
{
1040
-3.0
1002
}
  0
LINE
  5
134
100
AcDbEntity
  8
0
 62
           0
100
AcDbLine
 10
11.07703539636
 20
1.60180452846
 30
0.0
 11
11.139886573058
 21
1.664655705158
 31
0.0
1001
ACAD
1000
TCW40_DEV_WIDTH
1002
{
1040
-3.0
1002
}
  0
LINE
  5
135
100
AcDbEntity
  8
0
 62
           0
100
AcDbLine
 10
11.201781110215
 20
1.726550242315
 30
0.0
 11
11.244465721475
 21
1.769234853575
 31
0.0
1001
ACAD
1000
TCW40_DEV_WIDTH
1002
{
1040
-3.0
1002
}
  0
LINE
  5
136
100
AcDbEntity
  8
0
 62
           0
100
AcDbLine
 10
11.141970459068
 20
1.666739591168
 30
0.0
 11
11.151603856505
 21
1.676372988605
 31
0.0
1001
ACAD
1000
TCW40_DEV_WIDTH
1002
{
1040
-3.0
1002
}
  0
LINE
  5
137
100
AcDbEntity
  8
0
 62
           0
100
AcDbLine
 10
11.07703539636
 20
1.58412685893
 30
0.0
 11
11.139445077707
 21
1.646536540277
 31
0.0
1001
ACAD
1000
TCW40_DEV_WIDTH
1002
{
1040
-3.0
1002
}
  0
LINE
  5
138
100
AcDbEntity
  8
0
 62
           0
100
AcDbLine
 10
11.219458779745
 20
1.726550242315
 30
0.0
 11
11.258007517007
 21
1.765098979577
 31
0.0
1001
ACAD
1000
TCW40_DEV_WIDTH
1002
{
1040
-3.0
1002
}
  0
LINE
  5
139
100
AcDbEntity
  8
0
 62
           0
100
AcDbLine
 10
11.142096281749
 20
1.64918774432
 30
0.0
 11
11.164578565268
 21
1.671670027838
 31
0.0
1001
ACAD
1000
TCW40_DEV_WIDTH
1002
{
1040
-3.0
1002
}
  0
LINE
  5
13A
100
AcDbEntity
  8
0
 62
           0
100
AcDbLine
 10
11.08469140906
 20
1.574105202101
 30
0.0
 11
11.141841418796
 21
1.631255211837
 31
0.0
1001
ACAD
1000
TCW40_DEV_WIDTH
1002
{
1040
-3.0
1002
}
  0
LINE
  5
13B
100
AcDbEntity
  8
0
 62
           0
100
AcDbLine
 10
11.233308442924
 20
1.722722235965
 30
0.0
 11
11.27294415338
 21
1.762357946421
 31
0.0
1001
ACAD
1000
TCW40_DEV_WIDTH
1002
{
1040
-3.0
1002
}
  0
LINE
  5
13C
100
AcDbEntity
  8
0
 62
           0
100
AcDbLine
 10
11.144111214054
 20
1.633525007095
 30
0.0
 11
11.182256234797
 21
1.671670027838
 31
0.0
1001
ACAD
1000
TCW40_DEV_WIDTH
1002
{
1040
-3.0
1002
}
  0
LINE
  5
13D
100
AcDbEntity
  8
0
 62
           0
100
AcDbLine
 10
11.10236907859
 20
1.574105202101
 30
0.0
 11
11.144111214054
 21
1.615847337565
 31
0.0
1001
ACAD
1000
TCW40_DEV_WIDTH
1002
{
1040
-3.0
1002
}
  0
LINE
  5
13E
100
AcDbEntity
  8
0
 62
           0
100
AcDbLine
 10
11.248245079298
 20
1.719981202809
 30
0.0
 11
11.284831888949
 21
1.75656801246
 31
0.0
1001
ACAD
1000
TCW40_DEV_WIDTH
1002
{
1040
-3.0
1002
}
  0
LINE
  5
13F
100
AcDbEntity
  8
0
 62
           0
100
AcDbLine
 10
11.157249293067
 20
1.628985416578
 30
0.0
 11
11.169912092601
 21
1.641648216113
 31
0.0
1001
ACAD
1000
TCW40_DEV_WIDTH
1002
{
1040
-3.0
1002
}
  0
LINE
  5
140
100
AcDbEntity
  8
0
 62
           0
100
AcDbLine
 10
11.175542697893
 20
1.647278821404
 30
0.0
 11
11.199933904327
 21
1.671670027838
 31
0.0
1001
ACAD
1000
TCW40_DEV_WIDTH
1002
{
1040
-3.0
1002
}
  0
LINE
  5
141
100
AcDbEntity
  8
0
 62
           0
100
AcDbLine
 10
11.169912092601
 20
1.641648216113
 30
0.0
 11
11.175542697893
 21
1.647278821404
 31
0.0
1001
ACAD
1000
TCW40_DEV_WIDTH
1002
{
1040
-3.0
1002
}
  0
LINE
  5
142
100
AcDbEntity
  8
0
 62
           0
100
AcDbLine
 10
11.120046748119
 20
1.574105202101
 30
0.0
 11
11.144111214054
 21
1.598169668036
 31
0.0
1001
ACAD
1000
TCW40_DEV_WIDTH
1002
{
1040
-3.0
1002
}
  0
LINE
  5
143
100
AcDbEntity
  8
0
 62
           0
100
AcDbLine
 10
11.260132814867
 20
1.714191268848
 30
0.0
 11
11.296719624518
 21
1.7507780785
 31
0.0
1001
ACAD
1000
TCW40_DEV_WIDTH
1002
{
1040
-3.0
1002
}
  0
LINE
  5
144
100
AcDbEntity
  8
0
 62
           0
100
AcDbLine
 10
11.171714691542
 20
1.625773145524
 30
0.0
 11
11.180013618047
 21
1.634072072029
 31
0.0
1001
ACAD
1000
TCW40_DEV_WIDTH
1002
{
1040
-3.0
1002
}
  0
LINE
  5
145
100
AcDbEntity
  8
0
 62
           0
100
AcDbLine
 10
11.193220367422
 20
1.647278821404
 30
0.0
 11
11.217611573857
 21
1.671670027838
 31
0.0
1001
ACAD
1000
TCW40_DEV_WIDTH
1002
{
1040
-3.0
1002
}
  0
LINE
  5
146
100
AcDbEntity
  8
0
 62
           0
100
AcDbLine
 10
11.180013618047
 20
1.634072072029
 30
0.0
 11
11.193220367422
 21
1.647278821404
 31
0.0
1001
ACAD
1000
TCW40_DEV_WIDTH
1002
{
1040
-3.0
1002
}
  0
LINE
  5
147
100
AcDbEntity
  8
0
 62
           0
100
AcDbLine
 10
11.137724417649
 20
1.574105202101
 30
0.0
 11
11.144111214054
 21
1.580491998506
 31
0.0
1001
ACAD
1000
TCW40_DEV_WIDTH
1002
{
1040
-3.0
1002
}
  0
LINE
  5
148
100
AcDbEntity
  8
0
 62
           0
100
AcDbLine
 10
11.268971649632
 20
1.705352434084
 30
0.0
 11
11.308462862689
 21
1.744843647141
 31
0.0
1001
ACAD
1000
TCW40_DEV_WIDTH
1002
{
1040
-3.0
1002
}
  0
LINE
  5
149
100
AcDbEntity
  8
0
 62
           0
100
AcDbLine
 10
11.186506830518
 20
1.62288761497
 30
0.0
 11
11.190115143492
 21
1.626495927944
 31
0.0
1001
ACAD
1000
TCW40_DEV_WIDTH
1002
{
1040
-3.0
1002
}
  0
LINE
  5
14A
100
AcDbEntity
  8
0
 62
           0
100
AcDbLine
 10
11.210898036952
 20
1.647278821404
 30
0.0
 11
11.241387044995
 21
1.677767829447
 31
0.0
1001
ACAD
1000
TCW40_DEV_WIDTH
1002
{
1040
-3.0
1002
}
  0
LINE
  5
14B
100
AcDbEntity
  8
0
 62
           0
100
AcDbLine
 10
11.190115143492
 20
1.626495927944
 30
0.0
 11
11.210898036952
 21
1.647278821404
 31
0.0
1001
ACAD
1000
TCW40_DEV_WIDTH
1002
{
1040
-3.0
1002
}
  0
LINE
  5
14C
100
AcDbEntity
  8
0
 62
           0
100
AcDbLine
 10
11.200216668938
 20
1.61891978386
 30
0.0
 11
11.204184500047
 21
1.62288761497
 31
0.0
1001
ACAD
1000
TCW40_DEV_WIDTH
1002
{
1040
-3.0
1002
}
  0
LINE
  5
14D
100
AcDbEntity
  8
0
 62
           0
100
AcDbLine
 10
11.351436468746
 20
1.770139583668
 30
0.0
 11
11.356629540262
 21
1.775332655184
 31
0.0
1001
ACAD
1000
TCW40_DEV_WIDTH
1002
{
1040
-3.0
1002
}
  0
LINE
  5
14E
100
AcDbEntity
  8
0
 62
           0
100
AcDbLine
 10
11.204184500047
 20
1.62288761497
 30
0.0
 11
11.228575706482
 21
1.647278821404
 31
0.0
1001
ACAD
1000
TCW40_DEV_WIDTH
1002
{
1040
-3.0
1002
}
  0
LINE
  5
14F
100
AcDbEntity
  8
0
 62
           0
100
AcDbLine
 10
11.228575706482
 20
1.647278821404
 30
0.0
 11
11.317446194852
 21
1.736149309775
 31
0.0
1001
ACAD
1000
TCW40_DEV_WIDTH
1002
{
1040
-3.0
1002
}
  0
LINE
  5
150
100
AcDbEntity
  8
0
 62
           0
100
AcDbLine
 10
11.210318194383
 20
1.611343639776
 30
0.0
 11
11.221862169577
 21
1.62288761497
 31
0.0
1001
ACAD
1000
TCW40_DEV_WIDTH
1002
{
1040
-3.0
1002
}
  0
LINE
  5
151
100
AcDbEntity
  8
0
 62
           0
100
AcDbLine
 10
11.351436468746
 20
1.752461914138
 30
0.0
 11
11.374307209791
 21
1.775332655184
 31
0.0
1001
ACAD
1000
TCW40_DEV_WIDTH
1002
{
1040
-3.0
1002
}
  0
LINE
  5
152
100
AcDbEntity
  8
0
 62
           0
100
AcDbLine
 10
11.221862169577
 20
1.62288761497
 30
0.0
 11
11.239312849348
 21
1.64033829474
 31
0.0
1001
ACAD
1000
TCW40_DEV_WIDTH
1002
{
1040
-3.0
1002
}
  0
LINE
  5
153
100
AcDbEntity
  8
0
 62
           0
100
AcDbLine
 10
11.239312849348
 20
1.64033829474
 30
0.0
 11
11.326285029617
 21
1.72731047501
 31
0.0
1001
ACAD
1000
TCW40_DEV_WIDTH
1002
{
1040
-3.0
1002
}
  0
LINE
  5
154
100
AcDbEntity
  8
0
 62
           0
100
AcDbLine
 10
11.220419719829
 20
1.603767495692
 30
0.0
 11
11.245637640715
 21
1.628985416578
 31
0.0
1001
ACAD
1000
TCW40_DEV_WIDTH
1002
{
1040
-3.0
1002
}
  0
LINE
  5
155
100
AcDbEntity
  8
0
 62
           0
100
AcDbLine
 10
11.351436468746
 20
1.734784244609
 30
0.0
 11
11.391984879321
 21
1.775332655184
 31
0.0
1001
ACAD
1000
TCW40_DEV_WIDTH
1002
{
1040
-3.0
1002
}
  0
LINE
  5
156
100
AcDbEntity
  8
0
 62
           0
100
AcDbLine
 10
11.245637640715
 20
1.628985416578
 30
0.0
 11
11.249675621141
 21
1.633023397004
 31
0.0
1001
ACAD
1000
TCW40_DEV_WIDTH
1002
{
1040
-3.0
1002
}
  0
LINE
  5
157
100
AcDbEntity
  8
0
 62
           0
100
AcDbLine
 10
11.249675621141
 20
1.633023397004
 30
0.0
 11
11.33314306392
 21
1.716490839783
 31
0.0
1001
ACAD
1000
TCW40_DEV_WIDTH
1002
{
1040
-3.0
1002
}
  0
LINE
  5
158
100
AcDbEntity
  8
0
 62
           0
100
AcDbLine
 10
11.230521245275
 20
1.596191351608
 30
0.0
 11
11.260038392934
 21
1.625708499267
 31
0.0
1001
ACAD
1000
TCW40_DEV_WIDTH
1002
{
1040
-3.0
1002
}
  0
LINE
  5
159
100
AcDbEntity
  8
0
 62
           0
100
AcDbLine
 10
11.351436468746
 20
1.717106575079
 30
0.0
 11
11.409662548851
 21
1.775332655184
 31
0.0
1001
ACAD
1000
TCW40_DEV_WIDTH
1002
{
1040
-3.0
1002
}
  0
LINE
  5
15A
100
AcDbEntity
  8
0
 62
           0
100
AcDbLine
 10
11.263315310245
 20
1.628985416578
 30
0.0
 11
11.338323553535
 21
1.703993659868
 31
0.0
1001
ACAD
1000
TCW40_DEV_WIDTH
1002
{
1040
-3.0
1002
}
  0
LINE
  5
15B
100
AcDbEntity
  8
0
 62
           0
100
AcDbLine
 10
11.24062277072
 20
1.588615207524
 30
0.0
 11
11.270401164727
 21
1.618393601531
 31
0.0
1001
ACAD
1000
TCW40_DEV_WIDTH
1002
{
1040
-3.0
1002
}
  0
LINE
  5
15C
100
AcDbEntity
  8
0
 62
           0
100
AcDbLine
 10
11.351436468746
 20
1.699428905549
 30
0.0
 11
11.42734021838
 21
1.775332655184
 31
0.0
1001
ACAD
1000
TCW40_DEV_WIDTH
1002
{
1040
-3.0
1002
}
  0
LINE
  5
15D
100
AcDbEntity
  8
0
 62
           0
100
AcDbLine
 10
11.293188582992
 20
1.641181019795
 30
0.0
 11
11.339240865529
 21
1.687233302332
 31
0.0
1001
ACAD
1000
TCW40_DEV_WIDTH
1002
{
1040
-3.0
1002
}
  0
LINE
  5
15E
100
AcDbEntity
  8
0
 62
           0
100
AcDbLine
 10
11.250724296166
 20
1.58103906344
 30
0.0
 11
11.280763936521
 21
1.611078703795
 31
0.0
1001
ACAD
1000
TCW40_DEV_WIDTH
1002
{
1040
-3.0
1002
}
  0
LINE
  5
15F
100
AcDbEntity
  8
0
 62
           0
100
AcDbLine
 10
11.443533312672
 20
1.773848079946
 30
0.0
 11
11.44501788791
 21
1.775332655184
 31
0.0
1001
ACAD
1000
TCW40_DEV_WIDTH
1002
{
1040
-3.0
1002
}
  0
LINE
  5
160
100
AcDbEntity
  8
0
 62
           0
100
AcDbLine
 10
11.351436468746
 20
1.68175123602
 30
0.0
 11
11.430707889657
 21
1.761022656931
 31
0.0
1001
ACAD
1000
TCW40_DEV_WIDTH
1002
{
1040
-3.0
1002
}
  0
LINE
  5
161
100
AcDbEntity
  8
0
 62
           0
100
AcDbLine
 10
11.261468104357
 20
1.574105202101
 30
0.0
 11
11.291126708314
 21
1.603763806058
 31
0.0
1001
ACAD
1000
TCW40_DEV_WIDTH
1002
{
1040
-3.0
1002
}
  0
LINE
  5
162
100
AcDbEntity
  8
0
 62
           0
100
AcDbLine
 10
11.448799001468
 20
1.761436099213
 30
0.0
 11
11.46269555744
 21
1.775332655184
 31
0.0
1001
ACAD
1000
TCW40_DEV_WIDTH
1002
{
1040
-3.0
1002
}
  0
LINE
  5
163
100
AcDbEntity
  8
0
 62
           0
100
AcDbLine
 10
11.351436468746
 20
1.66407356649
 30
0.0
 11
11.430707889657
 21
1.743344987402
 31
0.0
1001
ACAD
1000
TCW40_DEV_WIDTH
1002
{
1040
-3.0
1002
}
  0
LINE
  5
164
100
AcDbEntity
  8
0
 62
           0
100
AcDbLine
 10
11.279145773886
 20
1.574105202101
 30
0.0
 11
11.301489480107
 21
1.596448908322
 31
0.0
1001
ACAD
1000
TCW40_DEV_WIDTH
1002
{
1040
-3.0
1002
}
  0
LINE
  5
165
100
AcDbEntity
  8
0
 62
           0
100
AcDbLine
 10
11.454064690264
 20
1.749024118479
 30
0.0
 11
11.480373226969
 21
1.775332655184
 31
0.0
1001
ACAD
1000
TCW40_DEV_WIDTH
1002
{
1040
-3.0
1002
}
  0
LINE
  5
166
100
AcDbEntity
  8
0
 62
           0
100
AcDbLine
 10
11.351436468746
 20
1.64639589696
 30
0.0
 11
11.430707889657
 21
1.725667317872
 31
0.0
1001
ACAD
1000
TCW40_DEV_WIDTH
1002
{
1040
-3.0
1002
}
  0
LINE
  5
167
100
AcDbEntity
  8
0
 62
           0
100
AcDbLine
 10
11.296823443416
 20
1.574105202101
 30
0.0
 11
11.3118522519
 21
1.589134010585
 31
0.0
1001
ACAD
1000
TCW40_DEV_WIDTH
1002
{
1040
-3.0
1002
}
  0
LINE
  5
168
100
AcDbEntity
  8
0
 62
           0
100
AcDbLine
 10
11.45933037906
 20
1.736612137745
 30
0.0
 11
11.498050896499
 21
1.775332655184
 31
0.0
1001
ACAD
1000
TCW40_DEV_WIDTH
1002
{
1040
-3.0
1002
}
  0
LINE
  5
169
100
AcDbEntity
  8
0
 62
           0
100
AcDbLine
 10
11.351436468746
 20
1.628718227431
 30
0.0
 11
11.430707889657
 21
1.707989648342
 31
0.0
1001
ACAD
1000
TCW40_DEV_WIDTH
1002
{
1040
-3.0
1002
}
  0
LINE
  5
16A
100
AcDbEntity
  8
0
 62
           0
100
AcDbLine
 10
11.314501112946
 20
1.574105202101
 30
0.0
 11
11.322215023694
 21
1.581819112849
 31
0.0
1001
ACAD
1000
TCW40_DEV_WIDTH
1002
{
1040
-3.0
1002
}
  0
LINE
  5
16B
100
AcDbEntity
  8
0
 62
           0
100
AcDbLine
 10
11.464596067857
 20
1.724200157012
 30
0.0
 11
11.511682793668
 21
1.771286882823
 31
0.0
1001
ACAD
1000
TCW40_DEV_WIDTH
1002
{
1040
-3.0
1002
}
  0
LINE
  5
16C
100
AcDbEntity
  8
0
 62
           0
100
AcDbLine
 10
11.351436468746
 20
1.611040557901
 30
0.0
 11
11.430707889657
 21
1.690311978813
 31
0.0
1001
ACAD
1000
TCW40_DEV_WIDTH
1002
{
1040
-3.0
1002
}
  0
LINE
  5
16D
100
AcDbEntity
  8
0
 62
           0
100
AcDbLine
 10
11.332178782475
 20
1.574105202101
 30
0.0
 11
11.332577795487
 21
1.574504215113
 31
0.0
1001
ACAD
1000
TCW40_DEV_WIDTH
1002
{
1040
-3.0
1002
}
  0
LINE
  5
16E
100
AcDbEntity
  8
0
 62
           0
100
AcDbLine
 10
11.469861756653
 20
1.711788176278
 30
0.0
 11
11.516920621677
 21
1.758847041302
 31
0.0
1001
ACAD
1000
TCW40_DEV_WIDTH
1002
{
1040
-3.0
1002
}
  0
LINE
  5
16F
100
AcDbEntity
  8
0
 62
           0
100
AcDbLine
 10
11.351436468746
 20
1.593362888371
 30
0.0
 11
11.430707889657
 21
1.672634309283
 31
0.0
1001
ACAD
1000
TCW40_DEV_WIDTH
1002
{
1040
-3.0
1002
}
  0
LINE
  5
170
100
AcDbEntity
  8
0
 62
           0
100
AcDbLine
 10
11.351436468746
 20
1.575685218842
 30
0.0
 11
11.430707889657
 21
1.654956639753
 31
0.0
1001
ACAD
1000
TCW40_DEV_WIDTH
1002
{
1040
-3.0
1002
}
  0
LINE
  5
171
100
AcDbEntity
  8
0
 62
           0
100
AcDbLine
 10
11.475127445449
 20
1.699376195545
 30
0.0
 11
11.522158449686
 21
1.746407199782
 31
0.0
1001
ACAD
1000
TCW40_DEV_WIDTH
1002
{
1040
-3.0
1002
}
  0
LINE
  5
172
100
AcDbEntity
  8
0
 62
           0
100
AcDbLine
 10
11.361436319926
 20
1.568007400492
 30
0.0
 11
11.430707889657
 21
1.637278970224
 31
0.0
1001
ACAD
1000
TCW40_DEV_WIDTH
1002
{
1040
-3.0
1002
}
  0
LINE
  5
173
100
AcDbEntity
  8
0
 62
           0
100
AcDbLine
 10
11.480393134245
 20
1.686964214811
 30
0.0
 11
11.527396277694
 21
1.733967358261
 31
0.0
1001
ACAD
1000
TCW40_DEV_WIDTH
1002
{
1040
-3.0
1002
}
  0
LINE
  5
174
100
AcDbEntity
  8
0
 62
           0
100
AcDbLine
 10
11.379113989456
 20
1.568007400492
 30
0.0
 11
11.430707889657
 21
1.619601300694
 31
0.0
1001
ACAD
1000
TCW40_DEV_WIDTH
1002
{
1040
-3.0
1002
}
  0
LINE
  5
175
100
AcDbEntity
  8
0
 62
           0
100
AcDbLine
 10
11.485658823041
 20
1.674552234077
 30
0.0
 11
11.532634105703
 21
1.72152751674
 31
0.0
1001
ACAD
1000
TCW40_DEV_WIDTH
1002
{
1040
-3.0
1002
}
  0
LINE
  5
176
100
AcDbEntity
  8
0
 62
           0
100
AcDbLine
 10
11.396791658985
 20
1.568007400492
 30
0.0
 11
11.430707889657
 21
1.601923631164
 31
0.0
1001
ACAD
1000
TCW40_DEV_WIDTH
1002
{
1040
-3.0
1002
}
  0
LINE
  5
177
100
AcDbEntity
  8
0
 62
           0
100
AcDbLine
 10
11.490924511837
 20
1.662140253344
 30
0.0
 11
11.537871933712
 21
1.709087675219
 31
0.0
1001
ACAD
1000
TCW40_DEV_WIDTH
1002
{
1040
-3.0
1002
}
  0
LINE
  5
178
100
AcDbEntity
  8
0
 62
           0
100
AcDbLine
 10
11.414469328515
 20
1.568007400492
 30
0.0
 11
11.430707889657
 21
1.584245961635
 31
0.0
1001
ACAD
1000
TCW40_DEV_WIDTH
1002
{
1040
-3.0
1002
}
  0
LINE
  5
179
100
AcDbEntity
  8
0
 62
           0
100
AcDbLine
 10
11.597180174924
 20
1.750718246901
 30
0.0
 11
11.621794583207
 21
1.775332655184
 31
0.0
1001
ACAD
1000
TCW40_DEV_WIDTH
1002
{
1040
-3.0
1002
}
  0
LINE
  5
17A
100
AcDbEntity
  8
0
 62
           0
100
AcDbLine
 10
11.496190200633
 20
1.64972827261
 30
0.0
 11
11.543109761721
 21
1.696647833698
 31
0.0
1001
ACAD
1000
TCW40_DEV_WIDTH
1002
{
1040
-3.0
1002
}
  0
LINE
  5
17B
100
AcDbEntity
  8
0
 62
           0
100
AcDbLine
 10
11.501455889429
 20
1.637316291877
 30
0.0
 11
11.54834758973
 21
1.684207992177
 31
0.0
1001
ACAD
1000
TCW40_DEV_WIDTH
1002
{
1040
-3.0
1002
}
  0
LINE
  5
17C
100
AcDbEntity
  8
0
 62
           0
100
AcDbLine
 10
11.584323687993
 20
1.720184090441
 30
0.0
 11
11.639472252736
 21
1.775332655184
 31
0.0
1001
ACAD
1000
TCW40_DEV_WIDTH
1002
{
1040
-3.0
1002
}
  0
LINE
  5
17D
100
AcDbEntity
  8
0
 62
           0
100
AcDbLine
 10
11.506721578225
 20
1.624904311143
 30
0.0
 11
11.553585417738
 21
1.671768150656
 31
0.0
1001
ACAD
1000
TCW40_DEV_WIDTH
1002
{
1040
-3.0
1002
}
  0
LINE
  5
17E
100
AcDbEntity
  8
0
 62
           0
100
AcDbLine
 10
11.571467201062
 20
1.68964993398
 30
0.0
 11
11.657149922266
 21
1.775332655184
 31
0.0
1001
ACAD
1000
TCW40_DEV_WIDTH
1002
{
1040
-3.0
1002
}
  0
LINE
  5
17F
100
AcDbEntity
  8
0
 62
           0
100
AcDbLine
 10
11.511987267021
 20
1.61249233041
 30
0.0
 11
11.67446695773
 21
1.774972021119
 31
0.0
1001
ACAD
1000
TCW40_DEV_WIDTH
1002
{
1040
-3.0
1002
}
  0
LINE
  5
180
100
AcDbEntity
  8
0
 62
           0
100
AcDbLine
 10
11.517252955817
 20
1.600080349676
 30
0.0
 11
11.661441306498
 21
1.744268700357
 31
0.0
1001
ACAD
1000
TCW40_DEV_WIDTH
1002
{
1040
-3.0
1002
}
  0
LINE
  5
181
100
AcDbEntity
  8
0
 62
           0
100
AcDbLine
 10
11.522518644613
 20
1.587668368942
 30
0.0
 11
11.648415655266
 21
1.713565379595
 31
0.0
1001
ACAD
1000
TCW40_DEV_WIDTH
1002
{
1040
-3.0
1002
}
  0
LINE
  5
182
100
AcDbEntity
  8
0
 62
           0
100
AcDbLine
 10
11.699011160435
 20
1.764160884764
 30
0.0
 11
11.710182930855
 21
1.775332655184
 31
0.0
1001
ACAD
1000
TCW40_DEV_WIDTH
1002
{
1040
-3.0
1002
}
  0
LINE
  5
183
100
AcDbEntity
  8
0
 62
           0
100
AcDbLine
 10
11.527784333409
 20
1.575256388209
 30
0.0
 11
11.635390004033
 21
1.682862058832
 31
0.0
1001
ACAD
1000
TCW40_DEV_WIDTH
1002
{
1040
-3.0
1002
}
  0
LINE
  5
184
100
AcDbEntity
  8
0
 62
           0
100
AcDbLine
 10
11.699011160435
 20
1.746483215234
 30
0.0
 11
11.727860600385
 21
1.775332655184
 31
0.0
1001
ACAD
1000
TCW40_DEV_WIDTH
1002
{
1040
-3.0
1002
}
  0
LINE
  5
185
100
AcDbEntity
  8
0
 62
           0
100
AcDbLine
 10
11.544310816831
 20
1.574105202101
 30
0.0
 11
11.622364352801
 21
1.65215873807
 31
0.0
1001
ACAD
1000
TCW40_DEV_WIDTH
1002
{
1040
-3.0
1002
}
  0
LINE
  5
186
100
AcDbEntity
  8
0
 62
           0
100
AcDbLine
 10
11.699011160435
 20
1.728805545704
 30
0.0
 11
11.745538269914
 21
1.775332655184
 31
0.0
1001
ACAD
1000
TCW40_DEV_WIDTH
1002
{
1040
-3.0
1002
}
  0
LINE
  5
187
100
AcDbEntity
  8
0
 62
           0
100
AcDbLine
 10
11.561988486361
 20
1.574105202101
 30
0.0
 11
11.609338701568
 21
1.621455417308
 31
0.0
1001
ACAD
1000
TCW40_DEV_WIDTH
1002
{
1040
-3.0
1002
}
  0
LINE
  5
188
100
AcDbEntity
  8
0
 62
           0
100
AcDbLine
 10
11.699011160435
 20
1.711127876175
 30
0.0
 11
11.763215939444
 21
1.775332655184
 31
0.0
1001
ACAD
1000
TCW40_DEV_WIDTH
1002
{
1040
-3.0
1002
}
  0
LINE
  5
189
100
AcDbEntity
  8
0
 62
           0
100
AcDbLine
 10
11.579666155891
 20
1.574105202101
 30
0.0
 11
11.596313050336
 21
1.590752096546
 31
0.0
1001
ACAD
1000
TCW40_DEV_WIDTH
1002
{
1040
-3.0
1002
}
  0
LINE
  5
18A
100
AcDbEntity
  8
0
 62
           0
100
AcDbLine
 10
11.699011160435
 20
1.693450206645
 30
0.0
 11
11.780893608974
 21
1.775332655184
 31
0.0
1001
ACAD
1000
TCW40_DEV_WIDTH
1002
{
1040
-3.0
1002
}
  0
LINE
  5
18B
100
AcDbEntity
  8
0
 62
           0
100
AcDbLine
 10
11.699011160435
 20
1.675772537115
 30
0.0
 11
11.798571278503
 21
1.775332655184
 31
0.0
1001
ACAD
1000
TCW40_DEV_WIDTH
1002
{
1040
-3.0
1002
}
  0
LINE
  5
18C
100
AcDbEntity
  8
0
 62
           0
100
AcDbLine
 10
11.699011160435
 20
1.658094867586
 30
0.0
 11
11.759989176521
 21
1.719072883672
 31
0.0
1001
ACAD
1000
TCW40_DEV_WIDTH
1002
{
1040
-3.0
1002
}
  0
LINE
  5
18D
100
AcDbEntity
  8
0
 62
           0
100
AcDbLine
 10
11.773564336773
 20
1.732648043924
 30
0.0
 11
11.816248948033
 21
1.775332655184
 31
0.0
1001
ACAD
1000
TCW40_DEV_WIDTH
1002
{
1040
-3.0
1002
}
  0
LINE
  5
18E
100
AcDbEntity
  8
0
 62
           0
100
AcDbLine
 10
11.699011160435
 20
1.640417198056
 30
0.0
 11
11.759989176521
 21
1.701395214142
 31
0.0
1001
ACAD
1000
TCW40_DEV_WIDTH
1002
{
1040
-3.0
1002
}
  0
LINE
  5
18F
100
AcDbEntity
  8
0
 62
           0
100
AcDbLine
 10
11.791242006303
 20
1.732648043924
 30
0.0
 11
11.833926617563
 21
1.775332655184
 31
0.0
1001
ACAD
1000
TCW40_DEV_WIDTH
1002
{
1040
-3.0
1002
}
  0
LINE
  5
190
100
AcDbEntity
  8
0
 62
           0
100
AcDbLine
 10
11.699011160435
 20
1.622739528526
 30
0.0
 11
11.772332866181
 21
1.696061234272
 31
0.0
1001
ACAD
1000
TCW40_DEV_WIDTH
1002
{
1040
-3.0
1002
}
  0
LINE
  5
191
100
AcDbEntity
  8
0
 62
           0
100
AcDbLine
 10
11.808919675832
 20
1.732648043924
 30
0.0
 11
11.851604287092
 21
1.775332655184
 31
0.0
1001
ACAD
1000
TCW40_DEV_WIDTH
1002
{
1040
-3.0
1002
}
  0
LINE
  5
192
100
AcDbEntity
  8
0
 62
           0
100
AcDbLine
 10
11.699011160435
 20
1.605061858997
 30
0.0
 11
11.79001053571
 21
1.696061234272
 31
0.0
1001
ACAD
1000
TCW40_DEV_WIDTH
1002
{
1040
-3.0
1002
}
  0
LINE
  5
193
100
AcDbEntity
  8
0
 62
           0
100
AcDbLine
 10
11.826597345362
 20
1.732648043924
 30
0.0
 11
11.869281956622
 21
1.775332655184
 31
0.0
1001
ACAD
1000
TCW40_DEV_WIDTH
1002
{
1040
-3.0
1002
}
  0
LINE
  5
194
100
AcDbEntity
  8
0
 62
           0
100
AcDbLine
 10
11.699011160435
 20
1.587384189467
 30
0.0
 11
11.759989176521
 21
1.648362205553
 31
0.0
1001
ACAD
1000
TCW40_DEV_WIDTH
1002
{
1040
-3.0
1002
}
  0
LINE
  5
195
100
AcDbEntity
  8
0
 62
           0
100
AcDbLine
 10
11.844275014892
 20
1.732648043924
 30
0.0
 11
11.886959626152
 21
1.775332655184
 31
0.0
1001
ACAD
1000
TCW40_DEV_WIDTH
1002
{
1040
-3.0
1002
}
  0
LINE
  5
196
100
AcDbEntity
  8
0
 62
           0
100
AcDbLine
 10
11.76500359398
 20
1.653376623012
 30
0.0
 11
11.80768820524
 21
1.696061234272
 31
0.0
1001
ACAD
1000
TCW40_DEV_WIDTH
1002
{
1040
-3.0
1002
}
  0
LINE
  5
197
100
AcDbEntity
  8
0
 62
           0
100
AcDbLine
 10
11.703409842598
 20
1.574105202101
 30
0.0
 11
11.759989176521
 21
1.630684536023
 31
0.0
1001
ACAD
1000
TCW40_DEV_WIDTH
1002
{
1040
-3.0
1002
}
  0
LINE
  5
198
100
AcDbEntity
  8
0
 62
           0
100
AcDbLine
 10
11.861952684421
 20
1.732648043924
 30
0.0
 11
11.888043010301
 21
1.758738369803
 31
0.0
1001
ACAD
1000
TCW40_DEV_WIDTH
1002
{
1040
-3.0
1002
}
  0
LINE
  5
199
100
AcDbEntity
  8
0
 62
           0
100
AcDbLine
 10
11.78268126351
 20
1.653376623012
 30
0.0
 11
11.82536587477
 21
1.696061234272
 31
0.0
1001
ACAD
1000
TCW40_DEV_WIDTH
1002
{
1040
-3.0
1002
}
  0
LINE
  5
19A
100
AcDbEntity
  8
0
 62
           0
100
AcDbLine
 10
11.721087512128
 20
1.574105202101
 30
0.0
 11
11.763772123388
 21
1.616789813361
 31
0.0
1001
ACAD
1000
TCW40_DEV_WIDTH
1002
{
1040
-3.0
1002
}
  0
LINE
  5
19B
100
AcDbEntity
  8
0
 62
           0
100
AcDbLine
 10
11.879630353951
 20
1.732648043924
 30
0.0
 11
11.888043010301
 21
1.741060700274
 31
0.0
1001
ACAD
1000
TCW40_DEV_WIDTH
1002
{
1040
-3.0
1002
}
  0
LINE
  5
19C
100
AcDbEntity
  8
0
 62
           0
100
AcDbLine
 10
11.800358933039
 20
1.653376623012
 30
0.0
 11
11.843043544299
 21
1.696061234272
 31
0.0
1001
ACAD
1000
TCW40_DEV_WIDTH
1002
{
1040
-3.0
1002
}
  0
LINE
  5
19D
100
AcDbEntity
  8
0
 62
           0
100
AcDbLine
 10
11.738765181658
 20
1.574105202101
 30
0.0
 11
11.781449792918
 21
1.616789813361
 31
0.0
1001
ACAD
1000
TCW40_DEV_WIDTH
1002
{
1040
-3.0
1002
}
  0
LINE
  5
19E
100
AcDbEntity
  8
0
 62
           0
100
AcDbLine
 10
11.818036602569
 20
1.653376623012
 30
0.0
 11
11.860721213829
 21
1.696061234272
 31
0.0
1001
ACAD
1000
TCW40_DEV_WIDTH
1002
{
1040
-3.0
1002
}
  0
LINE
  5
19F
100
AcDbEntity
  8
0
 62
           0
100
AcDbLine
 10
11.756442851187
 20
1.574105202101
 30
0.0
 11
11.799127462447
 21
1.616789813361
 31
0.0
1001
ACAD
1000
TCW40_DEV_WIDTH
1002
{
1040
-3.0
1002
}
  0
LINE
  5
1A0
100
AcDbEntity
  8
0
 62
           0
100
AcDbLine
 10
11.942923224778
 20
1.760585575692
 30
0.0
 11
11.945474701053
 21
1.763137051967
 31
0.0
1001
ACAD
1000
TCW40_DEV_WIDTH
1002
{
1040
-3.0
1002
}
  0
LINE
  5
1A1
100
AcDbEntity
  8
0
 62
           0
100
AcDbLine
 10
11.835714272099
 20
1.653376623012
 30
0.0
 11
11.878398883359
 21
1.696061234272
 31
0.0
1001
ACAD
1000
TCW40_DEV_WIDTH
1002
{
1040
-3.0
1002
}
  0
LINE
  5
1A2
100
AcDbEntity
  8
0
 62
           0
100
AcDbLine
 10
11.918532018344
 20
1.736194369257
 30
0.0
 11
11.939376899445
 21
1.757039250358
 31
0.0
1001
ACAD
1000
TCW40_DEV_WIDTH
1002
{
1040
-3.0
1002
}
  0
LINE
  5
1A3
100
AcDbEntity
  8
0
 62
           0
100
AcDbLine
 10
11.774120520717
 20
1.574105202101
 30
0.0
 11
11.816805131977
 21
1.616789813361
 31
0.0
1001
ACAD
1000
TCW40_DEV_WIDTH
1002
{
1040
-3.0
1002
}
  0
LINE
  5
1A4
100
AcDbEntity
  8
0
 62
           0
100
AcDbLine
 10
11.912434216735
 20
1.712418898119
 30
0.0
 11
11.969250172191
 21
1.769234853575
 31
0.0
1001
ACAD
1000
TCW40_DEV_WIDTH
1002
{
1040
-3.0
1002
}
  0
LINE
  5
1A5
100
AcDbEntity
  8
0
 62
           0
100
AcDbLine
 10
11.853391941628
 20
1.653376623012
 30
0.0
 11
11.888043010301
 21
1.688027691685
 31
0.0
1001
ACAD
1000
TCW40_DEV_WIDTH
1002
{
1040
-3.0
1002
}
  0
LINE
  5
1A6
100
AcDbEntity
  8
0
 62
           0
100
AcDbLine
 10
11.791798190247
 20
1.574105202101
 30
0.0
 11
11.834482801507
 21
1.616789813361
 31
0.0
1001
ACAD
1000
TCW40_DEV_WIDTH
1002
{
1040
-3.0
1002
}
  0
LINE
  5
1A7
100
AcDbEntity
  8
0
 62
           0
100
AcDbLine
 10
11.916143120381
 20
1.698450132235
 30
0.0
 11
11.99302564333
 21
1.775332655184
 31
0.0
1001
ACAD
1000
TCW40_DEV_WIDTH
1002
{
1040
-3.0
1002
}
  0
LINE
  5
1A8
100
AcDbEntity
  8
0
 62
           0
100
AcDbLine
 10
11.871069611158
 20
1.653376623012
 30
0.0
 11
11.888043010301
 21
1.670350022155
 31
0.0
1001
ACAD
1000
TCW40_DEV_WIDTH
1002
{
1040
-3.0
1002
}
  0
LINE
  5
1A9
100
AcDbEntity
  8
0
 62
           0
100
AcDbLine
 10
11.809475859776
 20
1.574105202101
 30
0.0
 11
11.852160471036
 21
1.616789813361
 31
0.0
1001
ACAD
1000
TCW40_DEV_WIDTH
1002
{
1040
-3.0
1002
}
  0
LINE
  5
1AA
100
AcDbEntity
  8
0
 62
           0
100
AcDbLine
 10
11.921933054341
 20
1.686562396666
 30
0.0
 11
12.010703312859
 21
1.775332655184
 31
0.0
1001
ACAD
1000
TCW40_DEV_WIDTH
1002
{
1040
-3.0
1002
}
  0
LINE
  5
1AB
100
AcDbEntity
  8
0
 62
           0
100
AcDbLine
 10
11.827153529306
 20
1.574105202101
 30
0.0
 11
11.869838140566
 21
1.616789813361
 31
0.0
1001
ACAD
1000
TCW40_DEV_WIDTH
1002
{
1040
-3.0
1002
}
  0
LINE
  5
1AC
100
AcDbEntity
  8
0
 62
           0
100
AcDbLine
 10
11.991794172737
 20
1.738745845533
 30
0.0
 11
12.028380982389
 21
1.775332655184
 31
0.0
1001
ACAD
1000
TCW40_DEV_WIDTH
1002
{
1040
-3.0
1002
}
  0
LINE
  5
1AD
100
AcDbEntity
  8
0
 62
           0
100
AcDbLine
 10
11.930771889106
 20
1.677723561901
 30
0.0
 11
11.973412232821
 21
1.720363905616
 31
0.0
1001
ACAD
1000
TCW40_DEV_WIDTH
1002
{
1040
-3.0
1002
}
  0
LINE
  5
1AE
100
AcDbEntity
  8
0
 62
           0
100
AcDbLine
 10
11.844831198836
 20
1.574105202101
 30
0.0
 11
11.887515810096
 21
1.616789813361
 31
0.0
1001
ACAD
1000
TCW40_DEV_WIDTH
1002
{
1040
-3.0
1002
}
  0
LINE
  5
1AF
100
AcDbEntity
  8
0
 62
           0
100
AcDbLine
 10
12.009471842267
 20
1.738745845533
 30
0.0
 11
12.046058651919
 21
1.775332655184
 31
0.0
1001
ACAD
1000
TCW40_DEV_WIDTH
1002
{
1040
-3.0
1002
}
  0
LINE
  5
1B0
100
AcDbEntity
  8
0
 62
           0
100
AcDbLine
 10
11.942396024573
 20
1.671670027838
 30
0.0
 11
11.979510034429
 21
1.708784037695
 31
0.0
1001
ACAD
1000
TCW40_DEV_WIDTH
1002
{
1040
-3.0
1002
}
  0
LINE
  5
1B1
100
AcDbEntity
  8
0
 62
           0
100
AcDbLine
 10
11.862508868365
 20
1.574105202101
 30
0.0
 11
11.888043010301
 21
1.599639344036
 31
0.0
1001
ACAD
1000
TCW40_DEV_WIDTH
1002
{
1040
-3.0
1002
}
  0
LINE
  5
1B2
100
AcDbEntity
  8
0
 62
           0
100
AcDbLine
 10
12.021623177939
 20
1.733219511675
 30
0.0
 11
12.063736321448
 21
1.775332655184
 31
0.0
1001
ACAD
1000
TCW40_DEV_WIDTH
1002
{
1040
-3.0
1002
}
  0
LINE
  5
1B3
100
AcDbEntity
  8
0
 62
           0
100
AcDbLine
 10
11.953975892494
 20
1.66557222623
 30
0.0
 11
11.991705637647
 21
1.703301971382
 31
0.0
1001
ACAD
1000
TCW40_DEV_WIDTH
1002
{
1040
-3.0
1002
}
  0
LINE
  5
1B4
100
AcDbEntity
  8
0
 62
           0
100
AcDbLine
 10
11.880186537895
 20
1.574105202101
 30
0.0
 11
11.888043010301
 21
1.581961674507
 31
0.0
1001
ACAD
1000
TCW40_DEV_WIDTH
1002
{
1040
-3.0
1002
}
  0
LINE
  5
1B5
100
AcDbEntity
  8
0
 62
           0
100
AcDbLine
 10
12.038729379718
 20
1.732648043924
 30
0.0
 11
12.081413990978
 21
1.775332655184
 31
0.0
1001
ACAD
1000
TCW40_DEV_WIDTH
1002
{
1040
-3.0
1002
}
  0
LINE
  5
1B6
100
AcDbEntity
  8
0
 62
           0
100
AcDbLine
 10
11.932650650201
 20
1.626569314407
 30
0.0
 11
11.942923224778
 21
1.636841888984
 31
0.0
1001
ACAD
1000
TCW40_DEV_WIDTH
1002
{
1040
-3.0
1002
}
  0
LINE
  5
1B7
100
AcDbEntity
  8
0
 62
           0
100
AcDbLine
 10
11.965555760415
 20
1.659474424621
 30
0.0
 11
12.008240371675
 21
1.702159035881
 31
0.0
1001
ACAD
1000
TCW40_DEV_WIDTH
1002
{
1040
-3.0
1002
}
  0
LINE
  5
1B8
100
AcDbEntity
  8
0
 62
           0
100
AcDbLine
 10
11.92557958239
 20
1.601820577066
 30
0.0
 11
11.955118827995
 21
1.631359822671
 31
0.0
1001
ACAD
1000
TCW40_DEV_WIDTH
1002
{
1040
-3.0
1002
}
  0
LINE
  5
1B9
100
AcDbEntity
  8
0
 62
           0
100
AcDbLine
 10
12.056407049248
 20
1.732648043924
 30
0.0
 11
12.092993858899
 21
1.769234853575
 31
0.0
1001
ACAD
1000
TCW40_DEV_WIDTH
1002
{
1040
-3.0
1002
}
  0
LINE
  5
1BA
100
AcDbEntity
  8
0
 62
           0
100
AcDbLine
 10
11.979510034429
 20
1.655751029106
 30
0.0
 11
12.025918041205
 21
1.702159035881
 31
0.0
1001
ACAD
1000
TCW40_DEV_WIDTH
1002
{
1040
-3.0
1002
}
  0
LINE
  5
1BB
100
AcDbEntity
  8
0
 62
           0
100
AcDbLine
 10
11.93383528178
 20
1.592398606927
 30
0.0
 11
11.970422091431
 21
1.628985416578
 31
0.0
1001
ACAD
1000
TCW40_DEV_WIDTH
1002
{
1040
-3.0
1002
}
  0
LINE
  5
1BC
100
AcDbEntity
  8
0
 62
           0
100
AcDbLine
 10
12.067986917169
 20
1.726550242315
 30
0.0
 11
12.110671528429
 21
1.769234853575
 31
0.0
1001
ACAD
1000
TCW40_DEV_WIDTH
1002
{
1040
-3.0
1002
}
  0
LINE
  5
1BD
100
AcDbEntity
  8
0
 62
           0
100
AcDbLine
 10
11.994813297866
 20
1.653376623012
 30
0.0
 11
12.043595710734
 21
1.702159035881
 31
0.0
1001
ACAD
1000
TCW40_DEV_WIDTH
1002
{
1040
-3.0
1002
}
  0
LINE
  5
1BE
100
AcDbEntity
  8
0
 62
           0
100
AcDbLine
 10
11.945415149701
 20
1.586300805318
 30
0.0
 11
11.982001959352
 21
1.62288761497
 31
0.0
1001
ACAD
1000
TCW40_DEV_WIDTH
1002
{
1040
-3.0
1002
}
  0
LINE
  5
1BF
100
AcDbEntity
  8
0
 62
           0
100
AcDbLine
 10
12.085664586698
 20
1.726550242315
 30
0.0
 11
12.124054334693
 21
1.76493999031
 31
0.0
1001
ACAD
1000
TCW40_DEV_WIDTH
1002
{
1040
-3.0
1002
}
  0
LINE
  5
1C0
100
AcDbEntity
  8
0
 62
           0
100
AcDbLine
 10
12.009999042472
 20
1.650884698089
 30
0.0
 11
12.060027417802
 21
1.70091307342
 31
0.0
1001
ACAD
1000
TCW40_DEV_WIDTH
1002
{
1040
-3.0
1002
}
  0
LINE
  5
1C1
100
AcDbEntity
  8
0
 62
           0
100
AcDbLine
 10
11.962154724417
 20
1.585362710505
 30
0.0
 11
11.997803439255
 21
1.621011425343
 31
0.0
1001
ACAD
1000
TCW40_DEV_WIDTH
1002
{
1040
-3.0
1002
}
  0
LINE
  5
1C2
100
AcDbEntity
  8
0
 62
           0
100
AcDbLine
 10
12.097244454619
 20
1.720452440707
 30
0.0
 11
12.139929065879
 21
1.763137051967
 31
0.0
1001
ACAD
1000
TCW40_DEV_WIDTH
1002
{
1040
-3.0
1002
}
  0
LINE
  5
1C3
100
AcDbEntity
  8
0
 62
           0
100
AcDbLine
 10
12.024070835316
 20
1.647278821404
 30
0.0
 11
12.072853248185
 21
1.696061234272
 31
0.0
1001
ACAD
1000
TCW40_DEV_WIDTH
1002
{
1040
-3.0
1002
}
  0
LINE
  5
1C4
100
AcDbEntity
  8
0
 62
           0
100
AcDbLine
 10
11.974672687152
 20
1.580203003709
 30
0.0
 11
12.011259496803
 21
1.616789813361
 31
0.0
1001
ACAD
1000
TCW40_DEV_WIDTH
1002
{
1040
-3.0
1002
}
  0
LINE
  5
1C5
100
AcDbEntity
  8
0
 62
           0
100
AcDbLine
 10
12.113661669818
 20
1.719191986376
 30
0.0
 11
12.151508933801
 21
1.757039250358
 31
0.0
1001
ACAD
1000
TCW40_DEV_WIDTH
1002
{
1040
-3.0
1002
}
  0
LINE
  5
1C6
100
AcDbEntity
  8
0
 62
           0
100
AcDbLine
 10
12.041748504846
 20
1.647278821404
 30
0.0
 11
12.084433116106
 21
1.689963432664
 31
0.0
1001
ACAD
1000
TCW40_DEV_WIDTH
1002
{
1040
-3.0
1002
}
  0
LINE
  5
1C7
100
AcDbEntity
  8
0
 62
           0
100
AcDbLine
 10
11.992350356681
 20
1.580203003709
 30
0.0
 11
12.028292447298
 21
1.616145094326
 31
0.0
1001
ACAD
1000
TCW40_DEV_WIDTH
1002
{
1040
-3.0
1002
}
  0
LINE
  5
1C8
100
AcDbEntity
  8
0
 62
           0
100
AcDbLine
 10
12.12650199207
 20
1.714354639098
 30
0.0
 11
12.163088801722
 21
1.75094144875
 31
0.0
1001
ACAD
1000
TCW40_DEV_WIDTH
1002
{
1040
-3.0
1002
}
  0
LINE
  5
1C9
100
AcDbEntity
  8
0
 62
           0
100
AcDbLine
 10
12.059426174376
 20
1.647278821404
 30
0.0
 11
12.102110785636
 21
1.689963432664
 31
0.0
1001
ACAD
1000
TCW40_DEV_WIDTH
1002
{
1040
-3.0
1002
}
  0
LINE
  5
1CA
100
AcDbEntity
  8
0
 62
           0
100
AcDbLine
 10
12.003930224602
 20
1.574105202101
 30
0.0
 11
12.040517034254
 21
1.610692011752
 31
0.0
1001
ACAD
1000
TCW40_DEV_WIDTH
1002
{
1040
-3.0
1002
}
  0
LINE
  5
1CB
100
AcDbEntity
  8
0
 62
           0
100
AcDbLine
 10
12.138081859991
 20
1.70825683749
 30
0.0
 11
12.164467021977
 21
1.734641999475
 31
0.0
1001
ACAD
1000
TCW40_DEV_WIDTH
1002
{
1040
-3.0
1002
}
  0
LINE
  5
1CC
100
AcDbEntity
  8
0
 62
           0
100
AcDbLine
 10
12.074040451232
 20
1.64421542873
 30
0.0
 11
12.113690653557
 21
1.683865631055
 31
0.0
1001
ACAD
1000
TCW40_DEV_WIDTH
1002
{
1040
-3.0
1002
}
  0
LINE
  5
1CD
100
AcDbEntity
  8
0
 62
           0
100
AcDbLine
 10
12.021607894132
 20
1.574105202101
 30
0.0
 11
12.058194703784
 21
1.610692011752
 31
0.0
1001
ACAD
1000
TCW40_DEV_WIDTH
1002
{
1040
-3.0
1002
}
  0
LINE
  5
1CE
100
AcDbEntity
  8
0
 62
           0
100
AcDbLine
 10
12.149955103691
 20
1.70245241166
 30
0.0
 11
12.158574465467
 21
1.711071773436
 31
0.0
1001
ACAD
1000
TCW40_DEV_WIDTH
1002
{
1040
-3.0
1002
}
  0
LINE
  5
1CF
100
AcDbEntity
  8
0
 62
           0
100
AcDbLine
 10
12.088683711827
 20
1.641181019795
 30
0.0
 11
12.131368323087
 21
1.683865631055
 31
0.0
1001
ACAD
1000
TCW40_DEV_WIDTH
1002
{
1040
-3.0
1002
}
  0
LINE
  5
1D0
100
AcDbEntity
  8
0
 62
           0
100
AcDbLine
 10
12.039285563662
 20
1.574105202101
 30
0.0
 11
12.075872373313
 21
1.610692011752
 31
0.0
1001
ACAD
1000
TCW40_DEV_WIDTH
1002
{
1040
-3.0
1002
}
  0
LINE
  5
1D1
100
AcDbEntity
  8
0
 62
           0
100
AcDbLine
 10
12.100263579748
 20
1.635083218187
 30
0.0
 11
12.142948191008
 21
1.677767829447
 31
0.0
1001
ACAD
1000
TCW40_DEV_WIDTH
1002
{
1040
-3.0
1002
}
  0
LINE
  5
1D2
100
AcDbEntity
  8
0
 62
           0
100
AcDbLine
 10
12.056963233191
 20
1.574105202101
 30
0.0
 11
12.093550042843
 21
1.610692011752
 31
0.0
1001
ACAD
1000
TCW40_DEV_WIDTH
1002
{
1040
-3.0
1002
}
  0
LINE
  5
1D3
100
AcDbEntity
  8
0
 62
           0
100
AcDbLine
 10
12.111843447669
 20
1.628985416578
 30
0.0
 11
12.154528058929
 21
1.671670027838
 31
0.0
1001
ACAD
1000
TCW40_DEV_WIDTH
1002
{
1040
-3.0
1002
}
  0
LINE
  5
1D4
100
AcDbEntity
  8
0
 62
           0
100
AcDbLine
 10
12.074640902721
 20
1.574105202101
 30
0.0
 11
12.164276004768
 21
1.663740304148
 31
0.0
1001
ACAD
1000
TCW40_DEV_WIDTH
1002
{
1040
-3.0
1002
}
  0
LINE
  5
1D5
100
AcDbEntity
  8
0
 62
           0
100
AcDbLine
 10
12.092318572251
 20
1.574105202101
 30
0.0
 11
12.174639685904
 21
1.656426315754
 31
0.0
1001
ACAD
1000
TCW40_DEV_WIDTH
1002
{
1040
-3.0
1002
}
  0
LINE
  5
1D6
100
AcDbEntity
  8
0
 62
           0
100
AcDbLine
 10
12.116094043389
 20
1.580203003709
 30
0.0
 11
12.180737487513
 21
1.644846447833
 31
0.0
1001
ACAD
1000
TCW40_DEV_WIDTH
1002
{
1040
-3.0
1002
}
  0
LINE
  5
1D7
100
AcDbEntity
  8
0
 62
           0
100
AcDbLine
 10
12.139869514527
 20
1.586300805318
 30
0.0
 11
12.180737487513
 21
1.627168778303
 31
0.0
1001
ACAD
1000
TCW40_DEV_WIDTH
1002
{
1040
-3.0
1002
}
  0
ENDBLK
  5
1D8
100
AcDbEntity
  8
0
100
AcDbBlockEnd
  0
BLOCK
  5
1DA
100
AcDbEntity
  8
0
100
AcDbBlockBegin
  2
Fuse
 70
           2
 10
0.0
 20
0.0
 30
0.0
  3
Fuse
  1

  0
ATTDEF
  5
1DC
100
AcDbEntity
  8
0
  6
Continuous
100
AcDbText
 10
0.0
 20
0.0
 30
0.0
 40
0.000080200195
  1

  7
_TCW_TXTSTY_1
100
AcDbAttributeDefinition
  3

  2
ESTCODE
 70
           9
  0
ARC
  5
1DD
100
AcDbEntity
  8
0
100
AcDbCircle
 10
0.275
 20
0.0
 30
0.0
 40
0.07500000298
100
AcDbArc
 50
0.0
 51
180.000008651422
1001
ACAD
1000
TCW40_DEV_WIDTH
1002
{
1040
-3.0
1002
}
  0
ARC
  5
1DE
100
AcDbEntity
  8
0
100
AcDbCircle
 10
0.125
 20
0.0
 30
0.0
 40
0.07500000298
100
AcDbArc
 50
180.0
 51
360.0
1001
ACAD
1000
TCW40_DEV_WIDTH
1002
{
1040
-3.0
1002
}
  0
LINE
  5
1DF
100
AcDbEntity
  8
0
100
AcDbLine
 10
0.0
 20
0.0
 30
0.0
 11
0.05
 21
0.0
 31
0.0
1001
ACAD
1000
TCW40_DEV_WIDTH
1002
{
1040
-3.0
1002
}
  0
LINE
  5
1E0
100
AcDbEntity
  8
0
100
AcDbLine
 10
0.35
 20
0.0
 30
0.0
 11
0.4
 21
0.0
 31
0.0
1001
ACAD
1000
TCW40_DEV_WIDTH
1002
{
1040
-3.0
1002
}
  0
ENDBLK
  5
1E1
100
AcDbEntity
  8
0
100
AcDbBlockEnd
  0
BLOCK
  5
1E3
100
AcDbEntity
  8
0
100
AcDbBlockBegin
  2
Lamp 1
 70
           2
 10
0.0
 20
0.0
 30
0.0
  3
Lamp 1
  1

  0
ATTDEF
  5
1E4
100
AcDbEntity
  8
0
  6
Continuous
100
AcDbText
 10
0.0
 20
0.0
 30
0.0
 40
0.000080200195
  1

  7
_TCW_TXTSTY_1
100
AcDbAttributeDefinition
  3

  2
ESTCODE
 70
           9
  0
CIRCLE
  5
1E5
100
AcDbEntity
  8
0
100
AcDbCircle
 10
0.2
 20
0.0
 30
0.0
 40
0.15000000596
  0
ARC
  5
1E6
100
AcDbEntity
  8
0
100
AcDbCircle
 10
0.141667
 20
0.008333
 30
0.0
 40
0.067185476422
100
AcDbArc
 50
-29.744900099515
 51
187.125002446391
1001
ACAD
1000
TCW40_DEV_WIDTH
1002
{
1040
-3.0
1002
}
  0
ARC
  5
1E7
100
AcDbEntity
  8
0
100
AcDbCircle
 10
0.258088
 20
0.009558
 30
0.0
 40
0.067591093481
100
AcDbArc
 50
-8.130099673792
 51
210.749998408061
1001
ACAD
1000
TCW40_DEV_WIDTH
1002
{
1040
-3.0
1002
}
  0
LINE
  5
1E8
100
AcDbEntity
  8
0
100
AcDbLine
 10
0.0
 20
0.0
 30
0.0
 11
0.075
 21
0.0
 31
0.0
1001
ACAD
1000
TCW40_DEV_WIDTH
1002
{
1040
-3.0
1002
}
  0
LINE
  5
1E9
100
AcDbEntity
  8
0
100
AcDbLine
 10
0.325
 20
0.0
 30
0.0
 11
0.4
 21
0.0
 31
0.0
1001
ACAD
1000
TCW40_DEV_WIDTH
1002
{
1040
-3.0
1002
}
  0
ENDBLK
  5
1EA
100
AcDbEntity
  8
0
100
AcDbBlockEnd
  0
BLOCK
  5
1EC
100
AcDbEntity
  8
0
100
AcDbBlockBegin
  2
Transformer
 70
           2
 10
0.0
 20
0.0
 30
0.0
  3
Transformer
  1

  0
ATTDEF
  5
1ED
100
AcDbEntity
  8
0
  6
Continuous
100
AcDbText
 10
0.0
 20
0.0
 30
0.0
 40
0.000102310177
  1

  7
_TCW_TXTSTY_1
100
AcDbAttributeDefinition
  3

  2
ESTCODE
 70
           9
  0
ARC
  5
1EE
100
AcDbEntity
  8
0
100
AcDbCircle
 10
0.229167365204
 20
0.249999990332
 30
0.0
 40
0.054166670889
100
AcDbArc
 50
67.380137181067
 51
292.619896969879
1001
ACAD
1000
TCW40_DEV_WIDTH
1002
{
1040
-3.0
1002
}
  0
ARC
  5
1EF
100
AcDbEntity
  8
0
100
AcDbCircle
 10
0.020833365204
 20
0.249999990332
 30
0.0
 40
0.054166670889
100
AcDbArc
 50
-112.619901978835
 51
112.619901978835
1001
ACAD
1000
TCW40_DEV_WIDTH
1002
{
1040
-3.0
1002
}
  0
ARC
  5
1F0
100
AcDbEntity
  8
0
100
AcDbCircle
 10
0.229167365204
 20
0.349999990332
 30
0.0
 40
0.054166670889
100
AcDbArc
 50
67.380137181067
 51
292.619896969879
1001
ACAD
1000
TCW40_DEV_WIDTH
1002
{
1040
-3.0
1002
}
  0
ARC
  5
1F1
100
AcDbEntity
  8
0
100
AcDbCircle
 10
0.020833365204
 20
0.349999990332
 30
0.0
 40
0.054166670889
100
AcDbArc
 50
-112.619901978835
 51
112.619901978835
1001
ACAD
1000
TCW40_DEV_WIDTH
1002
{
1040
-3.0
1002
}
  0
ARC
  5
1F2
100
AcDbEntity
  8
0
100
AcDbCircle
 10
0.229167365204
 20
0.049999990332
 30
0.0
 40
0.054166670889
100
AcDbArc
 50
67.380137181067
 51
292.619896969879
1001
ACAD
1000
TCW40_DEV_WIDTH
1002
{
1040
-3.0
1002
}
  0
ARC
  5
1F3
100
AcDbEntity
  8
0
100
AcDbCircle
 10
0.020833365204
 20
0.049999990332
 30
0.0
 40
0.054166670889
100
AcDbArc
 50
-112.619901978835
 51
112.619901978835
1001
ACAD
1000
TCW40_DEV_WIDTH
1002
{
1040
-3.0
1002
}
  0
ARC
  5
1F4
100
AcDbEntity
  8
0
100
AcDbCircle
 10
0.229167365204
 20
0.149999990332
 30
0.0
 40
0.054166670889
100
AcDbArc
 50
67.380137181067
 51
292.619896969879
1001
ACAD
1000
TCW40_DEV_WIDTH
1002
{
1040
-3.0
1002
}
  0
LINE
  5
1F5
100
AcDbEntity
  8
0
100
AcDbLine
 10
0.150000365204
 20
0.399999990332
 30
0.0
 11
0.150000365204
 21
-0.000000009668
 31
0.0
1001
ACAD
1000
TCW40_DEV_WIDTH
1002
{
1040
-3.0
1002
}
  0
LINE
  5
1F6
100
AcDbEntity
  8
0
100
AcDbLine
 10
0.100000365204
 20
-0.000000009668
 30
0.0
 11
0.100000365204
 21
0.399999990332
 31
0.0
1001
ACAD
1000
TCW40_DEV_WIDTH
1002
{
1040
-3.0
1002
}
  0
ARC
  5
1F7
100
AcDbEntity
  8
0
100
AcDbCircle
 10
0.020833365204
 20
0.149999990332
 30
0.0
 40
0.054166670889
100
AcDbArc
 50
-112.619901978835
 51
112.619901978835
1001
ACAD
1000
TCW40_DEV_WIDTH
1002
{
1040
-3.0
1002
}
  0
ENDBLK
  5
1F8
100
AcDbEntity
  8
0
100
AcDbBlockEnd
  0
BLOCK
  5
1FA
100
AcDbEntity
  8
0
100
AcDbBlockBegin
  2
3-Phase Delta
 70
           2
 10
0.0
 20
0.0
 30
0.0
  3
3-Phase Delta
  1

  0
ATTDEF
  5
1FB
100
AcDbEntity
  8
0
  6
Continuous
100
AcDbText
 10
0.0
 20
0.0
 30
0.0
 40
0.000080200195
  1

  7
_TCW_TXTSTY_1
100
AcDbAttributeDefinition
  3

  2
ESTCODE
 70
           9
  0
LINE
  5
1FC
100
AcDbEntity
  8
0
100
AcDbLine
 10
0.16218
 20
-0.109395
 30
0.0
 11
0.0
 21
0.2
 31
0.0
1001
ACAD
1000
TCW40_DEV_WIDTH
1002
{
1040
-3.0
1002
}
  0
LINE
  5
1FD
100
AcDbEntity
  8
0
100
AcDbLine
 10
-0.16219
 20
-0.109395
 30
0.0
 11
0.16218
 21
-0.109395
 31
0.0
1001
ACAD
1000
TCW40_DEV_WIDTH
1002
{
1040
-3.0
1002
}
  0
LINE
  5
1FE
100
AcDbEntity
  8
0
100
AcDbLine
 10
0.0
 20
0.2
 30
0.0
 11
-0.16219
 21
-0.109395
 31
0.0
1001
ACAD
1000
TCW40_DEV_WIDTH
1002
{
1040
-3.0
1002
}
  0
LINE
  5
1FF
100
AcDbEntity
  8
0
100
AcDbLine
 10
0.07492
 20
-0.185437
 30
0.0
 11
0.0
 21
-0.2
 31
0.0
1001
ACAD
1000
TCW40_DEV_WIDTH
1002
{
1040
-3.0
1002
}
  0
LINE
  5
200
100
AcDbEntity
  8
0
100
AcDbLine
 10
0.13893
 20
-0.143868
 30
0.0
 11
0.07492
 21
-0.185437
 31
0.0
1001
ACAD
1000
TCW40_DEV_WIDTH
1002
{
1040
-3.0
1002
}
  0
LINE
  5
201
100
AcDbEntity
  8
0
100
AcDbLine
 10
0.18543
 20
-0.074921
 30
0.0
 11
0.13893
 21
-0.143868
 31
0.0
1001
ACAD
1000
TCW40_DEV_WIDTH
1002
{
1040
-3.0
1002
}
  0
LINE
  5
202
100
AcDbEntity
  8
0
100
AcDbLine
 10
0.2
 20
-0.000001
 30
0.0
 11
0.18543
 21
-0.074921
 31
0.0
1001
ACAD
1000
TCW40_DEV_WIDTH
1002
{
1040
-3.0
1002
}
  0
LINE
  5
203
100
AcDbEntity
  8
0
100
AcDbLine
 10
0.07492
 20
0.185437
 30
0.0
 11
0.0
 21
0.2
 31
0.0
1001
ACAD
1000
TCW40_DEV_WIDTH
1002
{
1040
-3.0
1002
}
  0
LINE
  5
204
100
AcDbEntity
  8
0
100
AcDbLine
 10
0.13893
 20
0.143868
 30
0.0
 11
0.07492
 21
0.185437
 31
0.0
1001
ACAD
1000
TCW40_DEV_WIDTH
1002
{
1040
-3.0
1002
}
  0
LINE
  5
205
100
AcDbEntity
  8
0
100
AcDbLine
 10
0.18543
 20
0.074921
 30
0.0
 11
0.13893
 21
0.143868
 31
0.0
1001
ACAD
1000
TCW40_DEV_WIDTH
1002
{
1040
-3.0
1002
}
  0
LINE
  5
206
100
AcDbEntity
  8
0
100
AcDbLine
 10
0.2
 20
0.0
 30
0.0
 11
0.18543
 21
0.074921
 31
0.0
1001
ACAD
1000
TCW40_DEV_WIDTH
1002
{
1040
-3.0
1002
}
  0
LINE
  5
207
100
AcDbEntity
  8
0
100
AcDbLine
 10
-0.07492
 20
-0.185437
 30
0.0
 11
0.0
 21
-0.2
 31
0.0
1001
ACAD
1000
TCW40_DEV_WIDTH
1002
{
1040
-3.0
1002
}
  0
LINE
  5
208
100
AcDbEntity
  8
0
100
AcDbLine
 10
-0.13893
 20
-0.143868
 30
0.0
 11
-0.07492
 21
-0.185437
 31
0.0
1001
ACAD
1000
TCW40_DEV_WIDTH
1002
{
1040
-3.0
1002
}
  0
LINE
  5
209
100
AcDbEntity
  8
0
100
AcDbLine
 10
-0.18544
 20
-0.074921
 30
0.0
 11
-0.13893
 21
-0.143868
 31
0.0
1001
ACAD
1000
TCW40_DEV_WIDTH
1002
{
1040
-3.0
1002
}
  0
LINE
  5
20A
100
AcDbEntity
  8
0
100
AcDbLine
 10
-0.2
 20
-0.000001
 30
0.0
 11
-0.18544
 21
-0.074921
 31
0.0
1001
ACAD
1000
TCW40_DEV_WIDTH
1002
{
1040
-3.0
1002
}
  0
LINE
  5
20B
100
AcDbEntity
  8
0
100
AcDbLine
 10
-0.07492
 20
0.185437
 30
0.0
 11
0.0
 21
0.2
 31
0.0
1001
ACAD
1000
TCW40_DEV_WIDTH
1002
{
1040
-3.0
1002
}
  0
LINE
  5
20C
100
AcDbEntity
  8
0
100
AcDbLine
 10
-0.13893
 20
0.143868
 30
0.0
 11
-0.07492
 21
0.185437
 31
0.0
1001
ACAD
1000
TCW40_DEV_WIDTH
1002
{
1040
-3.0
1002
}
  0
LINE
  5
20D
100
AcDbEntity
  8
0
100
AcDbLine
 10
-0.18544
 20
0.074921
 30
0.0
 11
-0.13893
 21
0.143868
 31
0.0
1001
ACAD
1000
TCW40_DEV_WIDTH
1002
{
1040
-3.0
1002
}
  0
LINE
  5
20E
100
AcDbEntity
  8
0
100
AcDbLine
 10
-0.2
 20
0.0
 30
0.0
 11
-0.18544
 21
0.074921
 31
0.0
1001
ACAD
1000
TCW40_DEV_WIDTH
1002
{
1040
-3.0
1002
}
  0
ENDBLK
  5
20F
100
AcDbEntity
  8
0
100
AcDbBlockEnd
  0
BLOCK
  5
211
100
AcDbEntity
  8
0
100
AcDbBlockBegin
  2
Inductor
 70
           2
 10
0.0
 20
0.0
 30
0.0
  3
Inductor
  1

  0
ATTDEF
  5
212
100
AcDbEntity
  8
0
  6
Continuous
100
AcDbText
 10
0.0
 20
0.0
 30
0.0
 40
0.000080200195
  1

  7
_TCW_TXTSTY_1
100
AcDbAttributeDefinition
  3

  2
ESTCODE
 70
           9
  0
ARC
  5
213
100
AcDbEntity
  8
0
100
AcDbCircle
 10
0.2
 20
0.0375
 30
0.0
 40
0.0625
100
AcDbArc
 50
-36.869900724673
 51
216.869902545906
1001
ACAD
1000
TCW40_DEV_WIDTH
1002
{
1040
-3.0
1002
}
  0
ARC
  5
214
100
AcDbEntity
  8
0
100
AcDbCircle
 10
0.1
 20
0.0375
 30
0.0
 40
0.0625
100
AcDbArc
 50
-36.869900724673
 51
216.869902545906
1001
ACAD
1000
TCW40_DEV_WIDTH
1002
{
1040
-3.0
1002
}
  0
LINE
  5
215
100
AcDbEntity
  8
0
100
AcDbLine
 10
0.0
 20
0.0
 30
0.0
 11
0.05
 21
0.0
 31
0.0
1001
ACAD
1000
TCW40_DEV_WIDTH
1002
{
1040
-3.0
1002
}
  0
ARC
  5
216
100
AcDbEntity
  8
0
100
AcDbCircle
 10
0.3
 20
0.0375
 30
0.0
 40
0.0625
100
AcDbArc
 50
-36.869900724673
 51
216.869902545906
1001
ACAD
1000
TCW40_DEV_WIDTH
1002
{
1040
-3.0
1002
}
  0
LINE
  5
217
100
AcDbEntity
  8
0
100
AcDbLine
 10
0.35
 20
0.0
 30
0.0
 11
0.4
 21
0.0
 31
0.0
1001
ACAD
1000
TCW40_DEV_WIDTH
1002
{
1040
-3.0
1002
}
  0
ENDBLK
  5
218
100
AcDbEntity
  8
0
100
AcDbBlockEnd
  0
BLOCK
  5
21A
100
AcDbEntity
  8
0
100
AcDbBlockBegin
  2
Resistor
 70
           2
 10
0.0
 20
0.0
 30
0.0
  3
Resistor
  1

  0
ATTDEF
  5
21B
100
AcDbEntity
  8
0
  6
Continuous
100
AcDbText
 10
0.0
 20
0.0
 30
0.0
 40
0.000080200195
  1

  7
_TCW_TXTSTY_1
100
AcDbAttributeDefinition
  3

  2
ESTCODE
 70
           9
  0
LWPOLYLINE
  5
21C
100
AcDbEntity
  8
0
100
AcDbPolyline
 90
       10
 70
           0
 10
0.0
 20
0.0
 10
0.05
 20
0.0
 10
0.075
 20
0.025
 10
0.125
 20
-0.025
 10
0.175
 20
0.025
 10
0.225
 20
-0.025
 10
0.275
 20
0.025
 10
0.325
 20
-0.025
 10
0.35
 20
0.0
 10
0.4
 20
0.0
1001
ACAD
1000
TCW40_DEV_WIDTH
1002
{
1040
-3.0
1002
}
  0
ENDBLK
  5
21D
100
AcDbEntity
  8
0
100
AcDbBlockEnd
  0
BLOCK
  5
21F
100
AcDbEntity
  8
0
100
AcDbBlockBegin
  2
Capacitor
 70
           2
 10
0.0
 20
0.0
 30
0.0
  3
Capacitor
  1

  0
ATTDEF
  5
220
100
AcDbEntity
  8
0
  6
Continuous
100
AcDbText
 10
0.0
 20
0.0
 30
0.0
 40
0.000080200195
  1

  7
_TCW_TXTSTY_1
100
AcDbAttributeDefinition
  3

  2
ESTCODE
 70
           9
  0
LINE
  5
221
100
AcDbEntity
  8
0
100
AcDbLine
 10
0.15
 20
-0.1
 30
0.0
 11
0.15
 21
0.1
 31
0.0
1001
ACAD
1000
TCW40_DEV_WIDTH
1002
{
1040
-3.0
1002
}
  0
LINE
  5
222
100
AcDbEntity
  8
0
100
AcDbLine
 10
0.15
 20
0.0
 30
0.0
 11
0.0
 21
0.0
 31
0.0
1001
ACAD
1000
TCW40_DEV_WIDTH
1002
{
1040
-3.0
1002
}
  0
ARC
  5
223
100
AcDbEntity
  8
0
100
AcDbCircle
 10
0.4375
 20
0.0
 30
0.0
 40
0.21250000596
100
AcDbArc
 50
151.927504048475
 51
208.072495951525
1001
ACAD
1000
TCW40_DEV_WIDTH
1002
{
1040
-3.0
1002
}
  0
LINE
  5
224
100
AcDbEntity
  8
0
100
AcDbLine
 10
0.225
 20
0.0
 30
0.0
 11
0.4
 21
0.0
 31
0.0
1001
ACAD
1000
TCW40_DEV_WIDTH
1002
{
1040
-3.0
1002
}
  0
ENDBLK
  5
225
100
AcDbEntity
  8
0
100
AcDbBlockEnd
  0
BLOCK
  5
227
100
AcDbEntity
  8
0
100
AcDbBlockBegin
  2
Locking Switch Open
 70
           2
 10
0.0
 20
0.0
 30
0.0
  3
Locking Switch Open
  1

  0
ATTDEF
  5
228
100
AcDbEntity
  8
0
  6
Continuous
100
AcDbText
 10
0.0
 20
0.0
 30
0.0
 40
0.000082214357
  1

  7
_TCW_TXTSTY_1
100
AcDbAttributeDefinition
  3

  2
ESTCODE
 70
           9
  0
ARC
  5
229
100
AcDbEntity
  8
0
100
AcDbCircle
 10
0.35
 20
0.0
 30
0.0
 40
0.025000000373
100
AcDbArc
 50
90.0
 51
179.99989572593
1001
ACAD
1000
TCW40_DEV_WIDTH
1002
{
1040
-3.0
1002
}
  0
ARC
  5
22A
100
AcDbEntity
  8
0
100
AcDbCircle
 10
0.35
 20
0.0
 30
0.0
 40
0.025000000373
100
AcDbArc
 50
0.000126585896
 51
90.000002504478
1001
ACAD
1000
TCW40_DEV_WIDTH
1002
{
1040
-3.0
1002
}
  0
ARC
  5
22B
100
AcDbEntity
  8
0
100
AcDbCircle
 10
0.35
 20
0.0
 30
0.0
 40
0.025000000373
100
AcDbArc
 50
-179.99989572593
 51
-90.000002504478
1001
ACAD
1000
TCW40_DEV_WIDTH
1002
{
1040
-3.0
1002
}
  0
ARC
  5
22C
100
AcDbEntity
  8
0
100
AcDbCircle
 10
0.35
 20
0.0
 30
0.0
 40
0.025000000373
100
AcDbArc
 50
-90.0
 51
-0.000099999997
1001
ACAD
1000
TCW40_DEV_WIDTH
1002
{
1040
-3.0
1002
}
  0
ARC
  5
22D
100
AcDbEntity
  8
0
100
AcDbCircle
 10
0.0
 20
0.0
 30
0.0
 40
0.025000000373
100
AcDbArc
 50
90.0
 51
179.99989572593
1001
ACAD
1000
TCW40_DEV_WIDTH
1002
{
1040
-3.0
1002
}
  0
ARC
  5
22E
100
AcDbEntity
  8
0
100
AcDbCircle
 10
0.0
 20
0.0
 30
0.0
 40
0.025000000373
100
AcDbArc
 50
0.000126585896
 51
90.000002504478
1001
ACAD
1000
TCW40_DEV_WIDTH
1002
{
1040
-3.0
1002
}
  0
ARC
  5
22F
100
AcDbEntity
  8
0
100
AcDbCircle
 10
0.0
 20
0.0
 30
0.0
 40
0.025000000373
100
AcDbArc
 50
-179.99989572593
 51
-90.000002504478
1001
ACAD
1000
TCW40_DEV_WIDTH
1002
{
1040
-3.0
1002
}
  0
ARC
  5
230
100
AcDbEntity
  8
0
100
AcDbCircle
 10
0.0
 20
0.0
 30
0.0
 40
0.025000000373
100
AcDbArc
 50
-90.0
 51
-0.000099999997
1001
ACAD
1000
TCW40_DEV_WIDTH
1002
{
1040
-3.0
1002
}
  0
LINE
  5
231
100
AcDbEntity
  8
0
100
AcDbLine
 10
0.023056
 20
0.009223
 30
0.0
 11
0.375
 21
0.1
 31
0.0
1001
ACAD
1000
TCW40_DEV_WIDTH
1002
{
1040
-3.0
1002
}
  0
ENDBLK
  5
232
100
AcDbEntity
  8
0
100
AcDbBlockEnd
  0
BLOCK
  5
234
100
AcDbEntity
  8
0
100
AcDbBlockBegin
  2
Power Ground
 70
           2
 10
0.0
 20
0.0
 30
0.0
  3
Power Ground
  1

  0
ATTDEF
  5
235
100
AcDbEntity
  8
0
  6
Continuous
100
AcDbText
 10
0.0
 20
0.0
 30
0.0
 40
0.000042114255
  1

  7
_TCW_TXTSTY_1
100
AcDbAttributeDefinition
  3

  2
ESTCODE
 70
           9
  0
LINE
  5
236
100
AcDbEntity
  8
0
100
AcDbLine
 10
-0.05
 20
-0.1
 30
0.0
 11
0.05
 21
-0.1
 31
0.0
1001
ACAD
1000
TCW40_DEV_WIDTH
1002
{
1040
-3.0
1002
}
  0
LINE
  5
237
100
AcDbEntity
  8
0
100
AcDbLine
 10
0.075
 20
-0.05
 30
0.0
 11
-0.075
 21
-0.05
 31
0.0
1001
ACAD
1000
TCW40_DEV_WIDTH
1002
{
1040
-3.0
1002
}
  0
LINE
  5
238
100
AcDbEntity
  8
0
100
AcDbLine
 10
-0.1
 20
0.0
 30
0.0
 11
0.1
 21
0.0
 31
0.0
1001
ACAD
1000
TCW40_DEV_WIDTH
1002
{
1040
-3.0
1002
}
  0
ENDBLK
  5
239
100
AcDbEntity
  8
0
100
AcDbBlockEnd
  0
BLOCK
  5
23B
100
AcDbEntity
  8
0
100
AcDbBlockBegin
  2
A$C03040EC0
 70
           0
 10
0.0
 20
0.0
 30
0.0
  3
A$C03040EC0
  1

  0
INSERT
  5
23C
100
AcDbEntity
  8
0
100
AcDbBlockReference
  2
Resistor
 10
0.0
 20
0.024999997276
 30
0.0
  0
ENDBLK
  5
23D
100
AcDbEntity
  8
0
100
AcDbBlockEnd
  0
BLOCK
  5
23F
100
AcDbEntity
  8
0
100
AcDbBlockBegin
  2
A$C6A19271A
 70
           0
 10
0.0
 20
0.0
 30
0.0
  3
A$C6A19271A
  1

  0
CIRCLE
  5
240
100
AcDbEntity
  8
0
100
AcDbCircle
 10
0.024999990254
 20
0.025000003034
 30
0.0
 40
0.025000000373
  0
ENDBLK
  5
241
100
AcDbEntity
  8
0
100
AcDbBlockEnd
  0
BLOCK
  5
243
100
AcDbEntity
  8
0
100
AcDbBlockBegin
  2
Ohm Symbol
 70
           2
 10
0.0
 20
0.0
 30
0.0
  3
Ohm Symbol
  1

  0
ATTDEF
  5
244
100
AcDbEntity
  8
0
  6
Continuous
100
AcDbText
 10
0.0
 20
0.0
 30
0.0
 40
0.000018539426
  1

  7
_TCW_TXTSTY_1
100
AcDbAttributeDefinition
  3

  2
ESTCODE
 70
           9
  0
LINE
  5
245
100
AcDbEntity
  8
0
100
AcDbLine
 10
0.05
 20
0.0
 30
0.0
 11
0.07
 21
0.0
 31
0.0
1001
ACAD
1000
TCW40_DEV_WIDTH
1002
{
1040
-3.0
1002
}
  0
LINE
  5
246
100
AcDbEntity
  8
0
100
AcDbLine
 10
0.0
 20
0.0
 30
0.0
 11
0.02
 21
0.0
 31
0.0
1001
ACAD
1000
TCW40_DEV_WIDTH
1002
{
1040
-3.0
1002
}
  0
ARC
  5
247
100
AcDbEntity
  8
0
100
AcDbCircle
 10
0.035
 20
0.033393
 30
0.0
 40
0.036607138813
100
AcDbArc
 50
-65.810498238095
 51
245.810500059328
1001
ACAD
1000
TCW40_DEV_WIDTH
1002
{
1040
-3.0
1002
}
  0
ENDBLK
  5
248
100
AcDbEntity
  8
0
100
AcDbBlockEnd
  0
BLOCK
  5
24A
100
AcDbEntity
  8
0
100
AcDbBlockBegin
  2
Rheostat
 70
           2
 10
0.0
 20
0.0
 30
0.0
  3
Rheostat
  1

  0
ATTDEF
  5
24B
100
AcDbEntity
  8
0
  6
Continuous
100
AcDbText
 10
0.0
 20
0.0
 30
0.0
 40
0.000080200195
  1

  7
_TCW_TXTSTY_1
100
AcDbAttributeDefinition
  3

  2
ESTCODE
 70
           9
  0
LINE
  5
24C
100
AcDbEntity
  8
0
100
AcDbLine
 10
0.350001
 20
0.0
 30
0.0
 11
0.400002
 21
0.0
 31
0.0
1001
ACAD
1000
TCW40_DEV_WIDTH
1002
{
1040
-3.0
1002
}
  0
LINE
  5
24D
100
AcDbEntity
  8
0
100
AcDbLine
 10
0.350001
 20
0.0
 30
0.0
 11
0.325
 21
-0.025001
 31
0.0
1001
ACAD
1000
TCW40_DEV_WIDTH
1002
{
1040
-3.0
1002
}
  0
LINE
  5
24E
100
AcDbEntity
  8
0
100
AcDbLine
 10
0.275001
 20
0.025
 30
0.0
 11
0.325
 21
-0.025001
 31
0.0
1001
ACAD
1000
TCW40_DEV_WIDTH
1002
{
1040
-3.0
1002
}
  0
LINE
  5
24F
100
AcDbEntity
  8
0
100
AcDbLine
 10
0.2
 20
0.075
 30
0.0
 11
0.2
 21
0.15
 31
0.0
1001
ACAD
1000
TCW40_DEV_WIDTH
1002
{
1040
-3.0
1002
}
  0
LINE
  5
250
100
AcDbEntity
  8
0
100
AcDbLine
 10
0.175001
 20
0.075
 30
0.0
 11
0.225001
 21
0.075
 31
0.0
1001
ACAD
1000
TCW40_DEV_WIDTH
1002
{
1040
-3.0
1002
}
  0
LINE
  5
251
100
AcDbEntity
  8
0
100
AcDbLine
 10
0.175001
 20
0.025
 30
0.0
 11
0.225001
 21
-0.025001
 31
0.0
1001
ACAD
1000
TCW40_DEV_WIDTH
1002
{
1040
-3.0
1002
}
  0
LINE
  5
252
100
AcDbEntity
  8
0
100
AcDbLine
 10
0.125
 20
-0.025001
 30
0.0
 11
0.175001
 21
0.025
 31
0.0
1001
ACAD
1000
TCW40_DEV_WIDTH
1002
{
1040
-3.0
1002
}
  0
LINE
  5
253
100
AcDbEntity
  8
0
100
AcDbLine
 10
0.225001
 20
0.075
 30
0.0
 11
0.2
 21
0.0
 31
0.0
1001
ACAD
1000
TCW40_DEV_WIDTH
1002
{
1040
-3.0
1002
}
  0
LINE
  5
254
100
AcDbEntity
  8
0
100
AcDbLine
 10
0.2
 20
0.0
 30
0.0
 11
0.175001
 21
0.075
 31
0.0
1001
ACAD
1000
TCW40_DEV_WIDTH
1002
{
1040
-3.0
1002
}
  0
LINE
  5
255
100
AcDbEntity
  8
0
100
AcDbLine
 10
0.225001
 20
-0.025001
 30
0.0
 11
0.275001
 21
0.025
 31
0.0
1001
ACAD
1000
TCW40_DEV_WIDTH
1002
{
1040
-3.0
1002
}
  0
LINE
  5
256
100
AcDbEntity
  8
0
100
AcDbLine
 10
0.050001
 20
0.0
 30
0.0
 11
0.075
 21
0.025
 31
0.0
1001
ACAD
1000
TCW40_DEV_WIDTH
1002
{
1040
-3.0
1002
}
  0
LINE
  5
257
100
AcDbEntity
  8
0
100
AcDbLine
 10
0.0
 20
0.0
 30
0.0
 11
0.050001
 21
0.0
 31
0.0
1001
ACAD
1000
TCW40_DEV_WIDTH
1002
{
1040
-3.0
1002
}
  0
LINE
  5
258
100
AcDbEntity
  8
0
100
AcDbLine
 10
0.075
 20
0.025
 30
0.0
 11
0.125
 21
-0.025001
 31
0.0
1001
ACAD
1000
TCW40_DEV_WIDTH
1002
{
1040
-3.0
1002
}
  0
ENDBLK
  5
259
100
AcDbEntity
  8
0
100
AcDbBlockEnd
  0
BLOCK
  5
25B
100
AcDbEntity
  8
0
100
AcDbBlockBegin
  2
A$C08006EF5
 70
           0
 10
0.0
 20
0.0
 30
0.0
  3
A$C08006EF5
  1

  0
LWPOLYLINE
  5
25C
100
AcDbEntity
  8
0
100
AcDbPolyline
 90
        4
 70
           1
 10
1.199999993192
 20
1.474999996337
 10
-0.000000006808
 20
1.474999996337
 10
-0.000000006808
 20
0.174999996337
 10
1.199999993192
 20
0.174999996337
1001
ACAD
1000
TCW40_DEV_WIDTH
1002
{
1040
-3.0
1002
}
  0
LINE
  5
25D
100
AcDbEntity
  8
0
100
AcDbLine
 10
0.599999993192
 20
1.574999996337
 30
0.0
 11
0.599999993192
 21
0.874999996337
 31
0.0
1001
ACAD
1000
TCW40_DEV_WIDTH
1002
{
1040
-3.0
1002
}
  0
LINE
  5
25E
100
AcDbEntity
  8
0
100
AcDbLine
 10
0.999999993192
 20
1.574999996337
 30
0.0
 11
0.999999993192
 21
0.874999996337
 31
0.0
1001
ACAD
1000
TCW40_DEV_WIDTH
1002
{
1040
-3.0
1002
}
  0
INSERT
  5
25F
100
AcDbEntity
  8
0
100
AcDbBlockReference
  2
Rheostat
 10
0.599999993192
 20
1.174999996337
 30
0.0
  0
TEXT
  5
261
100
AcDbEntity
  8
0
  6
Continuous
100
AcDbText
 10
0.699999993192
 20
-0.025000003663
 30
0.0
 40
0.075
  1
L1
  7
_TCW_TXTSTY_2
100
AcDbText
1001
TCAD
1000
TCW40_TEXT
1002
{
1000
txt.shx
1070
           0
1070
        1025
1002
}
  0
TEXT
  5
262
100
AcDbEntity
  8
0
  6
Continuous
100
AcDbText
 10
0.677056417113
 20
1.009082394457
 30
0.0
 40
0.075
  1
15k
  7
_TCW_TXTSTY_2
100
AcDbText
1001
TCAD
1000
TCW40_TEXT
1002
{
1000
txt.shx
1070
           0
1070
        1025
1002
}
  0
LINE
  5
263
100
AcDbEntity
  8
0
100
AcDbLine
 10
0.599999993192
 20
0.474999996337
 30
0.0
 11
0.599999993192
 21
0.074999996337
 31
0.0
1001
ACAD
1000
TCW40_DEV_WIDTH
1002
{
1040
-3.0
1002
}
  0
LINE
  5
264
100
AcDbEntity
  8
0
100
AcDbLine
 10
0.199999993192
 20
0.474999996337
 30
0.0
 11
0.199999993192
 21
0.074999996337
 31
0.0
1001
ACAD
1000
TCW40_DEV_WIDTH
1002
{
1040
-3.0
1002
}
  0
TEXT
  5
265
100
AcDbEntity
  8
0
  6
Continuous
100
AcDbText
 10
0.299999993192
 20
-0.025000003663
 30
0.0
 40
0.075
  1
P2
  7
_TCW_TXTSTY_2
100
AcDbText
1001
TCAD
1000
TCW40_TEXT
1002
{
1000
txt.shx
1070
           0
1070
        1025
1002
}
  0
CIRCLE
  5
266
100
AcDbEntity
  8
0
100
AcDbCircle
 10
0.199999993192
 20
0.049999996337
 30
0.0
 40
0.025000000373
  0
CIRCLE
  5
267
100
AcDbEntity
  8
0
100
AcDbCircle
 10
0.599999993192
 20
0.049999996337
 30
0.0
 40
0.025000000373
  0
LINE
  5
268
100
AcDbEntity
  8
0
100
AcDbLine
 10
0.199999993192
 20
1.174999996337
 30
0.0
 11
0.599999993192
 21
1.174999996337
 31
0.0
1001
ACAD
1000
TCW40_DEV_WIDTH
1002
{
1040
-3.0
1002
}
  0
LINE
  5
269
100
AcDbEntity
  8
0
100
AcDbLine
 10
0.099999988126
 20
0.474999997623
 30
0.0
 11
0.175423403372
 21
0.854581642007
 31
0.0
1001
ACAD
1000
TCW40_DEV_WIDTH
1002
{
1040
-3.0
1002
}
  0
CIRCLE
  5
26A
100
AcDbEntity
  8
0
100
AcDbCircle
 10
0.199999988126
 20
0.499999997623
 30
0.0
 40
0.025000000373
  0
LINE
  5
26B
100
AcDbEntity
  8
0
100
AcDbLine
 10
0.199999993192
 20
0.874999996337
 30
0.0
 11
0.199999993192
 21
1.174999996337
 31
0.0
1001
ACAD
1000
TCW40_DEV_WIDTH
1002
{
1040
-3.0
1002
}
  0
CIRCLE
  5
26C
100
AcDbEntity
  8
0
100
AcDbCircle
 10
0.199999988126
 20
0.849999995819
 30
0.0
 40
0.025000000373
  0
LINE
  5
26D
100
AcDbEntity
  8
0
100
AcDbLine
 10
0.499999988126
 20
0.474999997623
 30
0.0
 11
0.575423403372
 21
0.854581642007
 31
0.0
1001
ACAD
1000
TCW40_DEV_WIDTH
1002
{
1040
-3.0
1002
}
  0
CIRCLE
  5
26E
100
AcDbEntity
  8
0
100
AcDbCircle
 10
0.599999988126
 20
0.499999997623
 30
0.0
 40
0.025000000373
  0
CIRCLE
  5
26F
100
AcDbEntity
  8
0
100
AcDbCircle
 10
0.599999988126
 20
0.849999995819
 30
0.0
 40
0.025000000373
  0
LINE
  5
270
100
AcDbEntity
  8
0
100
AcDbLine
 10
0.999999993192
 20
0.474999996337
 30
0.0
 11
0.999999993192
 21
0.074999996337
 31
0.0
1001
ACAD
1000
TCW40_DEV_WIDTH
1002
{
1040
-3.0
1002
}
  0
CIRCLE
  5
271
100
AcDbEntity
  8
0
100
AcDbCircle
 10
0.999999993192
 20
0.049999996337
 30
0.0
 40
0.025000000373
  0
TEXT
  5
272
100
AcDbEntity
  8
0
  6
Continuous
100
AcDbText
 10
1.099999993192
 20
-0.025000003663
 30
0.0
 40
0.075
  1
L2
  7
_TCW_TXTSTY_2
100
AcDbText
1001
TCAD
1000
TCW40_TEXT
1002
{
1000
txt.shx
1070
           0
1070
        1025
1002
}
  0
LINE
  5
273
100
AcDbEntity
  8
0
100
AcDbLine
 10
0.899999996723
 20
0.474999996337
 30
0.0
 11
0.975423411968
 21
0.854581640721
 31
0.0
1001
ACAD
1000
TCW40_DEV_WIDTH
1002
{
1040
-3.0
1002
}
  0
CIRCLE
  5
274
100
AcDbEntity
  8
0
100
AcDbCircle
 10
0.999999996723
 20
0.499999996337
 30
0.0
 40
0.025000000373
  0
CIRCLE
  5
275
100
AcDbEntity
  8
0
100
AcDbCircle
 10
0.999999996723
 20
0.849999994533
 30
0.0
 40
0.025000000373
  0
INSERT
  5
276
100
AcDbEntity
  8
0
100
AcDbBlockReference
  2
Ohm Symbol
 10
0.874965595097
 20
1.035514288424
 30
0.0
  0
TEXT
  5
277
100
AcDbEntity
  8
0
  6
Continuous
100
AcDbText
 10
0.699999993192
 20
1.574999996337
 30
0.0
 40
0.075
  1
H1
  7
_TCW_TXTSTY_2
100
AcDbText
1001
TCAD
1000
TCW40_TEXT
1002
{
1000
txt.shx
1070
           0
1070
        1025
1002
}
  0
CIRCLE
  5
278
100
AcDbEntity
  8
0
100
AcDbCircle
 10
0.599999993192
 20
1.599999996337
 30
0.0
 40
0.025000000373
  0
CIRCLE
  5
279
100
AcDbEntity
  8
0
100
AcDbCircle
 10
0.999999993192
 20
1.599999996337
 30
0.0
 40
0.025000000373
  0
TEXT
  5
27A
100
AcDbEntity
  8
0
  6
Continuous
100
AcDbText
 10
1.099999993192
 20
1.574999996337
 30
0.0
 40
0.075
  1
H2
  7
_TCW_TXTSTY_2
100
AcDbText
1001
TCAD
1000
TCW40_TEXT
1002
{
1000
txt.shx
1070
           0
1070
        1025
1002
}
  0
ENDBLK
  5
27B
100
AcDbEntity
  8
0
100
AcDbBlockEnd
  0
BLOCK
  5
27D
100
AcDbEntity
  8
0
100
AcDbBlockBegin
  2
A$C26A43B7E
 70
           0
 10
0.0
 20
0.0
 30
0.0
  3
A$C26A43B7E
  1

  0
LINE
  5
27E
100
AcDbEntity
  8
0
100
AcDbLine
 10
0.09999998706
 20
-0.000000005112
 30
0.0
 11
0.100000001573
 21
0.099999993245
 31
0.0
1001
ACAD
1000
TCW40_DEV_WIDTH
1002
{
1040
-3.0
1002
}
  0
LINE
  5
27F
100
AcDbEntity
  8
0
100
AcDbLine
 10
0.49999998706
 20
-0.000000005112
 30
0.0
 11
0.500000001573
 21
0.099999993245
 31
0.0
1001
ACAD
1000
TCW40_DEV_WIDTH
1002
{
1040
-3.0
1002
}
  0
ARC
  5
280
100
AcDbEntity
  8
0
100
AcDbCircle
 10
0.500000001573
 20
0.199999993245
 30
0.0
 40
0.10000000149
100
AcDbArc
 50
90.0
 51
269.999997495522
1001
ACAD
1000
TCW40_DEV_WIDTH
1002
{
1040
-3.0
1002
}
  0
ARC
  5
281
100
AcDbEntity
  8
0
100
AcDbCircle
 10
0.100000001573
 20
0.199999993245
 30
0.0
 40
0.10000000149
100
AcDbArc
 50
90.0
 51
269.999997495522
1001
ACAD
1000
TCW40_DEV_WIDTH
1002
{
1040
-3.0
1002
}
  0
ENDBLK
  5
282
100
AcDbEntity
  8
0
100
AcDbBlockEnd
  0
BLOCK
  5
284
100
AcDbEntity
  8
0
100
AcDbBlockBegin
  2
A$C06E97278
 70
           0
 10
0.0
 20
0.0
 30
0.0
  3
A$C06E97278
  1

  0
LINE
  5
285
100
AcDbEntity
  8
0
100
AcDbLine
 10
0.100000001735
 20
0.700000000871
 30
0.0
 11
0.100000001735
 21
0.799999998358
 31
0.0
1001
ACAD
1000
TCW40_DEV_WIDTH
1002
{
1040
-3.0
1002
}
  0
LINE
  5
286
100
AcDbEntity
  8
0
100
AcDbLine
 10
0.100000014513
 20
-0.000000001642
 30
0.0
 11
0.100000014513
 21
0.199999998358
 31
0.0
1001
ACAD
1000
TCW40_DEV_WIDTH
1002
{
1040
-3.0
1002
}
  0
LINE
  5
287
100
AcDbEntity
  8
0
100
AcDbLine
 10
0.100000024216
 20
0.399999999615
 30
0.0
 11
0.100000024216
 21
0.499999999615
 31
0.0
1001
ACAD
1000
TCW40_DEV_WIDTH
1002
{
1040
-3.0
1002
}
  0
ARC
  5
288
100
AcDbEntity
  8
0
100
AcDbCircle
 10
0.100000014513
 20
0.299999998358
 30
0.0
 40
0.10000000149
100
AcDbArc
 50
90.0
 51
269.999997495522
1001
ACAD
1000
TCW40_DEV_WIDTH
1002
{
1040
-3.0
1002
}
  0
ARC
  5
289
100
AcDbEntity
  8
0
100
AcDbCircle
 10
0.100000024216
 20
0.599999999615
 30
0.0
 40
0.10000000149
100
AcDbArc
 50
90.0
 51
269.999997495522
1001
ACAD
1000
TCW40_DEV_WIDTH
1002
{
1040
-3.0
1002
}
  0
ARC
  5
28A
100
AcDbEntity
  8
0
100
AcDbCircle
 10
0.100000011438
 20
1.199999999615
 30
0.0
 40
0.10000000149
100
AcDbArc
 50
90.0
 51
269.999997495522
1001
ACAD
1000
TCW40_DEV_WIDTH
1002
{
1040
-3.0
1002
}
  0
ARC
  5
28B
100
AcDbEntity
  8
0
100
AcDbCircle
 10
0.100000001735
 20
0.899999998358
 30
0.0
 40
0.10000000149
100
AcDbArc
 50
90.0
 51
269.999997495522
1001
ACAD
1000
TCW40_DEV_WIDTH
1002
{
1040
-3.0
1002
}
  0
LINE
  5
28C
100
AcDbEntity
  8
0
100
AcDbLine
 10
0.100000011438
 20
0.999999999615
 30
0.0
 11
0.100000011438
 21
1.099999999615
 31
0.0
1001
ACAD
1000
TCW40_DEV_WIDTH
1002
{
1040
-3.0
1002
}
  0
ENDBLK
  5
28D
100
AcDbEntity
  8
0
100
AcDbBlockEnd
  0
BLOCK
  5
28F
100
AcDbEntity
  8
0
100
AcDbBlockBegin
  2
A$C3881095A
 70
           0
 10
0.0
 20
0.0
 30
0.0
  3
A$C3881095A
  1

  0
LWPOLYLINE
  5
290
100
AcDbEntity
  8
0
100
AcDbPolyline
 90
        4
 70
           1
 10
0.000000001627
 20
1.800000004483
 10
1.200000001627
 20
1.800000004483
 10
1.200000001627
 20
0.000000004483
 10
0.000000001627
 20
0.000000004483
1001
ACAD
1000
TCW40_DEV_WIDTH
1002
{
1040
-3.0
1002
}
  0
LINE
  5
291
100
AcDbEntity
  8
0
100
AcDbLine
 10
0.400000001627
 20
1.800000004483
 30
0.0
 11
0.400000001627
 21
3.000000004483
 31
0.0
1001
ACAD
1000
TCW40_DEV_WIDTH
1002
{
1040
-3.0
1002
}
  0
LINE
  5
292
100
AcDbEntity
  8
0
100
AcDbLine
 10
0.800000001627
 20
3.000000004483
 30
0.0
 11
0.800000001627
 21
1.800000004483
 31
0.0
1001
ACAD
1000
TCW40_DEV_WIDTH
1002
{
1040
-3.0
1002
}
  0
TEXT
  5
293
100
AcDbEntity
  8
0
  6
Continuous
100
AcDbText
 10
0.100000001627
 20
1.300000004483
 30
0.0
 40
0.075
  1
1
  7
_TCW_TXTSTY_2
100
AcDbText
1001
TCAD
1000
TCW40_TEXT
1002
{
1000
txt.shx
1070
           0
1070
        1025
1002
}
  0
ENDBLK
  5
294
100
AcDbEntity
  8
0
100
AcDbBlockEnd
  0
BLOCK
  5
296
100
AcDbEntity
  8
0
100
AcDbBlockBegin
  2
A$C7C7A5DC8
 70
           0
 10
0.0
 20
0.0
 30
0.0
  3
A$C7C7A5DC8
  1

  0
TEXT
  5
297
100
AcDbEntity
  8
0
  6
Continuous
100
AcDbText
 10
0.0
 20
-0.024999997923
 30
0.0
 40
0.075
  1
3
  7
_TCW_TXTSTY_2
100
AcDbText
1001
TCAD
1000
TCW40_TEXT
1002
{
1000
txt.shx
1070
           0
1070
        1025
1002
}
  0
ENDBLK
  5
298
100
AcDbEntity
  8
0
100
AcDbBlockEnd
  0
BLOCK
  5
29A
100
AcDbEntity
  8
0
100
AcDbBlockBegin
  2
A$C4FB532C2
 70
           0
 10
0.0
 20
0.0
 30
0.0
  3
A$C4FB532C2
  1

  0
LINE
  5
29B
100
AcDbEntity
  8
0
100
AcDbLine
 10
-0.000000011067
 20
0.899999998243
 30
0.0
 11
7.899999988933
 21
0.899999998243
 31
0.0
1001
ACAD
1000
TCW40_DEV_WIDTH
1002
{
1040
-3.0
1002
}
  0
LINE
  5
29C
100
AcDbEntity
  8
0
100
AcDbLine
 10
0.399999988933
 20
0.599999998243
 30
0.0
 11
7.899999988933
 21
0.599999998243
 31
0.0
1001
ACAD
1000
TCW40_DEV_WIDTH
1002
{
1040
-3.0
1002
}
  0
LINE
  5
29D
100
AcDbEntity
  8
0
100
AcDbLine
 10
3.399999988933
 20
0.299999998243
 30
0.0
 11
7.899999988933
 21
0.299999998243
 31
0.0
1001
ACAD
1000
TCW40_DEV_WIDTH
1002
{
1040
-3.0
1002
}
  0
LINE
  5
29E
100
AcDbEntity
  8
0
100
AcDbLine
 10
6.399999988933
 20
-0.000000001757
 30
0.0
 11
7.899999988933
 21
-0.000000001757
 31
0.0
1001
ACAD
1000
TCW40_DEV_WIDTH
1002
{
1040
-3.0
1002
}
  0
CIRCLE
  5
29F
100
AcDbEntity
  8
0
100
AcDbCircle
 10
8.840536342616
 20
1.083146054612
 30
0.0
 40
0.025000000373
  0
ENDBLK
  5
2A0
100
AcDbEntity
  8
0
100
AcDbBlockEnd
  0
BLOCK
  5
2A2
100
AcDbEntity
  8
0
100
AcDbBlockBegin
  2
A$C581B394E
 70
           0
 10
0.0
 20
0.0
 30
0.0
  3
A$C581B394E
  1

  0
TEXT
  5
2A3
100
AcDbEntity
  8
0
  6
Continuous
100
AcDbText
 10
0.0
 20
-0.025000002877
 30
0.0
 40
0.075
  1
1
  7
_TCW_TXTSTY_2
100
AcDbText
1001
TCAD
1000
TCW40_TEXT
1002
{
1000
txt.shx
1070
           0
1070
        1025
1002
}
  0
TEXT
  5
2A4
100
AcDbEntity
  8
0
  6
Continuous
100
AcDbText
 10
0.191746627716
 20
-0.025000002877
 30
0.0
 40
0.075
  1
2
  7
_TCW_TXTSTY_2
100
AcDbText
1001
TCAD
1000
TCW40_TEXT
1002
{
1000
txt.shx
1070
           0
1070
        1025
1002
}
  0
TEXT
  5
2A5
100
AcDbEntity
  8
0
  6
Continuous
100
AcDbText
 10
0.399640324072
 20
-0.025000002877
 30
0.0
 40
0.075
  1
3
  7
_TCW_TXTSTY_2
100
AcDbText
1001
TCAD
1000
TCW40_TEXT
1002
{
1000
txt.shx
1070
           0
1070
        1025
1002
}
  0
TEXT
  5
2A6
100
AcDbEntity
  8
0
  6
Continuous
100
AcDbText
 10
0.595423724549
 20
-0.025000002877
 30
0.0
 40
0.075
  1
4
  7
_TCW_TXTSTY_2
100
AcDbText
1001
TCAD
1000
TCW40_TEXT
1002
{
1000
txt.shx
1070
           0
1070
        1025
1002
}
  0
ENDBLK
  5
2A7
100
AcDbEntity
  8
0
100
AcDbBlockEnd
  0
BLOCK
  5
2A9
100
AcDbEntity
  8
0
100
AcDbBlockBegin
  2
A$C25FD3304
 70
           0
 10
0.0
 20
0.0
 30
0.0
  3
A$C25FD3304
  1

  0
TEXT
  5
2AA
100
AcDbEntity
  8
0
  6
Continuous
100
AcDbText
 10
0.0
 20
-0.025000005448
 30
0.0
 40
0.075
  1
10
  7
_TCW_TXTSTY_2
100
AcDbText
1001
TCAD
1000
TCW40_TEXT
1002
{
1000
txt.shx
1070
           0
1070
        1025
1002
}
  0
ENDBLK
  5
2AB
100
AcDbEntity
  8
0
100
AcDbBlockEnd
  0
BLOCK
  5
2AD
100
AcDbEntity
  8
0
100
AcDbBlockBegin
  2
A$C79987CD6
 70
           0
 10
0.0
 20
0.0
 30
0.0
  3
A$C79987CD6
  1

  0
TEXT
  5
2AE
100
AcDbEntity
  8
0
  6
Continuous
100
AcDbText
 10
0.0
 20
-0.025000005448
 30
0.0
 40
0.075
  1
10
  7
_TCW_TXTSTY_2
100
AcDbText
1001
TCAD
1000
TCW40_TEXT
1002
{
1000
txt.shx
1070
           0
1070
        1025
1002
}
  0
ENDBLK
  5
2AF
100
AcDbEntity
  8
0
100
AcDbBlockEnd
  0
BLOCK
  5
2B1
100
AcDbEntity
  8
0
100
AcDbBlockBegin
  2
A$C16C43627
 70
           0
 10
0.0
 20
0.0
 30
0.0
  3
A$C16C43627
  1

  0
LINE
  5
2B2
100
AcDbEntity
  8
0
100
AcDbLine
 10
0.049999989811
 20
0.249999990322
 30
0.0
 11
0.049999989811
 21
-0.000000009678
 31
0.0
1001
ACAD
1000
TCW40_DEV_WIDTH
1002
{
1040
-3.0
1002
}
  0
ARC
  5
2B3
100
AcDbEntity
  8
0
100
AcDbCircle
 10
0.049999989811
 20
0.299999990322
 30
0.0
 40
0.050000000745
100
AcDbArc
 50
90.0
 51
269.999997495522
1001
ACAD
1000
TCW40_DEV_WIDTH
1002
{
1040
-3.0
1002
}
  0
ENDBLK
  5
2B4
100
AcDbEntity
  8
0
100
AcDbBlockEnd
  0
BLOCK
  5
2B6
100
AcDbEntity
  8
0
100
AcDbBlockBegin
  2
A$C4FC73B81
 70
           0
 10
0.0
 20
0.0
 30
0.0
  3
A$C4FC73B81
  1

  0
ARC
  5
2B7
100
AcDbEntity
  8
0
100
AcDbCircle
 10
0.049999989811
 20
0.049999991069
 30
0.0
 40
0.050000000745
100
AcDbArc
 50
90.0
 51
269.999997495522
1001
ACAD
1000
TCW40_DEV_WIDTH
1002
{
1040
-3.0
1002
}
  0
ENDBLK
  5
2B8
100
AcDbEntity
  8
0
100
AcDbBlockEnd
  0
BLOCK
  5
2BA
100
AcDbEntity
  8
0
100
AcDbBlockBegin
  2
A$C2EB3516B
 70
           0
 10
0.0
 20
0.0
 30
0.0
  3
A$C2EB3516B
  1

  0
LINE
  5
2BB
100
AcDbEntity
  8
0
100
AcDbLine
 10
0.050000001218
 20
0.10000000892
 30
0.0
 11
0.050000001218
 21
0.30000000892
 31
0.0
1001
ACAD
1000
TCW40_DEV_WIDTH
1002
{
1040
-3.0
1002
}
  0
ARC
  5
2BC
100
AcDbEntity
  8
0
100
AcDbCircle
 10
0.050000002038
 20
0.05000000892
 30
0.0
 40
0.050000000745
100
AcDbArc
 50
90.0
 51
269.999997495522
1001
ACAD
1000
TCW40_DEV_WIDTH
1002
{
1040
-3.0
1002
}
  0
ENDBLK
  5
2BD
100
AcDbEntity
  8
0
100
AcDbBlockEnd
  0
BLOCK
  5
2BF
100
AcDbEntity
  8
0
100
AcDbBlockBegin
  2
A$C40435073
 70
           0
 10
0.0
 20
0.0
 30
0.0
  3
A$C40435073
  1

  0
LINE
  5
2C0
100
AcDbEntity
  8
0
100
AcDbLine
 10
5.27500000286
 20
0.400000008386
 30
0.0
 11
6.12500000286
 21
0.400000008386
 31
0.0
1001
ACAD
1000
TCW40_DEV_WIDTH
1002
{
1040
-3.0
1002
}
  0
LINE
  5
2C1
100
AcDbEntity
  8
0
100
AcDbLine
 10
5.27500000286
 20
0.000000008386
 30
0.0
 11
7.02500000286
 21
0.000000008386
 31
0.0
1001
ACAD
1000
TCW40_DEV_WIDTH
1002
{
1040
-3.0
1002
}
  0
INSERT
  5
2C2
100
AcDbEntity
  8
0
100
AcDbBlockReference
  2
Fuse
 10
0.07500000286
 20
4.400000008386
 30
0.0
 50
-90.0
  0
ENDBLK
  5
2C3
100
AcDbEntity
  8
0
100
AcDbBlockEnd
  0
BLOCK
  5
2C5
100
AcDbEntity
  8
0
100
AcDbBlockBegin
  2
Thermal Overload Switch
 70
           2
 10
0.0
 20
0.0
 30
0.0
  3
Thermal Overload Switch
  1

  0
ATTDEF
  5
2C6
100
AcDbEntity
  8
0
  6
Continuous
100
AcDbText
 10
0.0
 20
0.0
 30
0.0
 40
0.000120117188
  1

  7
_TCW_TXTSTY_1
100
AcDbAttributeDefinition
  3

  2
ESTCODE
 70
           9
  0
LINE
  5
2C7
100
AcDbEntity
  8
0
100
AcDbLine
 10
0.450001
 20
0.0
 30
0.0
 11
0.6
 21
0.0
 31
0.0
1001
ACAD
1000
TCW40_DEV_WIDTH
1002
{
1040
-3.0
1002
}
  0
ARC
  5
2C8
100
AcDbEntity
  8
0
100
AcDbCircle
 10
0.375
 20
0.0
 30
0.0
 40
0.07500000298
100
AcDbArc
 50
0.0
 51
269.999997495522
1001
ACAD
1000
TCW40_DEV_WIDTH
1002
{
1040
-3.0
1002
}
  0
LINE
  5
2C9
100
AcDbEntity
  8
0
100
AcDbLine
 10
0.150001
 20
0.0
 30
0.0
 11
0.0
 21
0.0
 31
0.0
1001
ACAD
1000
TCW40_DEV_WIDTH
1002
{
1040
-3.0
1002
}
  0
ARC
  5
2CA
100
AcDbEntity
  8
0
100
AcDbCircle
 10
0.225
 20
0.0
 30
0.0
 40
0.07500000298
100
AcDbArc
 50
180.0
 51
449.999961523343
1001
ACAD
1000
TCW40_DEV_WIDTH
1002
{
1040
-3.0
1002
}
  0
ENDBLK
  5
2CB
100
AcDbEntity
  8
0
100
AcDbBlockEnd
  0
BLOCK
  5
2CD
100
AcDbEntity
  8
0
100
AcDbBlockBegin
  2
Momentary Switch NO
 70
           2
 10
0.0
 20
0.0
 30
0.0
  3
Momentary Switch NO
  1

  0
ATTDEF
  5
2CE
100
AcDbEntity
  8
0
  6
Continuous
100
AcDbText
 10
0.0
 20
0.0
 30
0.0
 40
0.000060058589
  1

  7
_TCW_TXTSTY_1
100
AcDbAttributeDefinition
  3

  2
ESTCODE
 70
           9
  0
CIRCLE
  5
2CF
100
AcDbEntity
  8
0
100
AcDbCircle
 10
0.25
 20
0.0
 30
0.0
 40
0.025000000373
  0
CIRCLE
  5
2D0
100
AcDbEntity
  8
0
100
AcDbCircle
 10
0.0
 20
0.0
 30
0.0
 40
0.025000000373
  0
LINE
  5
2D1
100
AcDbEntity
  8
0
100
AcDbLine
 10
-0.025
 20
-0.075
 30
0.0
 11
0.275
 21
-0.075
 31
0.0
1001
ACAD
1000
TCW40_DEV_WIDTH
1002
{
1040
-3.0
1002
}
  0
LINE
  5
2D2
100
AcDbEntity
  8
0
100
AcDbLine
 10
0.125
 20
-0.075
 30
0.0
 11
0.125
 21
0.025
 31
0.0
1001
ACAD
1000
TCW40_DEV_WIDTH
1002
{
1040
-3.0
1002
}
  0
ENDBLK
  5
2D3
100
AcDbEntity
  8
0
100
AcDbBlockEnd
  0
BLOCK
  5
2D5
100
AcDbEntity
  8
0
100
AcDbBlockBegin
  2
Block_2
 70
           2
 10
0.0
 20
0.0
 30
0.0
  3
Block_2
  1

  0
ATTDEF
  5
2D6
100
AcDbEntity
  8
0
  6
Continuous
100
AcDbText
 10
0.0
 20
0.0
 30
0.0
 40
0.000042114255
  1

  7
_TCW_TXTSTY_1
100
AcDbAttributeDefinition
  3

  2
ESTCODE
 70
           9
  0
LINE
  5
2D7
100
AcDbEntity
  8
0
100
AcDbLine
 10
-0.05
 20
-0.1
 30
0.0
 11
0.05
 21
-0.1
 31
0.0
1001
ACAD
1000
TCW40_DEV_WIDTH
1002
{
1040
-3.0
1002
}
  0
LINE
  5
2D8
100
AcDbEntity
  8
0
100
AcDbLine
 10
0.075
 20
-0.05
 30
0.0
 11
-0.075
 21
-0.05
 31
0.0
1001
ACAD
1000
TCW40_DEV_WIDTH
1002
{
1040
-3.0
1002
}
  0
LINE
  5
2D9
100
AcDbEntity
  8
0
100
AcDbLine
 10
-0.1
 20
0.0
 30
0.0
 11
0.1
 21
0.0
 31
0.0
1001
ACAD
1000
TCW40_DEV_WIDTH
1002
{
1040
-3.0
1002
}
  0
ENDBLK
  5
2DA
100
AcDbEntity
  8
0
100
AcDbBlockEnd
  0
BLOCK
  5
2DE
100
AcDbEntity
  8
0
100
AcDbBlockBegin
  2
*D31
 70
           1
 10
0.0
 20
0.0
 30
0.0
  3
*D31
  1

  0
LINE
  5
2DF
100
AcDbEntity
  8
1
  6
Continuous
 62
           7
100
AcDbLine
 10
-1.717144661102
 20
-5.031457845451
 30
0.0
 11
4.100937330254
 21
-5.031457845451
 31
0.0
1001
ACAD
1000
TCW40_DEV_WIDTH
1002
{
1040
-3.0
1002
}
1001
TCAD
1000
TCW_ATTRIBUTE
1002
{
1000
7.48
1002
}
  0
LINE
  5
2E0
100
AcDbEntity
  8
1
  6
Continuous
 62
           7
100
AcDbLine
 10
-5.164644661102
 20
2.459542154549
 30
0.0
 11
4.100937330254
 21
2.459542154549
 31
0.0
1001
ACAD
1000
TCW40_DEV_WIDTH
1002
{
1040
-3.0
1002
}
1001
TCAD
1000
TCW_ATTRIBUTE
1002
{
1000
7.48
1002
}
  0
LWPOLYLINE
  5
2E1
100
AcDbEntity
  8
1
  6
Continuous
 62
           7
100
AcDbPolyline
 90
        4
 70
           0
 10
3.920937330254
 20
-4.681457845451
 10
3.920937330254
 20
-4.681457845451
 10
3.920937330254
 20
-4.681457845451
 10
3.920937330254
 20
-1.285957845451
1001
ACAD
1000
TCW40_DEV_WIDTH
1002
{
1040
-3.0
1002
}
1001
TCAD
1000
TCW_ATTRIBUTE
1002
{
1000
7.48
1002
}
  0
LWPOLYLINE
  5
2E2
100
AcDbEntity
  8
1
  6
Continuous
 62
           7
100
AcDbPolyline
 90
        4
 70
           0
 10
3.920937330254
 20
2.109542154549
 10
3.920937330254
 20
2.109542154549
 10
3.920937330254
 20
2.109542154549
 10
3.920937330254
 20
-1.285957845451
1001
ACAD
1000
TCW40_DEV_WIDTH
1002
{
1040
-3.0
1002
}
1001
TCAD
1000
TCW_ATTRIBUTE
1002
{
1000
7.48
1002
}
  0
LWPOLYLINE
  5
2E4
102
{ACAD_REACTORS
330
2E3
102
}
100
AcDbEntity
  8
1
  6
Continuous
 62
           7
100
AcDbPolyline
 90
        4
 70
           0
 10
3.920937330254
 20
-5.031457845451
 10
3.966437330254
 20
-4.681457845451
 10
3.875437330254
 20
-4.681457845451
 10
3.920937330254
 20
-5.031457845451
1001
ACAD
1000
TCW40_DEV_WIDTH
1002
{
1040
-3.0
1002
}
1001
TCAD
1000
TCW_ATTRIBUTE
1002
{
1000
7.48
1002
}
  0
HATCH
  5
2E3
100
AcDbEntity
  8
1
  6
Continuous
 62
           7
100
AcDbHatch
 10
0.0
 20
0.0
 30
0.0
210
0.0
220
0.0
230
1.0
  2
SOLID
 70
           1
 71
           1
 91
        1
 92
        3
 72
           0
 73
           1
 93
        3
 10
3.9209373302535035
 20
-5.031457845450559
 10
3.9664373302535036
 20
-4.6814578454505593
 10
3.8754373302535035
 20
-4.6814578454505593
 97
        1
330
2E4
 75
           0
 76
           0
 98
        0
1001
TCAD
1000
TCW_ATTRIBUTE
1002
{
1000
7.48
1002
}
  0
LWPOLYLINE
  5
2E6
102
{ACAD_REACTORS
330
2E5
102
}
100
AcDbEntity
  8
1
  6
Continuous
 62
           7
100
AcDbPolyline
 90
        4
 70
           0
 10
3.920937330254
 20
2.459542154549
 10
3.875437330254
 20
2.109542154549
 10
3.966437330254
 20
2.109542154549
 10
3.920937330254
 20
2.459542154549
1001
ACAD
1000
TCW40_DEV_WIDTH
1002
{
1040
-3.0
1002
}
1001
TCAD
1000
TCW_ATTRIBUTE
1002
{
1000
7.48
1002
}
  0
HATCH
  5
2E5
100
AcDbEntity
  8
1
  6
Continuous
 62
           7
100
AcDbHatch
 10
0.0
 20
0.0
 30
0.0
210
0.0
220
0.0
230
1.0
  2
SOLID
 70
           1
 71
           1
 91
        1
 92
        3
 72
           0
 73
           1
 93
        3
 10
3.9209373302535035
 20
2.4595421545494265
 10
3.8754373302535035
 20
2.1095421545494264
 10
3.9664373302535036
 20
2.1095421545494264
 97
        1
330
2E6
 75
           0
 76
           0
 98
        0
1001
TCAD
1000
TCW_ATTRIBUTE
1002
{
1000
7.48
1002
}
  0
MTEXT
  5
2E7
100
AcDbEntity
  8
1
  6
Continuous
 62
           7
100
AcDbMText
 10
3.267291486986
 20
-1.285957845451
 30
0.0
 40
0.500000012305
 41
0.0
 71
           5
 72
           1
  1
\A1;7.48
 11
0.0
 21
1.0
 31
0.0
 73
           1
 44
1.0
1001
TCAD
1000
TCW_REFPOINT
1002
{
1010
3.267291486986
1020
-1.285957845451
1030
0.0
1002
}
1000
TCW_ATTRIBUTE
1002
{
1000
7.48
1002
}
  0
ENDBLK
  5
2E8
100
AcDbEntity
  8
0
100
AcDbBlockEnd
  0
BLOCK
  5
2EB
100
AcDbEntity
  8
0
100
AcDbBlockBegin
  2
*D32
 70
           1
 10
0.0
 20
0.0
 30
0.0
  3
*D32
  1

  0
LINE
  5
2EC
100
AcDbEntity
  8
1
  6
Continuous
 62
           7
100
AcDbLine
 10
-1.717144661102
 20
-5.031457845451
 30
0.0
 11
0.699352016622
 21
-5.031457845451
 31
0.0
1001
ACAD
1000
TCW40_DEV_WIDTH
1002
{
1040
-3.0
1002
}
  0
LINE
  5
2ED
100
AcDbEntity
  8
1
  6
Continuous
 62
           7
100
AcDbLine
 10
-1.717144661102
 20
-4.401057845451
 30
0.0
 11
0.699352016622
 21
-4.401057845451
 31
0.0
1001
ACAD
1000
TCW40_DEV_WIDTH
1002
{
1040
-3.0
1002
}
  0
LWPOLYLINE
  5
2EE
100
AcDbEntity
  8
1
  6
Continuous
 62
           7
100
AcDbPolyline
 90
        2
 70
           0
 10
0.519352016622
 20
-5.731457845451
 10
0.519352016622
 20
-5.381457845451
1001
ACAD
1000
TCW40_DEV_WIDTH
1002
{
1040
-3.0
1002
}
  0
LWPOLYLINE
  5
2EF
100
AcDbEntity
  8
1
  6
Continuous
 62
           7
100
AcDbPolyline
 90
        2
 70
           0
 10
0.519352016622
 20
-5.031457845451
 40
0.0
 41
0.0
 10
0.519352016622
 20
-4.401057845451
 40
0.0
 41
0.0
1001
ACAD
1000
TCW40_DEV_WIDTH
1002
{
1040
-3.0
1002
}
  0
LWPOLYLINE
  5
2F0
100
AcDbEntity
  8
1
  6
Continuous
 62
           7
100
AcDbPolyline
 90
        3
 70
           0
 10
0.519352016622
 20
-1.168766158082
 10
0.519352016622
 20
-1.909912012117
 10
0.519352016622
 20
-4.051057845451
1001
ACAD
1000
TCW40_DEV_WIDTH
1002
{
1040
-3.0
1002
}
  0
LWPOLYLINE
  5
2F2
102
{ACAD_REACTORS
330
2F1
102
}
100
AcDbEntity
  8
1
  6
Continuous
 62
           7
100
AcDbPolyline
 90
        4
 70
           0
 10
0.519352016622
 20
-4.401057845451
 10
0.564852016622
 20
-4.051057845451
 10
0.473852016622
 20
-4.051057845451
 10
0.519352016622
 20
-4.401057845451
1001
ACAD
1000
TCW40_DEV_WIDTH
1002
{
1040
-3.0
1002
}
  0
HATCH
  5
2F1
100
AcDbEntity
  8
1
  6
Continuous
 62
           7
100
AcDbHatch
 10
0.0
 20
0.0
 30
0.0
210
0.0
220
0.0
230
1.0
  2
SOLID
 70
           1
 71
           1
 91
        1
 92
        3
 72
           0
 73
           1
 93
        3
 10
0.5193520166218049
 20
-4.4010578454505502
 10
0.5648520166218048
 20
-4.0510578454505506
 10
0.4738520166218049
 20
-4.0510578454505506
 97
        1
330
2F2
 75
           0
 76
           0
 98
        0
  0
LWPOLYLINE
  5
2F4
102
{ACAD_REACTORS
330
2F3
102
}
100
AcDbEntity
  8
1
  6
Continuous
 62
           7
100
AcDbPolyline
 90
        4
 70
           0
 10
0.519352016622
 20
-5.031457845451
 10
0.473852016622
 20
-5.381457845451
 10
0.564852016622
 20
-5.381457845451
 10
0.519352016622
 20
-5.031457845451
1001
ACAD
1000
TCW40_DEV_WIDTH
1002
{
1040
-3.0
1002
}
  0
HATCH
  5
2F3
100
AcDbEntity
  8
1
  6
Continuous
 62
           7
100
AcDbHatch
 10
0.0
 20
0.0
 30
0.0
210
0.0
220
0.0
230
1.0
  2
SOLID
 70
           1
 71
           1
 91
        1
 92
        3
 72
           0
 73
           1
 93
        3
 10
0.5193520166218049
 20
-5.031457845450559
 10
0.4738520166218049
 20
-5.3814578454505586
 10
0.5648520166218048
 20
-5.3814578454505586
 97
        1
330
2F4
 75
           0
 76
           0
 98
        0
  0
MTEXT
  5
2F5
100
AcDbEntity
  8
1
  6
Continuous
 62
           7
100
AcDbMText
 10
-0.134293826646
 20
-2.259912012117
 30
0.0
 40
0.500000012305
 41
0.0
 71
           5
 72
           1
  1
\A1;0.63
 11
0.0
 21
1.0
 31
0.0
 73
           1
 44
1.0
1001
TCAD
1000
TCW_REFPOINT
1002
{
1010
-0.134293826646
1020
-2.259912012117
1030
0.0
1002
}
  0
ENDBLK
  5
2F6
100
AcDbEntity
  8
0
100
AcDbBlockEnd
  0
BLOCK
  5
2F9
100
AcDbEntity
  8
0
100
AcDbBlockBegin
  2
*D33
 70
           1
 10
0.0
 20
0.0
 30
0.0
  3
*D33
  1

  0
LINE
  5
2FA
100
AcDbEntity
  8
1
  6
Continuous
 62
           7
100
AcDbLine
 10
-1.717144661102
 20
-5.031457845451
 30
0.0
 11
2.313721748051
 21
-5.031457845451
 31
0.0
1001
ACAD
1000
TCW40_DEV_WIDTH
1002
{
1040
-3.0
1002
}
  0
LINE
  5
2FB
100
AcDbEntity
  8
1
  6
Continuous
 62
           7
100
AcDbLine
 10
2.240691999191
 20
-0.500457845451
 30
0.0
 11
1.953721748051
 21
-0.500457845451
 31
0.0
1001
ACAD
1000
TCW40_DEV_WIDTH
1002
{
1040
-3.0
1002
}
  0
LWPOLYLINE
  5
2FC
100
AcDbEntity
  8
1
  6
Continuous
 62
           7
100
AcDbPolyline
 90
        4
 70
           0
 10
2.133721748051
 20
-4.681457845451
 10
2.133721748051
 20
-4.681457845451
 10
2.133721748051
 20
-4.681457845451
 10
2.133721748051
 20
-2.765957845451
1001
ACAD
1000
TCW40_DEV_WIDTH
1002
{
1040
-3.0
1002
}
  0
LWPOLYLINE
  5
2FD
100
AcDbEntity
  8
1
  6
Continuous
 62
           7
100
AcDbPolyline
 90
        4
 70
           0
 10
2.133721748051
 20
-0.850457845451
 10
2.133721748051
 20
-0.850457845451
 10
2.133721748051
 20
-0.850457845451
 10
2.133721748051
 20
-2.765957845451
1001
ACAD
1000
TCW40_DEV_WIDTH
1002
{
1040
-3.0
1002
}
  0
LWPOLYLINE
  5
2FF
102
{ACAD_REACTORS
330
2FE
102
}
100
AcDbEntity
  8
1
  6
Continuous
 62
           7
100
AcDbPolyline
 90
        4
 70
           0
 10
2.133721748051
 20
-5.031457845451
 10
2.179221748051
 20
-4.681457845451
 10
2.088221748051
 20
-4.681457845451
 10
2.133721748051
 20
-5.031457845451
1001
ACAD
1000
TCW40_DEV_WIDTH
1002
{
1040
-3.0
1002
}
  0
HATCH
  5
2FE
100
AcDbEntity
  8
1
  6
Continuous
 62
           7
100
AcDbHatch
 10
0.0
 20
0.0
 30
0.0
210
0.0
220
0.0
230
1.0
  2
SOLID
 70
           1
 71
           1
 91
        1
 92
        3
 72
           0
 73
           1
 93
        3
 10
2.1337217480510966
 20
-5.031457845450559
 10
2.1792217480510967
 20
-4.6814578454505593
 10
2.0882217480510965
 20
-4.6814578454505593
 97
        1
330
2FF
 75
           0
 76
           0
 98
        0
  0
LWPOLYLINE
  5
301
102
{ACAD_REACTORS
330
300
102
}
100
AcDbEntity
  8
1
  6
Continuous
 62
           7
100
AcDbPolyline
 90
        4
 70
           0
 10
2.133721748051
 20
-0.500457845451
 10
2.088221748051
 20
-0.850457845451
 10
2.179221748051
 20
-0.850457845451
 10
2.133721748051
 20
-0.500457845451
1001
ACAD
1000
TCW40_DEV_WIDTH
1002
{
1040
-3.0
1002
}
  0
HATCH
  5
300
100
AcDbEntity
  8
1
  6
Continuous
 62
           7
100
AcDbHatch
 10
0.0
 20
0.0
 30
0.0
210
0.0
220
0.0
230
1.0
  2
SOLID
 70
           1
 71
           1
 91
        1
 92
        3
 72
           0
 73
           1
 93
        3
 10
2.1337217480510966
 20
-0.5004578454505531
 10
2.0882217480510965
 20
-0.850457845450553
 10
2.1792217480510967
 20
-0.850457845450553
 97
        1
330
301
 75
           0
 76
           0
 98
        0
  0
MTEXT
  5
302
100
AcDbEntity
  8
1
  6
Continuous
 62
           7
100
AcDbMText
 10
1.480075904784
 20
-2.765957845451
 30
0.0
 40
0.500000012305
 41
0.0
 71
           5
 72
           1
  1
\A1;4.53
 11
0.0
 21
1.0
 31
0.0
 73
           1
 44
1.0
1001
TCAD
1000
TCW_REFPOINT
1002
{
1010
1.480075904784
1020
-2.765957845451
1030
0.0
1002
}
  0
ENDBLK
  5
303
100
AcDbEntity
  8
0
100
AcDbBlockEnd
  0
BLOCK
  5
306
100
AcDbEntity
  8
0
100
AcDbBlockBegin
  2
*D34
 70
           1
 10
0.0
 20
0.0
 30
0.0
  3
*D34
  1

  0
LINE
  5
307
100
AcDbEntity
  8
1
  6
Continuous
 62
           7
100
AcDbLine
 10
8.325442053759
 20
-1.287957845451
 30
0.0
 11
8.325442053759
 21
-8.762245855925
 31
0.0
1001
ACAD
1000
TCW40_DEV_WIDTH
1002
{
1040
-3.0
1002
}
  0
LINE
  5
308
100
AcDbEntity
  8
1
  6
Continuous
 62
           7
100
AcDbLine
 10
11.704442053759
 20
-8.730378952342
 30
0.0
 11
11.704442053759
 21
-8.402245855925
 31
0.0
1001
ACAD
1000
TCW40_DEV_WIDTH
1002
{
1040
-3.0
1002
}
  0
LWPOLYLINE
  5
309
100
AcDbEntity
  8
1
  6
Continuous
 62
           7
100
AcDbPolyline
 90
        4
 70
           0
 10
8.675442053759
 20
-8.582245855925
 10
8.675442053759
 20
-8.582245855925
 10
8.675442053759
 20
-8.582245855925
 10
10.014942053759
 20
-8.582245855925
1001
ACAD
1000
TCW40_DEV_WIDTH
1002
{
1040
-3.0
1002
}
  0
LWPOLYLINE
  5
30A
100
AcDbEntity
  8
1
  6
Continuous
 62
           7
100
AcDbPolyline
 90
        4
 70
           0
 10
11.354442053759
 20
-8.582245855925
 10
11.354442053759
 20
-8.582245855925
 10
11.354442053759
 20
-8.582245855925
 10
10.014942053759
 20
-8.582245855925
1001
ACAD
1000
TCW40_DEV_WIDTH
1002
{
1040
-3.0
1002
}
  0
LWPOLYLINE
  5
30C
102
{ACAD_REACTORS
330
30B
102
}
100
AcDbEntity
  8
1
  6
Continuous
 62
           7
100
AcDbPolyline
 90
        4
 70
           0
 10
8.325442053759
 20
-8.582245855925
 10
8.675442053759
 20
-8.627745855925
 10
8.675442053759
 20
-8.536745855925
 10
8.325442053759
 20
-8.582245855925
1001
ACAD
1000
TCW40_DEV_WIDTH
1002
{
1040
-3.0
1002
}
  0
HATCH
  5
30B
100
AcDbEntity
  8
1
  6
Continuous
 62
           7
100
AcDbHatch
 10
0.0
 20
0.0
 30
0.0
210
0.0
220
0.0
230
1.0
  2
SOLID
 70
           1
 71
           1
 91
        1
 92
        3
 72
           0
 73
           1
 93
        3
 10
8.3254420537594314
 20
-8.5822458559249739
 10
8.675442053759431
 20
-8.6277458559249744
 10
8.675442053759431
 20
-8.5367458559249734
 97
        1
330
30C
 75
           0
 76
           0
 98
        0
  0
LWPOLYLINE
  5
30E
102
{ACAD_REACTORS
330
30D
102
}
100
AcDbEntity
  8
1
  6
Continuous
 62
           7
100
AcDbPolyline
 90
        4
 70
           0
 10
11.704442053759
 20
-8.582245855925
 10
11.354442053759
 20
-8.536745855925
 10
11.354442053759
 20
-8.627745855925
 10
11.704442053759
 20
-8.582245855925
1001
ACAD
1000
TCW40_DEV_WIDTH
1002
{
1040
-3.0
1002
}
  0
HATCH
  5
30D
100
AcDbEntity
  8
1
  6
Continuous
 62
           7
100
AcDbHatch
 10
0.0
 20
0.0
 30
0.0
210
0.0
220
0.0
230
1.0
  2
SOLID
 70
           1
 71
           1
 91
        1
 92
        3
 72
           0
 73
           1
 93
        3
 10
11.704442053759337
 20
-8.5822458559249739
 10
11.354442053759337
 20
-8.5367458559249734
 10
11.354442053759337
 20
-8.6277458559249744
 97
        1
330
30E
 75
           0
 76
           0
 98
        0
  0
MTEXT
  5
30F
100
AcDbEntity
  8
1
  6
Continuous
 62
           7
100
AcDbMText
 10
10.014942053759
 20
-7.928600012658
 30
0.0
 40
0.500000012305
 41
0.0
 71
           5
 72
           1
  1
\A1;3.38
 73
           1
 44
1.0
1001
TCAD
1000
TCW_REFPOINT
1002
{
1010
10.014942053759
1020
-7.928600012658
1030
0.0
1002
}
  0
ENDBLK
  5
310
100
AcDbEntity
  8
0
100
AcDbBlockEnd
  0
BLOCK
  5
322
100
AcDbEntity
  8
0
100
AcDbBlockBegin
  2
*D35
 70
           1
 10
0.0
 20
0.0
 30
0.0
  3
*D35
  1

  0
LINE
  5
323
100
AcDbEntity
  8
1
  6
Continuous
 62
           7
100
AcDbLine
 10
-8.121144661102
 20
-6.993447207883
 30
0.0
 11
-8.121144661102
 21
-6.789380664642
 31
0.0
1001
ACAD
1000
TCW40_DEV_WIDTH
1002
{
1040
-3.0
1002
}
  0
LINE
  5
324
100
AcDbEntity
  8
1
  6
Continuous
 62
           7
100
AcDbLine
 10
-2.408144661102
 20
-6.993447207883
 30
0.0
 11
-2.408144661102
 21
-6.789380664642
 31
0.0
1001
ACAD
1000
TCW40_DEV_WIDTH
1002
{
1040
-3.0
1002
}
  0
LWPOLYLINE
  5
325
100
AcDbEntity
  8
1
  6
Continuous
 62
           7
100
AcDbPolyline
 90
        4
 70
           0
 10
-7.771144661102
 20
-6.969380664642
 10
-7.771144661102
 20
-6.969380664642
 10
-7.771144661102
 20
-6.969380664642
 10
-5.264644661102
 20
-6.969380664642
1001
ACAD
1000
TCW40_DEV_WIDTH
1002
{
1040
-3.0
1002
}
  0
LWPOLYLINE
  5
326
100
AcDbEntity
  8
1
  6
Continuous
 62
           7
100
AcDbPolyline
 90
        4
 70
           0
 10
-2.758144661102
 20
-6.969380664642
 10
-2.758144661102
 20
-6.969380664642
 10
-2.758144661102
 20
-6.969380664642
 10
-5.264644661102
 20
-6.969380664642
1001
ACAD
1000
TCW40_DEV_WIDTH
1002
{
1040
-3.0
1002
}
  0
LWPOLYLINE
  5
328
102
{ACAD_REACTORS
330
327
102
}
100
AcDbEntity
  8
1
  6
Continuous
 62
           7
100
AcDbPolyline
 90
        4
 70
           0
 10
-8.121144661102
 20
-6.969380664642
 10
-7.771144661102
 20
-7.014880664642
 10
-7.771144661102
 20
-6.923880664642
 10
-8.121144661102
 20
-6.969380664642
1001
ACAD
1000
TCW40_DEV_WIDTH
1002
{
1040
-3.0
1002
}
  0
HATCH
  5
327
100
AcDbEntity
  8
1
  6
Continuous
 62
           7
100
AcDbHatch
 10
0.0
 20
0.0
 30
0.0
210
0.0
220
0.0
230
1.0
  2
SOLID
 70
           1
 71
           1
 91
        1
 92
        3
 72
           0
 73
           1
 93
        3
 10
-8.1211446611018943
 20
-6.9693806646416414
 10
-7.7711446611018946
 20
-7.0148806646416411
 10
-7.7711446611018946
 20
-6.9238806646416418
 97
        1
330
328
 75
           0
 76
           0
 98
        0
  0
LWPOLYLINE
  5
32A
102
{ACAD_REACTORS
330
329
102
}
100
AcDbEntity
  8
1
  6
Continuous
 62
           7
100
AcDbPolyline
 90
        4
 70
           0
 10
-2.408144661102
 20
-6.969380664642
 10
-2.758144661102
 20
-6.923880664642
 10
-2.758144661102
 20
-7.014880664642
 10
-2.408144661102
 20
-6.969380664642
1001
ACAD
1000
TCW40_DEV_WIDTH
1002
{
1040
-3.0
1002
}
  0
HATCH
  5
329
100
AcDbEntity
  8
1
  6
Continuous
 62
           7
100
AcDbHatch
 10
0.0
 20
0.0
 30
0.0
210
0.0
220
0.0
230
1.0
  2
SOLID
 70
           1
 71
           1
 91
        1
 92
        3
 72
           0
 73
           1
 93
        3
 10
-2.4081446611019288
 20
-6.9693806646416414
 10
-2.7581446611019289
 20
-6.9238806646416418
 10
-2.7581446611019289
 20
-7.0148806646416411
 97
        1
330
32A
 75
           0
 76
           0
 98
        0
  0
MTEXT
  5
32B
100
AcDbEntity
  8
1
  6
Continuous
 62
           7
100
AcDbMText
 10
-5.264644661102
 20
-6.315734821374
 30
0.0
 40
0.500000012305
 41
0.0
 71
           5
 72
           1
  1
\A1;5.71
 73
           1
 44
1.0
1001
TCAD
1000
TCW_REFPOINT
1002
{
1010
-5.264644661102
1020
-6.315734821374
1030
0.0
1002
}
  0
ENDBLK
  5
32C
100
AcDbEntity
  8
0
100
AcDbBlockEnd
  0
BLOCK
  5
32F
100
AcDbEntity
  8
0
100
AcDbBlockBegin
  2
*D36
 70
           1
 10
0.0
 20
0.0
 30
0.0
  3
*D36
  1

  0
LINE
  5
330
100
AcDbEntity
  8
1
  6
Continuous
 62
           7
100
AcDbLine
 10
-8.712144661102
 20
-5.131457845451
 30
0.0
 11
-8.712144661102
 21
-8.762245855925
 31
0.0
1001
ACAD
1000
TCW40_DEV_WIDTH
1002
{
1040
-3.0
1002
}
  0
LINE
  5
331
100
AcDbEntity
  8
1
  6
Continuous
 62
           7
100
AcDbLine
 10
-1.817144661102
 20
-5.131457845451
 30
0.0
 11
-1.817144661102
 21
-8.762245855925
 31
0.0
1001
ACAD
1000
TCW40_DEV_WIDTH
1002
{
1040
-3.0
1002
}
  0
LWPOLYLINE
  5
332
100
AcDbEntity
  8
1
  6
Continuous
 62
           7
100
AcDbPolyline
 90
        4
 70
           0
 10
-8.362144661102
 20
-8.582245855925
 10
-8.362144661102
 20
-8.582245855925
 10
-8.362144661102
 20
-8.582245855925
 10
-5.264644661102
 20
-8.582245855925
1001
ACAD
1000
TCW40_DEV_WIDTH
1002
{
1040
-3.0
1002
}
  0
LWPOLYLINE
  5
333
100
AcDbEntity
  8
1
  6
Continuous
 62
           7
100
AcDbPolyline
 90
        4
 70
           0
 10
-2.167144661102
 20
-8.582245855925
 10
-2.167144661102
 20
-8.582245855925
 10
-2.167144661102
 20
-8.582245855925
 10
-5.264644661102
 20
-8.582245855925
1001
ACAD
1000
TCW40_DEV_WIDTH
1002
{
1040
-3.0
1002
}
  0
LWPOLYLINE
  5
335
102
{ACAD_REACTORS
330
334
102
}
100
AcDbEntity
  8
1
  6
Continuous
 62
           7
100
AcDbPolyline
 90
        4
 70
           0
 10
-8.712144661102
 20
-8.582245855925
 10
-8.362144661102
 20
-8.627745855925
 10
-8.362144661102
 20
-8.536745855925
 10
-8.712144661102
 20
-8.582245855925
1001
ACAD
1000
TCW40_DEV_WIDTH
1002
{
1040
-3.0
1002
}
  0
HATCH
  5
334
100
AcDbEntity
  8
1
  6
Continuous
 62
           7
100
AcDbHatch
 10
0.0
 20
0.0
 30
0.0
210
0.0
220
0.0
230
1.0
  2
SOLID
 70
           1
 71
           1
 91
        1
 92
        3
 72
           0
 73
           1
 93
        3
 10
-8.7121446611019593
 20
-8.5822458559249739
 10
-8.3621446611019596
 20
-8.6277458559249744
 10
-8.3621446611019596
 20
-8.5367458559249734
 97
        1
330
335
 75
           0
 76
           0
 98
        0
  0
LWPOLYLINE
  5
337
102
{ACAD_REACTORS
330
336
102
}
100
AcDbEntity
  8
1
  6
Continuous
 62
           7
100
AcDbPolyline
 90
        4
 70
           0
 10
-1.817144661102
 20
-8.582245855925
 10
-2.167144661102
 20
-8.536745855925
 10
-2.167144661102
 20
-8.627745855925
 10
-1.817144661102
 20
-8.582245855925
1001
ACAD
1000
TCW40_DEV_WIDTH
1002
{
1040
-3.0
1002
}
  0
HATCH
  5
336
100
AcDbEntity
  8
1
  6
Continuous
 62
           7
100
AcDbHatch
 10
0.0
 20
0.0
 30
0.0
210
0.0
220
0.0
230
1.0
  2
SOLID
 70
           1
 71
           1
 91
        1
 92
        3
 72
           0
 73
           1
 93
        3
 10
-1.8171446611019775
 20
-8.5822458559249739
 10
-2.1671446611019776
 20
-8.5367458559249734
 10
-2.1671446611019776
 20
-8.6277458559249744
 97
        1
330
337
 75
           0
 76
           0
 98
        0
  0
MTEXT
  5
338
100
AcDbEntity
  8
1
  6
Continuous
 62
           7
100
AcDbMText
 10
-5.264644661102
 20
-7.928600012658
 30
0.0
 40
0.500000012305
 41
0.0
 71
           5
 72
           1
  1
\A1;6.89
 73
           1
 44
1.0
1001
TCAD
1000
TCW_REFPOINT
1002
{
1010
-5.264644661102
1020
-7.928600012658
1030
0.0
1002
}
  0
ENDBLK
  5
339
100
AcDbEntity
  8
0
100
AcDbBlockEnd
  0
BLOCK
  5
352
100
AcDbEntity
  8
0
100
AcDbBlockBegin
  2
*D37
 70
           1
 10
0.0
 20
0.0
 30
0.0
  3
*D37
  1

  0
LINE
  5
353
100
AcDbEntity
  8
1
  6
Continuous
 62
           7
100
AcDbLine
 10
11.704442053759
 20
-8.582245846984
 30
0.0
 11
11.704442053759
 21
-8.582245857713
 31
0.0
1001
ACAD
1000
TCW40_DEV_WIDTH
1002
{
1040
-3.0
1002
}
1001
TCAD
1000
TCW_ATTRIBUTE
1002
{
1000
4.72
1002
}
  0
LINE
  5
354
100
AcDbEntity
  8
1
  6
Continuous
 62
           7
100
AcDbLine
 10
16.432442053759
 20
-8.730378952342
 30
0.0
 11
16.432442053759
 21
-8.402245855925
 31
0.0
1001
ACAD
1000
TCW40_DEV_WIDTH
1002
{
1040
-3.0
1002
}
1001
TCAD
1000
TCW_ATTRIBUTE
1002
{
1000
4.72
1002
}
  0
LWPOLYLINE
  5
355
100
AcDbEntity
  8
1
  6
Continuous
 62
           7
100
AcDbPolyline
 90
        4
 70
           0
 10
12.054442053759
 20
-8.582245855925
 10
12.054442053759
 20
-8.582245855925
 10
12.054442053759
 20
-8.582245855925
 10
14.068442053759
 20
-8.582245855925
1001
ACAD
1000
TCW40_DEV_WIDTH
1002
{
1040
-3.0
1002
}
1001
TCAD
1000
TCW_ATTRIBUTE
1002
{
1000
4.72
1002
}
  0
LWPOLYLINE
  5
356
100
AcDbEntity
  8
1
  6
Continuous
 62
           7
100
AcDbPolyline
 90
        4
 70
           0
 10
16.082442053759
 20
-8.582245855925
 10
16.082442053759
 20
-8.582245855925
 10
16.082442053759
 20
-8.582245855925
 10
14.068442053759
 20
-8.582245855925
1001
ACAD
1000
TCW40_DEV_WIDTH
1002
{
1040
-3.0
1002
}
1001
TCAD
1000
TCW_ATTRIBUTE
1002
{
1000
4.72
1002
}
  0
LWPOLYLINE
  5
358
102
{ACAD_REACTORS
330
357
102
}
100
AcDbEntity
  8
1
  6
Continuous
 62
           7
100
AcDbPolyline
 90
        4
 70
           0
 10
11.704442053759
 20
-8.582245855925
 10
12.054442053759
 20
-8.627745855925
 10
12.054442053759
 20
-8.536745855925
 10
11.704442053759
 20
-8.582245855925
1001
ACAD
1000
TCW40_DEV_WIDTH
1002
{
1040
-3.0
1002
}
1001
TCAD
1000
TCW_ATTRIBUTE
1002
{
1000
4.72
1002
}
  0
HATCH
  5
357
100
AcDbEntity
  8
1
  6
Continuous
 62
           7
100
AcDbHatch
 10
0.0
 20
0.0
 30
0.0
210
0.0
220
0.0
230
1.0
  2
SOLID
 70
           1
 71
           1
 91
        1
 92
        3
 72
           0
 73
           1
 93
        3
 10
11.704442053759337
 20
-8.5822458559249739
 10
12.054442053759336
 20
-8.6277458559249744
 10
12.054442053759336
 20
-8.5367458559249734
 97
        1
330
358
 75
           0
 76
           0
 98
        0
1001
TCAD
1000
TCW_ATTRIBUTE
1002
{
1000
4.72
1002
}
  0
LWPOLYLINE
  5
35A
102
{ACAD_REACTORS
330
359
102
}
100
AcDbEntity
  8
1
  6
Continuous
 62
           7
100
AcDbPolyline
 90
        4
 70
           0
 10
16.432442053759
 20
-8.582245855925
 10
16.082442053759
 20
-8.536745855925
 10
16.082442053759
 20
-8.627745855925
 10
16.432442053759
 20
-8.582245855925
1001
ACAD
1000
TCW40_DEV_WIDTH
1002
{
1040
-3.0
1002
}
1001
TCAD
1000
TCW_ATTRIBUTE
1002
{
1000
4.72
1002
}
  0
HATCH
  5
359
100
AcDbEntity
  8
1
  6
Continuous
 62
           7
100
AcDbHatch
 10
0.0
 20
0.0
 30
0.0
210
0.0
220
0.0
230
1.0
  2
SOLID
 70
           1
 71
           1
 91
        1
 92
        3
 72
           0
 73
           1
 93
        3
 10
16.432442053759459
 20
-8.5822458559249739
 10
16.082442053759458
 20
-8.5367458559249734
 10
16.082442053759458
 20
-8.6277458559249744
 97
        1
330
35A
 75
           0
 76
           0
 98
        0
1001
TCAD
1000
TCW_ATTRIBUTE
1002
{
1000
4.72
1002
}
  0
MTEXT
  5
35B
100
AcDbEntity
  8
1
  6
Continuous
 62
           7
100
AcDbMText
 10
14.068442053759
 20
-7.928600012658
 30
0.0
 40
0.500000012305
 41
0.0
 71
           5
 72
           1
  1
\A1;4.72
 73
           1
 44
1.0
1001
TCAD
1000
TCW_REFPOINT
1002
{
1010
14.068442053759
1020
-7.928600012658
1030
0.0
1002
}
1000
TCW_ATTRIBUTE
1002
{
1000
4.72
1002
}
  0
ENDBLK
  5
35C
100
AcDbEntity
  8
0
100
AcDbBlockEnd
  0
BLOCK
  5
360
100
AcDbEntity
  8
0
100
AcDbBlockBegin
  2
*D38
 70
           1
 10
0.0
 20
0.0
 30
0.0
  3
*D38
  1

  0
LINE
  5
361
100
AcDbEntity
  8
1
  6
Continuous
 62
           7
100
AcDbLine
 10
11.113442053759
 20
-5.131457845451
 30
0.0
 11
11.113442053759
 21
-7.149380664642
 31
0.0
1001
ACAD
1000
TCW40_DEV_WIDTH
1002
{
1040
-3.0
1002
}
  0
LINE
  5
362
100
AcDbEntity
  8
1
  6
Continuous
 62
           7
100
AcDbLine
 10
11.704442053759
 20
-5.131457845451
 30
0.0
 11
11.704442053759
 21
-7.149380664642
 31
0.0
1001
ACAD
1000
TCW40_DEV_WIDTH
1002
{
1040
-3.0
1002
}
  0
LWPOLYLINE
  5
363
100
AcDbEntity
  8
1
  6
Continuous
 62
           7
100
AcDbPolyline
 90
        2
 70
           0
 10
10.413442053759
 20
-6.969380664642
 10
10.763442053759
 20
-6.969380664642
1001
ACAD
1000
TCW40_DEV_WIDTH
1002
{
1040
-3.0
1002
}
  0
LWPOLYLINE
  5
364
100
AcDbEntity
  8
1
  6
Continuous
 62
           7
100
AcDbPolyline
 90
        2
 70
           0
 10
11.113442053759
 20
-6.969380664642
 40
0.0
 41
0.0
 10
11.704442053759
 20
-6.969380664642
 40
0.0
 41
0.0
1001
ACAD
1000
TCW40_DEV_WIDTH
1002
{
1040
-3.0
1002
}
  0
LWPOLYLINE
  5
365
100
AcDbEntity
  8
1
  6
Continuous
 62
           7
100
AcDbPolyline
 90
        3
 70
           0
 10
14.936733741127
 20
-6.969380664642
 10
14.195587887093
 20
-6.969380664642
 10
12.054442053759
 20
-6.969380664642
1001
ACAD
1000
TCW40_DEV_WIDTH
1002
{
1040
-3.0
1002
}
  0
LWPOLYLINE
  5
367
102
{ACAD_REACTORS
330
366
102
}
100
AcDbEntity
  8
1
  6
Continuous
 62
           7
100
AcDbPolyline
 90
        4
 70
           0
 10
11.704442053759
 20
-6.969380664642
 10
12.054442053759
 20
-7.014880664642
 10
12.054442053759
 20
-6.923880664642
 10
11.704442053759
 20
-6.969380664642
1001
ACAD
1000
TCW40_DEV_WIDTH
1002
{
1040
-3.0
1002
}
  0
HATCH
  5
366
100
AcDbEntity
  8
1
  6
Continuous
 62
           7
100
AcDbHatch
 10
0.0
 20
0.0
 30
0.0
210
0.0
220
0.0
230
1.0
  2
SOLID
 70
           1
 71
           1
 91
        1
 92
        3
 72
           0
 73
           1
 93
        3
 10
11.704442053759394
 20
-6.9693806646416414
 10
12.054442053759393
 20
-7.0148806646416411
 10
12.054442053759393
 20
-6.9238806646416418
 97
        1
330
367
 75
           0
 76
           0
 98
        0
  0
LWPOLYLINE
  5
369
102
{ACAD_REACTORS
330
368
102
}
100
AcDbEntity
  8
1
  6
Continuous
 62
           7
100
AcDbPolyline
 90
        4
 70
           0
 10
11.113442053759
 20
-6.969380664642
 10
10.763442053759
 20
-6.923880664642
 10
10.763442053759
 20
-7.014880664642
 10
11.113442053759
 20
-6.969380664642
1001
ACAD
1000
TCW40_DEV_WIDTH
1002
{
1040
-3.0
1002
}
  0
HATCH
  5
368
100
AcDbEntity
  8
1
  6
Continuous
 62
           7
100
AcDbHatch
 10
0.0
 20
0.0
 30
0.0
210
0.0
220
0.0
230
1.0
  2
SOLID
 70
           1
 71
           1
 91
        1
 92
        3
 72
           0
 73
           1
 93
        3
 10
11.113442053759385
 20
-6.9693806646416414
 10
10.763442053759386
 20
-6.9238806646416418
 10
10.763442053759386
 20
-7.0148806646416411
 97
        1
330
369
 75
           0
 76
           0
 98
        0
  0
MTEXT
  5
36A
100
AcDbEntity
  8
1
  6
Continuous
 62
           7
100
AcDbMText
 10
13.845587887093
 20
-6.315734821374
 30
0.0
 40
0.500000012305
 41
0.0
 71
           5
 72
           1
  1
\A1;0.59
 73
           1
 44
1.0
1001
TCAD
1000
TCW_REFPOINT
1002
{
1010
13.845587887093
1020
-6.315734821374
1030
0.0
1002
}
  0
ENDBLK
  5
36B
100
AcDbEntity
  8
0
100
AcDbBlockEnd
  0
BLOCK
  5
37A
100
AcDbEntity
  8
0
100
AcDbBlockBegin
  2
*D39
 70
           1
 10
0.0
 20
0.0
 30
0.0
  3
*D39
  1

  0
LINE
  5
37B
100
AcDbEntity
  8
1
  6
Continuous
 62
           7
100
AcDbLine
 10
8.325442053759
 20
0.444042154549
 30
0.0
 11
8.325442053759
 21
3.357124066597
 31
0.0
1001
ACAD
1000
TCW40_DEV_WIDTH
1002
{
1040
-3.0
1002
}
  0
LINE
  5
37C
100
AcDbEntity
  8
1
  6
Continuous
 62
           7
100
AcDbLine
 10
10.325442053759
 20
0.486042154549
 30
0.0
 11
10.325442053759
 21
3.357124066597
 31
0.0
1001
ACAD
1000
TCW40_DEV_WIDTH
1002
{
1040
-3.0
1002
}
  0
LWPOLYLINE
  5
37D
100
AcDbEntity
  8
1
  6
Continuous
 62
           7
100
AcDbPolyline
 90
        2
 70
           0
 10
7.625442053759
 20
3.177124066597
 10
7.975442053759
 20
3.177124066597
1001
ACAD
1000
TCW40_DEV_WIDTH
1002
{
1040
-3.0
1002
}
  0
LWPOLYLINE
  5
37E
100
AcDbEntity
  8
1
  6
Continuous
 62
           7
100
AcDbPolyline
 90
        2
 70
           0
 10
8.325442053759
 20
3.177124066597
 40
0.0
 41
0.0
 10
9.325442053759
 20
3.177124066597
 40
0.0
 41
0.0
1001
ACAD
1000
TCW40_DEV_WIDTH
1002
{
1040
-3.0
1002
}
  0
LWPOLYLINE
  5
37F
100
AcDbEntity
  8
1
  6
Continuous
 62
           7
100
AcDbPolyline
 90
        2
 70
           0
 10
11.025442053759
 20
3.177124066597
 10
10.675442053759
 20
3.177124066597
1001
ACAD
1000
TCW40_DEV_WIDTH
1002
{
1040
-3.0
1002
}
  0
LWPOLYLINE
  5
380
100
AcDbEntity
  8
1
  6
Continuous
 62
           7
100
AcDbPolyline
 90
        2
 70
           0
 10
10.325442053759
 20
3.177124066597
 40
0.0
 41
0.0
 10
9.325442053759
 20
3.177124066597
 40
0.0
 41
0.0
1001
ACAD
1000
TCW40_DEV_WIDTH
1002
{
1040
-3.0
1002
}
  0
LWPOLYLINE
  5
382
102
{ACAD_REACTORS
330
381
102
}
100
AcDbEntity
  8
1
  6
Continuous
 62
           7
100
AcDbPolyline
 90
        4
 70
           0
 10
10.325442053759
 20
3.177124066597
 10
10.675442053759
 20
3.131624066597
 10
10.675442053759
 20
3.222624066597
 10
10.325442053759
 20
3.177124066597
1001
ACAD
1000
TCW40_DEV_WIDTH
1002
{
1040
-3.0
1002
}
  0
HATCH
  5
381
100
AcDbEntity
  8
1
  6
Continuous
 62
           7
100
AcDbHatch
 10
0.0
 20
0.0
 30
0.0
210
0.0
220
0.0
230
1.0
  2
SOLID
 70
           1
 71
           1
 91
        1
 92
        3
 72
           0
 73
           1
 93
        3
 10
10.325442053759431
 20
3.1771240665969809
 10
10.675442053759431
 20
3.1316240665969808
 10
10.675442053759431
 20
3.222624066596981
 97
        1
330
382
 75
           0
 76
           0
 98
        0
  0
LWPOLYLINE
  5
384
102
{ACAD_REACTORS
330
383
102
}
100
AcDbEntity
  8
1
  6
Continuous
 62
           7
100
AcDbPolyline
 90
        4
 70
           0
 10
8.325442053759
 20
3.177124066597
 10
7.975442053759
 20
3.222624066597
 10
7.975442053759
 20
3.131624066597
 10
8.325442053759
 20
3.177124066597
1001
ACAD
1000
TCW40_DEV_WIDTH
1002
{
1040
-3.0
1002
}
  0
HATCH
  5
383
100
AcDbEntity
  8
1
  6
Continuous
 62
           7
100
AcDbHatch
 10
0.0
 20
0.0
 30
0.0
210
0.0
220
0.0
230
1.0
  2
SOLID
 70
           1
 71
           1
 91
        1
 92
        3
 72
           0
 73
           1
 93
        3
 10
8.3254420537594314
 20
3.1771240665969809
 10
7.9754420537594317
 20
3.222624066596981
 10
7.9754420537594317
 20
3.1316240665969808
 97
        1
330
384
 75
           0
 76
           0
 98
        0
  0
MTEXT
  5
385
100
AcDbEntity
  8
1
  6
Continuous
 62
           7
100
AcDbMText
 10
9.325442053759
 20
3.830769909864
 30
0.0
 40
0.500000012305
 41
0.0
 71
           5
 72
           1
  1
\A1;2.00
 73
           1
 44
1.0
1001
TCAD
1000
TCW_REFPOINT
1002
{
1010
9.325442053759
1020
3.830769909864
1030
0.0
1002
}
  0
ENDBLK
  5
386
100
AcDbEntity
  8
0
100
AcDbBlockEnd
  0
BLOCK
  5
393
100
AcDbEntity
  8
0
100
AcDbBlockBegin
  2
*D40
 70
           1
 10
0.0
 20
0.0
 30
0.0
  3
*D40
  1

  0
MTEXT
  5
394
100
AcDbEntity
  8
1
  6
Continuous
 62
           7
100
AcDbMText
 10
-8.334553674938
 20
3.778748943911
 30
0.0
 40
0.500000012305
 41
0.0
 71
           5
 72
           1
  1
\A1;%%c5.91
 73
           1
 44
1.0
1001
TCAD
1000
TCW_REFPOINT
1002
{
1010
-8.334553674938
1020
3.778748943911
1030
0.0
1002
}
1000
TCW_ATTRIBUTE
1002
{
1000
%%c5.91
1002
}
  0
LWPOLYLINE
  5
395
100
AcDbEntity
  8
1
  6
Continuous
 62
           7
100
AcDbPolyline
 90
        4
 70
           0
 10
-4.039673803177
 20
-2.805137085005
 10
-5.264644661102
 20
-0.500457845451
 10
-5.264644661102
 20
-0.500457845451
 10
-6.489615519027
 20
1.804221394104
1001
ACAD
1000
TCW40_DEV_WIDTH
1002
{
1040
-3.0
1002
}
1001
TCAD
1000
TCW_ATTRIBUTE
1002
{
1000
%%c5.91
1002
}
  0
LWPOLYLINE
  5
396
100
AcDbEntity
  8
1
  6
Continuous
 62
           7
100
AcDbPolyline
 90
        4
 70
           0
 10
-6.653883641737
 20
2.113277997109
 40
0.0
 41
0.0
 10
-6.818151764447
 20
2.422334600115
 40
0.0
 41
0.0
 10
-7.226895983211
 20
3.191352335663
 40
0.0
 41
0.0
 10
-9.612312702433
 20
3.191352335663
 40
0.0
 41
0.0
1001
ACAD
1000
TCW40_DEV_WIDTH
1002
{
1040
-3.0
1002
}
1001
TCAD
1000
TCW_ATTRIBUTE
1002
{
1000
%%c5.91
1002
}
  0
LWPOLYLINE
  5
398
102
{ACAD_REACTORS
330
397
102
}
100
AcDbEntity
  8
1
  6
Continuous
 62
           7
100
AcDbPolyline
 90
        4
 70
           0
 10
-3.875405680467
 20
-3.114193688011
 10
-3.999496444786
 20
-2.783782229053
 10
-4.079851161568
 20
-2.826491940958
 10
-3.875405680467
 20
-3.114193688011
1001
ACAD
1000
TCW40_DEV_WIDTH
1002
{
1040
-3.0
1002
}
1001
TCAD
1000
TCW_ATTRIBUTE
1002
{
1000
%%c5.91
1002
}
  0
HATCH
  5
397
100
AcDbEntity
  8
1
  6
Continuous
 62
           7
100
AcDbHatch
 10
0.0
 20
0.0
 30
0.0
210
0.0
220
0.0
230
1.0
  2
SOLID
 70
           1
 71
           1
 91
        1
 92
        3
 72
           0
 73
           1
 93
        3
 10
-3.875405680466721
 20
-3.1141936880108956
 10
-3.9994964447862462
 20
-2.7837822290531351
 10
-4.0798511615676585
 20
-2.8264919409577951
 97
        1
330
398
 75
           0
 76
           0
 98
        0
1001
TCAD
1000
TCW_ATTRIBUTE
1002
{
1000
%%c5.91
1002
}
  0
LWPOLYLINE
  5
39A
102
{ACAD_REACTORS
330
399
102
}
100
AcDbEntity
  8
1
  6
Continuous
 62
           7
100
AcDbPolyline
 90
        4
 70
           0
 10
-6.653883641737
 20
2.113277997109
 10
-6.529792877417
 20
1.782866538152
 10
-6.449438160636
 20
1.825576250056
 10
-6.653883641737
 20
2.113277997109
1001
ACAD
1000
TCW40_DEV_WIDTH
1002
{
1040
-3.0
1002
}
1001
TCAD
1000
TCW_ATTRIBUTE
1002
{
1000
%%c5.91
1002
}
  0
HATCH
  5
399
100
AcDbEntity
  8
1
  6
Continuous
 62
           7
100
AcDbHatch
 10
0.0
 20
0.0
 30
0.0
210
0.0
220
0.0
230
1.0
  2
SOLID
 70
           1
 71
           1
 91
        1
 92
        3
 72
           0
 73
           1
 93
        3
 10
-6.6538836417368747
 20
2.1132779971094484
 10
-6.5297928774173499
 20
1.7828665381516877
 10
-6.4494381606359372
 20
1.8255762500563477
 97
        1
330
39A
 75
           0
 76
           0
 98
        0
1001
TCAD
1000
TCW_ATTRIBUTE
1002
{
1000
%%c5.91
1002
}
  0
ENDBLK
  5
39B
100
AcDbEntity
  8
0
100
AcDbBlockEnd
  0
BLOCK
  5
3C6
100
AcDbEntity
  8
0
100
AcDbBlockBegin
  2
*D41
 70
           1
 10
0.0
 20
0.0
 30
0.0
  3
*D41
  1

  0
LINE
  5
3C7
100
AcDbEntity
  8
1
  6
Continuous
 62
           7
100
AcDbLine
 10
11.113443235759
 20
9.158596323449
 30
0.0
 11
11.113443235759
 21
6.850068037067
 31
0.0
1001
ACAD
1000
TCW40_DEV_WIDTH
1002
{
1040
-3.0
1002
}
  0
LINE
  5
3C8
100
AcDbEntity
  8
1
  6
Continuous
 62
           7
100
AcDbLine
 10
17.023443235759
 20
9.158596254683
 30
0.0
 11
17.023443235759
 21
6.850067968301
 31
0.0
1001
ACAD
1000
TCW40_DEV_WIDTH
1002
{
1040
-3.0
1002
}
  0
LWPOLYLINE
  5
3C9
100
AcDbEntity
  8
1
  6
Continuous
 62
           7
100
AcDbPolyline
 90
        4
 70
           0
 10
11.463443235759
 20
7.030068032995
 10
11.463443235759
 20
7.030068032995
 10
11.463443235759
 20
7.030068032995
 10
14.068443235759
 20
7.030068002684
1001
ACAD
1000
TCW40_DEV_WIDTH
1002
{
1040
-3.0
1002
}
  0
LWPOLYLINE
  5
3CA
100
AcDbEntity
  8
1
  6
Continuous
 62
           7
100
AcDbPolyline
 90
        4
 70
           0
 10
16.673443235759
 20
7.030067972373
 10
16.673443235759
 20
7.030067972373
 10
16.673443235759
 20
7.030067972373
 10
14.068443235759
 20
7.030068002684
1001
ACAD
1000
TCW40_DEV_WIDTH
1002
{
1040
-3.0
1002
}
  0
LWPOLYLINE
  5
3CC
102
{ACAD_REACTORS
330
3CB
102
}
100
AcDbEntity
  8
1
  6
Continuous
 62
           7
100
AcDbPolyline
 90
        4
 70
           0
 10
11.113443235759
 20
7.030068037067
 10
11.46344323523
 20
6.984568032995
 10
11.463443236289
 20
7.075568032995
 10
11.113443235759
 20
7.030068037067
1001
ACAD
1000
TCW40_DEV_WIDTH
1002
{
1040
-3.0
1002
}
  0
HATCH
  5
3CB
100
AcDbEntity
  8
1
  6
Continuous
 62
           7
100
AcDbHatch
 10
0.0
 20
0.0
 30
0.0
210
0.0
220
0.0
230
1.0
  2
SOLID
 70
           1
 71
           1
 91
        1
 92
        3
 72
           0
 73
           1
 93
        3
 10
11.113443235759391
 20
7.0300680370670312
 10
11.463443235229974
 20
6.9845680329945958
 10
11.463443236288807
 20
7.0755680329945951
 97
        1
330
3CC
 75
           0
 76
           0
 98
        0
  0
LWPOLYLINE
  5
3CE
102
{ACAD_REACTORS
330
3CD
102
}
100
AcDbEntity
  8
1
  6
Continuous
 62
           7
100
AcDbPolyline
 90
        4
 70
           0
 10
17.023443235759
 20
7.030067968301
 10
16.673443236289
 20
7.075567972373
 10
16.67344323523
 20
6.984567972373
 10
17.023443235759
 20
7.030067968301
1001
ACAD
1000
TCW40_DEV_WIDTH
1002
{
1040
-3.0
1002
}
  0
HATCH
  5
3CD
100
AcDbEntity
  8
1
  6
Continuous
 62
           7
100
AcDbHatch
 10
0.0
 20
0.0
 30
0.0
210
0.0
220
0.0
230
1.0
  2
SOLID
 70
           1
 71
           1
 91
        1
 92
        3
 72
           0
 73
           1
 93
        3
 10
17.023443235759416
 20
7.0300679683010463
 10
16.673443236288833
 20
7.0755679723734817
 10
16.673443235229996
 20
6.9845679723734824
 97
        1
330
3CE
 75
           0
 76
           0
 98
        0
  0
MTEXT
  5
3CF
100
AcDbEntity
  8
1
  6
Continuous
 62
           7
100
AcDbMText
 10
14.068443235759
 20
7.683713811568
 30
0.0
 40
0.500000012305
 41
0.0
 71
           5
 72
           1
  1
\A1;5.91
 73
           1
 44
1.0
1001
TCAD
1000
TCW_REFPOINT
1002
{
1010
14.068443235759
1020
7.683713811568
1030
0.0
1002
}
  0
ENDBLK
  5
3D0
100
AcDbEntity
  8
0
100
AcDbBlockEnd
  0
BLOCK
  5
43F
100
AcDbEntity
  8
0
100
AcDbBlockBegin
  2
*D42
 70
           1
 10
0.0
 20
0.0
 30
0.0
  3
*D42
  1

  0
LINE
  5
440
100
AcDbEntity
  8
1
  6
Continuous
 62
           7
100
AcDbLine
 10
8.325441604307
 20
0.444043187683
 30
0.0
 11
8.325441604307
 21
4.93117684853
 31
0.0
1001
ACAD
1000
TCW40_DEV_WIDTH
1002
{
1040
-3.0
1002
}
1001
TCAD
1000
TCW_ATTRIBUTE
1002
{
1000
10.47
1002
}
  0
LINE
  5
441
100
AcDbEntity
  8
1
  6
Continuous
 62
           7
100
AcDbLine
 10
18.804364299446
 20
0.056729247447
 30
0.0
 11
18.804364299446
 21
4.93117684853
 31
0.0
1001
ACAD
1000
TCW40_DEV_WIDTH
1002
{
1040
-3.0
1002
}
1001
TCAD
1000
TCW_ATTRIBUTE
1002
{
1000
10.47
1002
}
  0
LWPOLYLINE
  5
442
100
AcDbEntity
  8
1
  6
Continuous
 62
           7
100
AcDbPolyline
 90
        4
 70
           0
 10
8.675441604307
 20
4.75117684853
 10
8.675441604307
 20
4.75117684853
 10
8.675441604307
 20
4.75117684853
 10
13.564902951876
 20
4.75117684853
1001
ACAD
1000
TCW40_DEV_WIDTH
1002
{
1040
-3.0
1002
}
1001
TCAD
1000
TCW_ATTRIBUTE
1002
{
1000
10.47
1002
}
  0
LWPOLYLINE
  5
443
100
AcDbEntity
  8
1
  6
Continuous
 62
           7
100
AcDbPolyline
 90
        4
 70
           0
 10
18.454364299446
 20
4.75117684853
 10
18.454364299446
 20
4.75117684853
 10
18.454364299446
 20
4.75117684853
 10
13.564902951876
 20
4.75117684853
1001
ACAD
1000
TCW40_DEV_WIDTH
1002
{
1040
-3.0
1002
}
1001
TCAD
1000
TCW_ATTRIBUTE
1002
{
1000
10.47
1002
}
  0
LWPOLYLINE
  5
445
102
{ACAD_REACTORS
330
444
102
}
100
AcDbEntity
  8
1
  6
Continuous
 62
           7
100
AcDbPolyline
 90
        4
 70
           0
 10
8.325441604307
 20
4.75117684853
 10
8.675441604307
 20
4.70567684853
 10
8.675441604307
 20
4.79667684853
 10
8.325441604307
 20
4.75117684853
1001
ACAD
1000
TCW40_DEV_WIDTH
1002
{
1040
-3.0
1002
}
1001
TCAD
1000
TCW_ATTRIBUTE
1002
{
1000
10.47
1002
}
  0
HATCH
  5
444
100
AcDbEntity
  8
1
  6
Continuous
 62
           7
100
AcDbHatch
 10
0.0
 20
0.0
 30
0.0
210
0.0
220
0.0
230
1.0
  2
SOLID
 70
           1
 71
           1
 91
        1
 92
        3
 72
           0
 73
           1
 93
        3
 10
8.325441604306647
 20
4.7511768485302133
 10
8.6754416043066467
 20
4.7056768485302136
 10
8.6754416043066467
 20
4.7966768485302129
 97
        1
330
445
 75
           0
 76
           0
 98
        0
1001
TCAD
1000
TCW_ATTRIBUTE
1002
{
1000
10.47
1002
}
  0
LWPOLYLINE
  5
447
102
{ACAD_REACTORS
330
446
102
}
100
AcDbEntity
  8
1
  6
Continuous
 62
           7
100
AcDbPolyline
 90
        4
 70
           0
 10
18.804364299446
 20
4.75117684853
 10
18.454364299446
 20
4.79667684853
 10
18.454364299446
 20
4.70567684853
 10
18.804364299446
 20
4.75117684853
1001
ACAD
1000
TCW40_DEV_WIDTH
1002
{
1040
-3.0
1002
}
1001
TCAD
1000
TCW_ATTRIBUTE
1002
{
1000
10.47
1002
}
  0
HATCH
  5
446
100
AcDbEntity
  8
1
  6
Continuous
 62
           7
100
AcDbHatch
 10
0.0
 20
0.0
 30
0.0
210
0.0
220
0.0
230
1.0
  2
SOLID
 70
           1
 71
           1
 91
        1
 92
        3
 72
           0
 73
           1
 93
        3
 10
18.80436429944568
 20
4.7511768485302133
 10
18.454364299445679
 20
4.7966768485302129
 10
18.454364299445679
 20
4.7056768485302136
 97
        1
330
447
 75
           0
 76
           0
 98
        0
1001
TCAD
1000
TCW_ATTRIBUTE
1002
{
1000
10.47
1002
}
  0
MTEXT
  5
448
100
AcDbEntity
  8
1
  6
Continuous
 62
           7
100
AcDbMText
 10
13.564902951876
 20
5.404822691798
 30
0.0
 40
0.500000012305
 41
0.0
 71
           5
 72
           1
  1
\A1;10.47
 73
           1
 44
1.0
1001
TCAD
1000
TCW_REFPOINT
1002
{
1010
13.564902951876
1020
5.404822691798
1030
0.0
1002
}
1000
TCW_ATTRIBUTE
1002
{
1000
10.47
1002
}
  0
ENDBLK
  5
449
100
AcDbEntity
  8
0
100
AcDbBlockEnd
  0
BLOCK
  5
44C
100
AcDbEntity
  8
0
100
AcDbBlockBegin
  2
*D43
 70
           1
 10
0.0
 20
0.0
 30
0.0
  3
*D43
  1

  0
LINE
  5
44D
100
AcDbEntity
  8
0
  6
Continuous
 62
           7
100
AcDbLine
 10
17.614487052303
 20
0.018685557922
 30
0.0
 11
17.61448637104
 21
3.511404554562
 31
0.0
1001
ACAD
1000
TCW40_DEV_WIDTH
1002
{
1040
-3.0
1002
}
1001
TCAD
1000
TCW_ATTRIBUTE
1002
{
1000
1.19
1002
}
  0
LINE
  5
44E
100
AcDbEntity
  8
0
  6
Continuous
 62
           7
100
AcDbLine
 10
18.804365183855
 20
0.019230488343
 30
0.0
 11
18.804364502588
 21
3.511404786688
 31
0.0
1001
ACAD
1000
TCW40_DEV_WIDTH
1002
{
1040
-3.0
1002
}
1001
TCAD
1000
TCW_ATTRIBUTE
1002
{
1000
1.19
1002
}
  0
LWPOLYLINE
  5
44F
100
AcDbEntity
  8
0
  6
Continuous
 62
           7
100
AcDbPolyline
 90
        2
 70
           0
 10
17.254486406149
 20
3.331404484331
 10
17.434486406149
 20
3.331404519447
1001
ACAD
1000
TCW40_DEV_WIDTH
1002
{
1040
-3.0
1002
}
1001
TCAD
1000
TCW_ATTRIBUTE
1002
{
1000
1.19
1002
}
  0
LWPOLYLINE
  5
450
100
AcDbEntity
  8
0
  6
Continuous
 62
           7
100
AcDbPolyline
 90
        2
 70
           0
 10
17.614486406149
 20
3.331404554562
 40
0.0
 41
0.0
 10
18.804364537703
 20
3.331404786688
 40
0.0
 41
0.0
1001
ACAD
1000
TCW40_DEV_WIDTH
1002
{
1040
-3.0
1002
}
1001
TCAD
1000
TCW_ATTRIBUTE
1002
{
1000
1.19
1002
}
  0
LWPOLYLINE
  5
451
100
AcDbEntity
  8
0
  6
Continuous
 62
           7
100
AcDbPolyline
 90
        3
 70
           0
 10
21.065535175231
 20
3.331405227806
 10
20.28725562604
 20
3.331405075976
 10
18.984364537703
 20
3.331404821803
1001
ACAD
1000
TCW40_DEV_WIDTH
1002
{
1040
-3.0
1002
}
1001
TCAD
1000
TCW_ATTRIBUTE
1002
{
1000
1.19
1002
}
  0
LWPOLYLINE
  5
453
102
{ACAD_REACTORS
330
452
102
}
100
AcDbEntity
  8
0
  6
Continuous
 62
           7
100
AcDbPolyline
 90
        4
 70
           0
 10
18.804364537703
 20
3.331404786688
 10
18.984364542268
 20
3.308004821803
 10
18.984364533138
 20
3.354804821803
 10
18.804364537703
 20
3.331404786688
1001
ACAD
1000
TCW40_DEV_WIDTH
1002
{
1040
-3.0
1002
}
1001
TCAD
1000
TCW_ATTRIBUTE
1002
{
1000
1.19
1002
}
  0
HATCH
  5
452
100
AcDbEntity
  8
0
  6
Continuous
 62
           7
100
AcDbHatch
 10
0.0
 20
0.0
 30
0.0
210
0.0
220
0.0
230
1.0
  2
SOLID
 70
           1
 71
           1
 91
        1
 92
        3
 72
           0
 73
           1
 93
        3
 10
18.804364537702977
 20
3.3314047866879806
 10
18.98436454226794
 20
3.3080048218031108
 10
18.984364533138006
 20
3.3548048218031101
 97
        1
330
453
 75
           0
 76
           0
 98
        0
1001
TCAD
1000
TCW_ATTRIBUTE
1002
{
1000
1.19
1002
}
  0
LWPOLYLINE
  5
455
102
{ACAD_REACTORS
330
454
102
}
100
AcDbEntity
  8
0
  6
Continuous
 62
           7
100
AcDbPolyline
 90
        4
 70
           0
 10
17.614486406149
 20
3.331404554562
 10
17.434486401584
 20
3.354804519447
 10
17.434486410714
 20
3.308004519447
 10
17.614486406149
 20
3.331404554562
1001
ACAD
1000
TCW40_DEV_WIDTH
1002
{
1040
-3.0
1002
}
1001
TCAD
1000
TCW_ATTRIBUTE
1002
{
1000
1.19
1002
}
  0
HATCH
  5
454
100
AcDbEntity
  8
0
  6
Continuous
 62
           7
100
AcDbHatch
 10
0.0
 20
0.0
 30
0.0
210
0.0
220
0.0
230
1.0
  2
SOLID
 70
           1
 71
           1
 91
        1
 92
        3
 72
           0
 73
           1
 93
        3
 10
17.614486406148981
 20
3.331404554561729
 10
17.434486401584017
 20
3.3548045194465987
 10
17.434486410713951
 20
3.3080045194465995
 97
        1
330
455
 75
           0
 76
           0
 98
        0
1001
TCAD
1000
TCW_ATTRIBUTE
1002
{
1000
1.19
1002
}
  0
MTEXT
  5
456
100
AcDbEntity
  8
0
  6
Continuous
 62
           7
100
AcDbMText
 10
20.107255527198
 20
3.838071682419
 30
0.0
 40
0.516129019953
 41
0.0
 71
           5
 72
           1
  1
\A1;1.19
 11
1.0
 21
0.000000195084
 31
0.0
 73
           1
 44
1.0
1001
TCAD
1000
TCW_REFPOINT
1002
{
1010
20.107255527198
1020
3.838071682419
1030
0.0
1002
}
1000
TCW_ATTRIBUTE
1002
{
1000
1.19
1002
}
  0
ENDBLK
  5
457
100
AcDbEntity
  8
0
100
AcDbBlockEnd
  0
BLOCK
  5
53E
100
AcDbEntity
  8
0
100
AcDbBlockBegin
  2
*D44
 70
           1
 10
0.0
 20
0.0
 30
0.0
  3
*D44
  1

  0
LINE
  5
53F
100
AcDbEntity
  8
1
  6
Continuous
 62
           7
100
AcDbLine
 10
-20.812289758025
 20
9.604915999532
 30
0.0
 11
-20.812289758025
 21
7.13635569463
 31
0.0
1001
ACAD
1000
TCW40_DEV_WIDTH
1002
{
1040
-3.0
1002
}
1001
TCAD
1000
TCW_ATTRIBUTE
1002
{
1000
%%c1.375^M^J%%c1.374
1002
}
  0
LINE
  5
540
100
AcDbEntity
  8
1
  6
Continuous
 62
           7
100
AcDbLine
 10
-18.296039862929
 20
9.604915999532
 30
0.0
 11
-18.296039862929
 21
7.13635569463
 31
0.0
1001
ACAD
1000
TCW40_DEV_WIDTH
1002
{
1040
-3.0
1002
}
1001
TCAD
1000
TCW_ATTRIBUTE
1002
{
1000
%%c1.375^M^J%%c1.374
1002
}
  0
LWPOLYLINE
  5
541
100
AcDbEntity
  8
1
  6
Continuous
 62
           7
100
AcDbPolyline
 90
        2
 70
           0
 10
-21.512289758025
 20
7.33635569463
 10
-21.162289758025
 20
7.33635569463
1001
ACAD
1000
TCW40_DEV_WIDTH
1002
{
1040
-3.0
1002
}
1001
TCAD
1000
TCW_ATTRIBUTE
1002
{
1000
%%c1.375^M^J%%c1.374
1002
}
  0
LWPOLYLINE
  5
542
100
AcDbEntity
  8
1
  6
Continuous
 62
           7
100
AcDbPolyline
 90
        2
 70
           0
 10
-20.812289758025
 20
7.33635569463
 40
0.0
 41
0.0
 10
-18.296039862929
 20
7.33635569463
 40
0.0
 41
0.0
1001
ACAD
1000
TCW40_DEV_WIDTH
1002
{
1040
-3.0
1002
}
1001
TCAD
1000
TCW_ATTRIBUTE
1002
{
1000
%%c1.375^M^J%%c1.374
1002
}
  0
LWPOLYLINE
  5
543
100
AcDbEntity
  8
1
  6
Continuous
 62
           7
100
AcDbPolyline
 90
        3
 70
           0
 10
-14.770035194523
 20
7.33635569463
 10
-15.824722726633
 20
7.33635569463
 10
-17.946039862929
 20
7.33635569463
1001
ACAD
1000
TCW40_DEV_WIDTH
1002
{
1040
-3.0
1002
}
1001
TCAD
1000
TCW_ATTRIBUTE
1002
{
1000
%%c1.375^M^J%%c1.374
1002
}
  0
LWPOLYLINE
  5
545
102
{ACAD_REACTORS
330
544
102
}
100
AcDbEntity
  8
1
  6
Continuous
 62
           7
100
AcDbPolyline
 90
        4
 70
           0
 10
-18.296039862929
 20
7.33635569463
 10
-17.946039862929
 20
7.29085569463
 10
-17.946039862929
 20
7.38185569463
 10
-18.296039862929
 20
7.33635569463
1001
ACAD
1000
TCW40_DEV_WIDTH
1002
{
1040
-3.0
1002
}
1001
TCAD
1000
TCW_ATTRIBUTE
1002
{
1000
%%c1.375^M^J%%c1.374
1002
}
  0
HATCH
  5
544
100
AcDbEntity
  8
1
  6
Continuous
 62
           7
100
AcDbHatch
 10
0.0
 20
0.0
 30
0.0
210
0.0
220
0.0
230
1.0
  2
SOLID
 70
           1
 71
           1
 91
        1
 92
        3
 72
           0
 73
           1
 93
        3
 10
-18.296039862929039
 20
7.3363556946301411
 10
-17.946039862929037
 20
7.2908556946301415
 10
-17.946039862929037
 20
7.3818556946301408
 97
        1
330
545
 75
           0
 76
           0
 98
        0
1001
TCAD
1000
TCW_ATTRIBUTE
1002
{
1000
%%c1.375^M^J%%c1.374
1002
}
  0
LWPOLYLINE
  5
547
102
{ACAD_REACTORS
330
546
102
}
100
AcDbEntity
  8
1
  6
Continuous
 62
           7
100
AcDbPolyline
 90
        4
 70
           0
 10
-20.812289758025
 20
7.33635569463
 10
-21.162289758025
 20
7.38185569463
 10
-21.162289758025
 20
7.29085569463
 10
-20.812289758025
 20
7.33635569463
1001
ACAD
1000
TCW40_DEV_WIDTH
1002
{
1040
-3.0
1002
}
1001
TCAD
1000
TCW_ATTRIBUTE
1002
{
1000
%%c1.375^M^J%%c1.374
1002
}
  0
HATCH
  5
546
100
AcDbEntity
  8
1
  6
Continuous
 62
           7
100
AcDbHatch
 10
0.0
 20
0.0
 30
0.0
210
0.0
220
0.0
230
1.0
  2
SOLID
 70
           1
 71
           1
 91
        1
 92
        3
 72
           0
 73
           1
 93
        3
 10
-20.812289758024864
 20
7.3363556946301411
 10
-21.162289758024865
 20
7.3818556946301408
 10
-21.162289758024865
 20
7.2908556946301415
 97
        1
330
547
 75
           0
 76
           0
 98
        0
1001
TCAD
1000
TCW_ATTRIBUTE
1002
{
1000
%%c1.375^M^J%%c1.374
1002
}
  0
MTEXT
  5
548
100
AcDbEntity
  8
1
  6
Continuous
 62
           7
100
AcDbMText
 10
-16.174722726633
 20
8.317501549649
 30
0.0
 40
0.500000012305
 41
0.0
 71
           5
 72
           1
  1
\A1;%%c1.375\P%%c1.374
 73
           1
 44
1.0
1001
TCAD
1000
TCW_REFPOINT
1002
{
1010
-16.174722726633
1020
8.317501549649
1030
0.0
1002
}
1000
TCW_ATTRIBUTE
1002
{
1000
%%c1.375^M^J%%c1.374
1002
}
  0
ENDBLK
  5
549
100
AcDbEntity
  8
0
100
AcDbBlockEnd
  0
BLOCK
  5
54C
100
AcDbEntity
  8
0
100
AcDbBlockBegin
  2
*D45
 70
           1
 10
0.0
 20
0.0
 30
0.0
  3
*D45
  1

  0
LINE
  5
54D
100
AcDbEntity
  8
1
  6
Continuous
 62
           7
100
AcDbLine
 10
-6.62792578089
 20
9.933316519002
 30
0.0
 11
-6.62792578089
 21
7.460076552957
 31
0.0
1001
ACAD
1000
TCW40_DEV_WIDTH
1002
{
1040
-3.0
1002
}
1001
TCAD
1000
TCW_ATTRIBUTE
1002
{
1000
%%c0.750^M^J%%c0.749
1002
}
  0
LINE
  5
54E
100
AcDbEntity
  8
1
  6
Continuous
 62
           7
100
AcDbLine
 10
-4.865425733206
 20
9.933316519002
 30
0.0
 11
-4.865425733206
 21
7.460076552957
 31
0.0
1001
ACAD
1000
TCW40_DEV_WIDTH
1002
{
1040
-3.0
1002
}
1001
TCAD
1000
TCW_ATTRIBUTE
1002
{
1000
%%c0.750^M^J%%c0.749
1002
}
  0
LWPOLYLINE
  5
54F
100
AcDbEntity
  8
1
  6
Continuous
 62
           7
100
AcDbPolyline
 90
        2
 70
           0
 10
-7.32792578089
 20
7.660076552957
 10
-6.97792578089
 20
7.660076552957
1001
ACAD
1000
TCW40_DEV_WIDTH
1002
{
1040
-3.0
1002
}
1001
TCAD
1000
TCW_ATTRIBUTE
1002
{
1000
%%c0.750^M^J%%c0.749
1002
}
  0
LWPOLYLINE
  5
550
100
AcDbEntity
  8
1
  6
Continuous
 62
           7
100
AcDbPolyline
 90
        2
 70
           0
 10
-6.62792578089
 20
7.660076552957
 40
0.0
 41
0.0
 10
-4.865425733206
 20
7.660076552957
 40
0.0
 41
0.0
1001
ACAD
1000
TCW40_DEV_WIDTH
1002
{
1040
-3.0
1002
}
1001
TCAD
1000
TCW_ATTRIBUTE
1002
{
1000
%%c0.750^M^J%%c0.749
1002
}
  0
LWPOLYLINE
  5
551
100
AcDbEntity
  8
1
  6
Continuous
 62
           7
100
AcDbPolyline
 90
        3
 70
           0
 10
-0.887148309376
 20
7.660076552957
 10
-1.941835841486
 20
7.660076552957
 10
-4.515425733206
 20
7.660076552957
1001
ACAD
1000
TCW40_DEV_WIDTH
1002
{
1040
-3.0
1002
}
1001
TCAD
1000
TCW_ATTRIBUTE
1002
{
1000
%%c0.750^M^J%%c0.749
1002
}
  0
LWPOLYLINE
  5
553
102
{ACAD_REACTORS
330
552
102
}
100
AcDbEntity
  8
1
  6
Continuous
 62
           7
100
AcDbPolyline
 90
        4
 70
           0
 10
-4.865425733206
 20
7.660076552957
 10
-4.515425733206
 20
7.614576552957
 10
-4.515425733206
 20
7.705576552957
 10
-4.865425733206
 20
7.660076552957
1001
ACAD
1000
TCW40_DEV_WIDTH
1002
{
1040
-3.0
1002
}
1001
TCAD
1000
TCW_ATTRIBUTE
1002
{
1000
%%c0.750^M^J%%c0.749
1002
}
  0
HATCH
  5
552
100
AcDbEntity
  8
1
  6
Continuous
 62
           7
100
AcDbHatch
 10
0.0
 20
0.0
 30
0.0
210
0.0
220
0.0
230
1.0
  2
SOLID
 70
           1
 71
           1
 91
        1
 92
        3
 72
           0
 73
           1
 93
        3
 10
-4.865425733206366
 20
7.6600765529569426
 10
-4.5154257332063663
 20
7.6145765529569429
 10
-4.5154257332063663
 20
7.7055765529569422
 97
        1
330
553
 75
           0
 76
           0
 98
        0
1001
TCAD
1000
TCW_ATTRIBUTE
1002
{
1000
%%c0.750^M^J%%c0.749
1002
}
  0
LWPOLYLINE
  5
555
102
{ACAD_REACTORS
330
554
102
}
100
AcDbEntity
  8
1
  6
Continuous
 62
           7
100
AcDbPolyline
 90
        4
 70
           0
 10
-6.62792578089
 20
7.660076552957
 10
-6.97792578089
 20
7.705576552957
 10
-6.97792578089
 20
7.614576552957
 10
-6.62792578089
 20
7.660076552957
1001
ACAD
1000
TCW40_DEV_WIDTH
1002
{
1040
-3.0
1002
}
1001
TCAD
1000
TCW_ATTRIBUTE
1002
{
1000
%%c0.750^M^J%%c0.749
1002
}
  0
HATCH
  5
554
100
AcDbEntity
  8
1
  6
Continuous
 62
           7
100
AcDbHatch
 10
0.0
 20
0.0
 30
0.0
210
0.0
220
0.0
230
1.0
  2
SOLID
 70
           1
 71
           1
 91
        1
 92
        3
 72
           0
 73
           1
 93
        3
 10
-6.6279257808899494
 20
7.6600765529569426
 10
-6.9779257808899491
 20
7.7055765529569422
 10
-6.9779257808899491
 20
7.6145765529569429
 97
        1
330
555
 75
           0
 76
           0
 98
        0
1001
TCAD
1000
TCW_ATTRIBUTE
1002
{
1000
%%c0.750^M^J%%c0.749
1002
}
  0
MTEXT
  5
556
100
AcDbEntity
  8
1
  6
Continuous
 62
           7
100
AcDbMText
 10
-2.291835841486
 20
8.641222407976
 30
0.0
 40
0.500000012305
 41
0.0
 71
           5
 72
           1
  1
\A1;%%c0.750\P%%c0.749
 73
           1
 44
1.0
1001
TCAD
1000
TCW_REFPOINT
1002
{
1010
-2.291835841486
1020
8.641222407976
1030
0.0
1002
}
1000
TCW_ATTRIBUTE
1002
{
1000
%%c0.750^M^J%%c0.749
1002
}
  0
ENDBLK
  5
557
100
AcDbEntity
  8
0
100
AcDbBlockEnd
  0
ENDSEC
  0
SECTION
  2
ENTITIES
  0
VIEWPORT
  5
55A
100
AcDbEntity
 67
           1
  8
0
100
AcDbViewport
 10
5.09983411542
 20
3.968749894964
 30
0.0
 40
10.179900489068
 41
7.932027869795
 68
           1
 69
           1
 12
5.09983411542
 22
3.968749894964
 13
0.0
 23
0.0
 14
0.5
 24
0.5
 15
0.5
 25
0.5
 16
0.0
 26
0.0
 36
1.0
 17
0.0
 27
0.0
 37
0.0
 42
50.0
 43
0.0
 44
0.0
 45
7.932027869795
 50
0.0
 51
0.0
 72
         100
 90
    32800
340
0
  1

281
           0
 71
           0
 74
           1
110
0.0
120
0.0
130
0.0
111
1.0
121
0.0
131
0.0
112
0.0
122
1.0
132
0.0
345
0
346
0
 79
           0
146
0.0
  0
VIEWPORT
  5
55B
100
AcDbEntity
 67
           1
  8
0
  6
Continuous
100
AcDbViewport
 10
5.09983411542
 20
3.968749894964
 30
0.0
 40
10.179900489068
 41
7.932027869795
 68
           2
 69
           2
 12
149.5830477535
 22
39.027970727698
 13
0.0
 23
0.0
 14
0.5
 24
0.5
 15
0.5
 25
0.5
 16
0.0
 26
0.0
 36
1.0
 17
0.0
 27
0.0
 37
0.0
 42
98.040483136436
 43
0.0
 44
0.0
 45
94.793879834024
 50
0.0
 51
0.0
 72
         100
341
2F
341
30
341
31
341
32
 90
    32800
340
0
  1

281
           0
 71
           0
 74
           1
110
0.0
120
0.0
130
0.0
111
1.0
121
0.0
131
0.0
112
0.0
122
1.0
132
0.0
345
0
346
0
 79
           0
146
0.0
  0
TEXT
  5
2DB
100
AcDbEntity
  8
0
  6
Continuous
 62
           7
100
AcDbText
 10
-5.784950146567
 20
15.023611379687
 30
0.0
 40
0.664876187232
  1
INPUT  SHAFT
100
AcDbText
1001
TCAD
1000
TCW40_TEXT
1002
{
1000
romand.shx
1070
           0
1070
        1025
1002
}
  0
LINE
  5
2DC
100
AcDbEntity
  8
0
  6
Continuous
 62
           7
100
AcDbLine
 10
-5.952985974602
 20
14.729431674569
 30
0.0
 11
1.75
 21
14.729431674569
 31
0.0
1001
ACAD
1000
TCW40_DEV_WIDTH
1002
{
1040
-3.0
1002
}
  0
DIMENSION
  5
2E9
100
AcDbEntity
  8
1
  6
Continuous
 62
           7
100
AcDbDimension
  2
*D31
 10
3.920937330254
 20
2.459542154549
 30
0.0
 11
3.267291486986
 21
-1.285957845451
 31
0.0
 71
           5
 72
           1
 41
1.0
 42
0.0
  1
7.48
  3
STANDARD
100
AcDbAlignedDimension
 13
-1.817144661102
 23
-5.031457845451
 33
0.0
 14
-5.264644661102
 24
2.459542154549
 34
0.0
 50
90.0
100
AcDbRotatedDimension
1001
ACAD
1000
DSTYLE
1002
{
1070
          41
1040
0.35
1070
         176
1070
           7
1070
         177
1070
           7
1070
         178
1070
           7
1070
         179
1070
           2
1070
         271
1070
           2
1070
          43
1040
0.25
1070
          42
1040
0.1
1070
         147
1040
0.25
1070
          77
1070
           1
1070
         272
1070
           2
1070
          73
1070
           0
1070
          74
1070
           0
1070
         140
1040
0.5
1002
}
  0
DIMENSION
  5
2F7
100
AcDbEntity
  8
1
  6
Continuous
 62
           7
100
AcDbDimension
  2
*D32
 10
0.519352016622
 20
-4.401057845451
 30
0.0
 11
-0.134293826646
 21
-2.259912012117
 31
0.0
 70
           1
 71
           5
 72
           1
 41
1.0
 42
0.0
  1
<>
  3
STANDARD
100
AcDbAlignedDimension
 13
-1.817144661102
 23
-5.031457845451
 33
0.0
 14
-1.817144661102
 24
-4.401057845451
 34
0.0
 50
90.0
1001
ACAD
1000
DSTYLE
1002
{
1070
          41
1040
0.35
1070
         176
1070
           7
1070
         177
1070
           7
1070
         178
1070
           7
1070
         179
1070
           2
1070
         271
1070
           2
1070
          43
1040
0.25
1070
          42
1040
0.1
1070
         147
1040
0.25
1070
          75
1070
           1
1070
          77
1070
           1
1070
         272
1070
           2
1070
          73
1070
           0
1070
         172
1070
           1
1070
          74
1070
           0
1070
         140
1040
0.5
1002
}
  0
DIMENSION
  5
304
100
AcDbEntity
  8
1
  6
Continuous
 62
           7
100
AcDbDimension
  2
*D33
 10
2.133721748051
 20
-0.500457845451
 30
0.0
 11
1.480075904784
 21
-2.765957845451
 31
0.0
 71
           5
 72
           1
 41
1.0
 42
0.0
  1
<>
  3
STANDARD
100
AcDbAlignedDimension
 13
-1.817144661102
 23
-5.031457845451
 33
0.0
 14
2.340691999191
 24
-0.500457845451
 34
0.0
 50
90.0
100
AcDbRotatedDimension
1001
ACAD
1000
DSTYLE
1002
{
1070
          41
1040
0.35
1070
         176
1070
           7
1070
         177
1070
           7
1070
         178
1070
           7
1070
         179
1070
           2
1070
         271
1070
           2
1070
          43
1040
0.25
1070
          42
1040
0.1
1070
         147
1040
0.25
1070
          75
1070
           1
1070
          76
1070
           1
1070
          77
1070
           1
1070
         272
1070
           2
1070
          73
1070
           0
1070
          74
1070
           0
1070
         140
1040
0.5
1002
}
  0
DIMENSION
  5
311
100
AcDbEntity
  8
1
  6
Continuous
 62
           7
100
AcDbDimension
  2
*D34
 10
11.704442053759
 20
-8.582245855925
 30
0.0
 11
10.014942053759
 21
-7.928600012658
 31
0.0
 71
           5
 72
           1
 41
1.0
 42
0.0
  1
<>
  3
STANDARD
100
AcDbAlignedDimension
 13
8.325442053759
 23
-1.187957845451
 33
0.0
 14
11.704442053759
 24
-8.830378952342
 34
0.0
100
AcDbRotatedDimension
1001
ACAD
1000
DSTYLE
1002
{
1070
          41
1040
0.35
1070
         176
1070
           7
1070
         177
1070
           7
1070
         178
1070
           7
1070
         179
1070
           2
1070
         271
1070
           2
1070
          43
1040
0.25
1070
          42
1040
0.1
1070
         147
1040
0.25
1070
          76
1070
           1
1070
          77
1070
           1
1070
         272
1070
           2
1070
          73
1070
           0
1070
          74
1070
           0
1070
         140
1040
0.5
1002
}
  0
LINE
  5
312
100
AcDbEntity
  8
0
  6
Continuous
 62
           7
100
AcDbLine
 10
-3.590142691102
 20
-4.401058436451
 30
0.0
 11
-4.090881270502
 21
-2.532277075851
 31
0.0
1001
ACAD
1000
TCW40_DEV_WIDTH
1002
{
1040
-3.0
1002
}
  0
LINE
  5
313
100
AcDbEntity
  8
0
  6
Continuous
 62
           7
100
AcDbLine
 10
-3.244843218702
 20
-4.167436885051
 30
0.0
 11
-3.813554599302
 21
-2.044977403051
 31
0.0
1001
ACAD
1000
TCW40_DEV_WIDTH
1002
{
1040
-3.0
1002
}
  0
LINE
  5
314
100
AcDbEntity
  8
0
  6
Continuous
 62
           7
100
AcDbLine
 10
-7.284443857702
 20
-4.167437476051
 30
0.0
 11
-6.715732319502
 21
-2.044977718251
 31
0.0
1001
ACAD
1000
TCW40_DEV_WIDTH
1002
{
1040
-3.0
1002
}
  0
LINE
  5
315
100
AcDbEntity
  8
0
  6
Continuous
 62
           7
100
AcDbLine
 10
-6.939139263302
 20
-4.401057845451
 30
0.0
 11
-6.438400841502
 21
-2.532276760651
 31
0.0
1001
ACAD
1000
TCW40_DEV_WIDTH
1002
{
1040
-3.0
1002
}
  0
LINE
  5
316
100
AcDbEntity
  8
0
  6
Continuous
 62
           7
100
AcDbLine
 10
-2.132344661102
 20
-1.091457845451
 30
0.0
 11
-2.132344661102
 21
-4.204057845451
 31
0.0
1001
ACAD
1000
TCW40_DEV_WIDTH
1002
{
1040
-3.0
1002
}
  0
LINE
  5
317
100
AcDbEntity
  8
0
  6
Continuous
 62
           7
100
AcDbLine
 10
-8.396944661102
 20
-1.091457845451
 30
0.0
 11
-8.396944661102
 21
-4.204057845451
 31
0.0
1001
ACAD
1000
TCW40_DEV_WIDTH
1002
{
1040
-3.0
1002
}
  0
LINE
  5
318
100
AcDbEntity
  8
0
  6
Continuous
 62
           7
100
AcDbLine
 10
-1.817144661102
 20
-1.091457845451
 30
0.0
 11
-1.817144661102
 21
-5.031457845451
 31
0.0
1001
ACAD
1000
TCW40_DEV_WIDTH
1002
{
1040
-3.0
1002
}
  0
LINE
  5
319
100
AcDbEntity
  8
0
  6
Continuous
 62
           7
100
AcDbLine
 10
-8.712144661102
 20
-1.091457845451
 30
0.0
 11
-8.712144661102
 21
-5.031457845451
 31
0.0
1001
ACAD
1000
TCW40_DEV_WIDTH
1002
{
1040
-3.0
1002
}
  0
LINE
  5
31A
100
AcDbEntity
  8
0
  6
Continuous
 62
           7
100
AcDbLine
 10
-5.264644661102
 20
-5.473139331451
 30
0.0
 11
-5.264644661102
 21
2.938104061868
 31
0.0
1001
ACAD
1000
TCW40_DEV_WIDTH
1002
{
1040
-3.0
1002
}
  0
LINE
  5
31B
100
AcDbEntity
  8
0
  6
Continuous
 62
           7
100
AcDbLine
 10
11.310442644759
 20
-4.401057845451
 30
0.0
 11
11.431724394559
 21
-2.086866340451
 31
0.0
1001
ACAD
1000
TCW40_DEV_WIDTH
1002
{
1040
-3.0
1002
}
  0
LINE
  5
31C
100
AcDbEntity
  8
0
  6
Continuous
 62
           7
100
AcDbLine
 10
12.925842053759
 20
-0.421657845451
 30
0.0
 11
12.925842053759
 21
-4.204057845451
 31
0.0
1001
ACAD
1000
TCW40_DEV_WIDTH
1002
{
1040
-3.0
1002
}
  0
LINE
  5
31D
100
AcDbEntity
  8
0
  6
Continuous
 62
           7
100
AcDbLine
 10
13.992017873759
 20
-1.093871095451
 30
0.0
 11
15.497115997759
 21
-4.179775546651
 31
0.0
1001
ACAD
1000
TCW40_DEV_WIDTH
1002
{
1040
-3.0
1002
}
  0
LINE
  5
31E
100
AcDbEntity
  8
0
  6
Continuous
 62
           7
100
AcDbLine
 10
-5.264644661102
 20
2.794585584541
 30
0.0
 11
-5.264644661102
 21
-4.528248396632
 31
0.0
1001
ACAD
1000
TCW40_DEV_WIDTH
1002
{
1040
-3.0
1002
}
  0
LEADER
  5
31F
100
AcDbEntity
  8
1
  6
Continuous
 62
           7
100
AcDbLeader
  3
STANDARD
 73
           3
 74
           0
 75
           0
 40
0.0
 76
           2
 10
-8.121144661102
 20
-5.031457845451
 30
0.0
 10
-10.188439959779
 20
-8.585889532701
 30
0.0
 77
           7
211
0.0001
221
0.0
231
0.0
1001
ACAD
1000
DSTYLE
1002
{
1002
}
  0
TEXT
  5
320
100
AcDbEntity
  8
1
  6
Continuous
 62
           7
100
AcDbText
 10
-13.719888438706
 20
-8.352627983647
 30
0.0
 40
0.500000012305
  1
4-Ø0.47
100
AcDbText
1001
TCAD
1000
TCW40_TEXT
1002
{
1000
romand.shx
1070
           0
1070
        1025
1002
}
  0
DIMENSION
  5
32D
100
AcDbEntity
  8
1
  6
Continuous
 62
           7
100
AcDbDimension
  2
*D35
 10
-2.408144661102
 20
-6.969380664642
 30
0.0
 11
-5.264644661102
 21
-6.315734821374
 31
0.0
 70
           1
 71
           5
 72
           1
 41
1.0
 42
0.0
  1
<>
  3
STANDARD
100
AcDbAlignedDimension
 13
-8.121144661102
 23
-7.093447207883
 33
0.0
 14
-2.408144661102
 24
-7.093447207883
 34
0.0
1001
ACAD
1000
DSTYLE
1002
{
1070
          41
1040
0.35
1070
         176
1070
           7
1070
         177
1070
           7
1070
         178
1070
           7
1070
         179
1070
           2
1070
         271
1070
           2
1070
          43
1040
0.25
1070
          42
1040
0.1
1070
         147
1040
0.25
1070
          75
1070
           1
1070
          76
1070
           1
1070
          77
1070
           1
1070
         272
1070
           2
1070
          73
1070
           0
1070
          74
1070
           0
1070
         140
1040
0.5
1002
}
  0
DIMENSION
  5
33A
100
AcDbEntity
  8
1
  6
Continuous
 62
           7
100
AcDbDimension
  2
*D36
 10
-1.817144661102
 20
-8.582245855925
 30
0.0
 11
-5.264644661102
 21
-7.928600012658
 31
0.0
 70
           1
 71
           5
 72
           1
 41
1.0
 42
0.0
  1
<>
  3
STANDARD
100
AcDbAlignedDimension
 13
-8.712144661102
 23
-5.031457845451
 33
0.0
 14
-1.817144661102
 24
-5.031457845451
 34
0.0
1001
ACAD
1000
DSTYLE
1002
{
1070
          41
1040
0.35
1070
         176
1070
           7
1070
         177
1070
           7
1070
         178
1070
           7
1070
         179
1070
           2
1070
         271
1070
           2
1070
          43
1040
0.25
1070
          42
1040
0.1
1070
         147
1040
0.25
1070
          77
1070
           1
1070
         272
1070
           2
1070
          73
1070
           0
1070
          74
1070
           0
1070
         140
1040
0.5
1002
}
  0
LINE
  5
33B
100
AcDbEntity
  8
0
  6
Continuous
 62
           7
100
AcDbLine
 10
-6.742144661102
 20
-4.598057845451
 30
0.0
 11
-3.787144661102
 21
-4.598057845451
 31
0.0
1001
ACAD
1000
TCW40_DEV_WIDTH
1002
{
1040
-3.0
1002
}
  0
LINE
  5
33C
100
AcDbEntity
  8
0
  6
Continuous
 62
           7
100
AcDbLine
 10
-6.820944661102
 20
-4.913257845451
 30
0.0
 11
-3.708344661102
 21
-4.913257845451
 31
0.0
1001
ACAD
1000
TCW40_DEV_WIDTH
1002
{
1040
-3.0
1002
}
  0
ARC
  5
33D
100
AcDbEntity
  8
0
  6
Continuous
 62
           7
100
AcDbCircle
 10
-7.588903181302
 20
-4.085857845451
 30
0.0
 40
0.315200001001
100
AcDbArc
 50
-89.999982013911
 51
-14.999959436278
1001
ACAD
1000
TCW40_DEV_WIDTH
1002
{
1040
-3.0
1002
}
  0
ARC
  5
33E
100
AcDbEntity
  8
0
  6
Continuous
 62
           7
100
AcDbCircle
 10
-8.199944661102
 20
-4.204057845451
 30
0.0
 40
0.196999996901
100
AcDbArc
 50
179.9999776882
 51
270.000031646468
1001
ACAD
1000
TCW40_DEV_WIDTH
1002
{
1040
-3.0
1002
}
  0
ARC
  5
33F
100
AcDbEntity
  8
0
  6
Continuous
 62
           7
100
AcDbCircle
 10
-6.820944661102
 20
-5.031457845451
 30
0.0
 40
0.11819999665
100
AcDbArc
 50
89.99998201391
 51
179.999964027821
1001
ACAD
1000
TCW40_DEV_WIDTH
1002
{
1040
-3.0
1002
}
  0
ARC
  5
340
100
AcDbEntity
  8
0
  6
Continuous
 62
           7
100
AcDbCircle
 10
-6.742144661102
 20
-4.401057845451
 30
0.0
 40
0.196999996901
100
AcDbArc
 50
179.9999776882
 51
270.000031646468
1001
ACAD
1000
TCW40_DEV_WIDTH
1002
{
1040
-3.0
1002
}
  0
LINE
  5
341
100
AcDbEntity
  8
0
  6
HIDDEN
 62
           7
 48
0.20000000298
100
AcDbLine
 10
-8.357544661102
 20
-4.401057845451
 30
0.0
 11
-8.357544661102
 21
-5.031457845451
 31
0.0
1001
ACAD
1000
TCW40_DEV_WIDTH
1002
{
1040
-3.0
1002
}
  0
LINE
  5
342
100
AcDbEntity
  8
0
  6
HIDDEN
 62
           7
 48
0.20000000298
100
AcDbLine
 10
-7.884744661102
 20
-4.401057845451
 30
0.0
 11
-7.884744661102
 21
-5.031457845451
 31
0.0
1001
ACAD
1000
TCW40_DEV_WIDTH
1002
{
1040
-3.0
1002
}
  0
LINE
  5
343
100
AcDbEntity
  8
0
  6
Continuous
 62
           7
100
AcDbLine
 10
-8.121144661102
 20
-4.058520864651
 30
0.0
 11
-8.121144661102
 21
-7.093447207883
 31
0.0
1001
ACAD
1000
TCW40_DEV_WIDTH
1002
{
1040
-3.0
1002
}
  0
LINE
  5
344
100
AcDbEntity
  8
0
  6
Continuous
 62
           7
100
AcDbLine
 10
-6.939144661102
 20
-4.401057845451
 30
0.0
 11
-6.939144661102
 21
-5.031457845451
 31
0.0
1001
ACAD
1000
TCW40_DEV_WIDTH
1002
{
1040
-3.0
1002
}
  0
LINE
  5
345
100
AcDbEntity
  8
0
  6
Continuous
 62
           7
100
AcDbLine
 10
-8.712144661102
 20
-4.401057845451
 30
0.0
 11
-6.939144661102
 21
-4.401057845451
 31
0.0
1001
ACAD
1000
TCW40_DEV_WIDTH
1002
{
1040
-3.0
1002
}
  0
LINE
  5
346
100
AcDbEntity
  8
0
  6
Continuous
 62
           7
100
AcDbLine
 10
-8.712144661102
 20
-5.031457845451
 30
0.0
 11
-6.939144661102
 21
-5.031457845451
 31
0.0
1001
ACAD
1000
TCW40_DEV_WIDTH
1002
{
1040
-3.0
1002
}
  0
ARC
  5
347
100
AcDbEntity
  8
0
  6
Continuous
 62
           7
100
AcDbCircle
 10
-2.940386140902
 20
-4.085857845451
 30
0.0
 40
0.315200001001
100
AcDbArc
 50
-165.000062648151
 51
-90.000036655424
1001
ACAD
1000
TCW40_DEV_WIDTH
1002
{
1040
-3.0
1002
}
  0
ARC
  5
348
100
AcDbEntity
  8
0
  6
Continuous
 62
           7
100
AcDbCircle
 10
-2.329344661102
 20
-4.204057845451
 30
0.0
 40
0.196999996901
100
AcDbArc
 50
-89.999982013911
 51
0.0
1001
ACAD
1000
TCW40_DEV_WIDTH
1002
{
1040
-3.0
1002
}
  0
ARC
  5
349
100
AcDbEntity
  8
0
  6
Continuous
 62
           7
100
AcDbCircle
 10
-3.708344661102
 20
-5.031457845451
 30
0.0
 40
0.11819999665
100
AcDbArc
 50
0.0
 51
89.999982013911
1001
ACAD
1000
TCW40_DEV_WIDTH
1002
{
1040
-3.0
1002
}
  0
ARC
  5
34A
100
AcDbEntity
  8
0
  6
Continuous
 62
           7
100
AcDbCircle
 10
-3.787144661102
 20
-4.401057845451
 30
0.0
 40
0.196999996901
100
AcDbArc
 50
-89.999982013911
 51
0.0
1001
ACAD
1000
TCW40_DEV_WIDTH
1002
{
1040
-3.0
1002
}
  0
LINE
  5
34B
100
AcDbEntity
  8
0
  6
HIDDEN
 62
           7
 48
0.20000000298
100
AcDbLine
 10
-2.171744661102
 20
-4.401057845451
 30
0.0
 11
-2.171744661102
 21
-5.031457845451
 31
0.0
1001
ACAD
1000
TCW40_DEV_WIDTH
1002
{
1040
-3.0
1002
}
  0
LINE
  5
34C
100
AcDbEntity
  8
0
  6
HIDDEN
 62
           7
 48
0.20000000298
100
AcDbLine
 10
-2.644544661102
 20
-4.401057845451
 30
0.0
 11
-2.644544661102
 21
-5.031457845451
 31
0.0
1001
ACAD
1000
TCW40_DEV_WIDTH
1002
{
1040
-3.0
1002
}
  0
LINE
  5
34D
100
AcDbEntity
  8
0
  6
Continuous
 62
           7
100
AcDbLine
 10
-2.408144661102
 20
-4.058520864651
 30
0.0
 11
-2.408144661102
 21
-7.093447207883
 31
0.0
1001
ACAD
1000
TCW40_DEV_WIDTH
1002
{
1040
-3.0
1002
}
  0
LINE
  5
34E
100
AcDbEntity
  8
0
  6
Continuous
 62
           7
100
AcDbLine
 10
-3.590144661102
 20
-5.031457845451
 30
0.0
 11
-1.817144661102
 21
-5.031457845451
 31
0.0
1001
ACAD
1000
TCW40_DEV_WIDTH
1002
{
1040
-3.0
1002
}
  0
LINE
  5
34F
100
AcDbEntity
  8
0
  6
Continuous
 62
           7
100
AcDbLine
 10
-3.590144661102
 20
-4.401057845451
 30
0.0
 11
-1.817144661102
 21
-4.401057845451
 31
0.0
1001
ACAD
1000
TCW40_DEV_WIDTH
1002
{
1040
-3.0
1002
}
  0
LINE
  5
350
100
AcDbEntity
  8
0
  6
Continuous
 62
           7
100
AcDbLine
 10
-3.590144661102
 20
-4.401057845451
 30
0.0
 11
-3.590144661102
 21
-5.031457845451
 31
0.0
1001
ACAD
1000
TCW40_DEV_WIDTH
1002
{
1040
-3.0
1002
}
  0
DIMENSION
  5
35D
100
AcDbEntity
  8
1
  6
Continuous
 62
           7
100
AcDbDimension
  2
*D37
 10
16.432442053759
 20
-8.582245855925
 30
0.0
 11
14.068442053759
 21
-7.928600012658
 31
0.0
 71
           5
 72
           1
 41
1.0
 42
0.0
  1
4.72
  3
STANDARD
100
AcDbAlignedDimension
 13
11.704442053759
 23
-8.582245845991
 33
0.0
 14
16.432442053759
 24
-8.830378952342
 34
0.0
100
AcDbRotatedDimension
1001
ACAD
1000
DSTYLE
1002
{
1070
          41
1040
0.35
1070
         176
1070
           7
1070
         177
1070
           7
1070
         178
1070
           7
1070
         179
1070
           2
1070
         271
1070
           2
1070
          43
1040
0.25
1070
          42
1040
0.1
1070
         147
1040
0.25
1070
          75
1070
           1
1070
          76
1070
           1
1070
          77
1070
           1
1070
         272
1070
           2
1070
          73
1070
           0
1070
          74
1070
           0
1070
         140
1040
0.5
1002
}
  0
LINE
  5
35E
100
AcDbEntity
  8
0
  6
Continuous
 62
           7
100
AcDbLine
 10
11.113442053759
 20
-5.031457845451
 30
0.0
 11
17.023442053759
 21
-5.031457845451
 31
0.0
1001
ACAD
1000
TCW40_DEV_WIDTH
1002
{
1040
-3.0
1002
}
  0
DIMENSION
  5
36C
100
AcDbEntity
  8
1
  6
Continuous
 62
           7
100
AcDbDimension
  2
*D38
 10
11.704442053759
 20
-6.969380664642
 30
0.0
 11
13.845587887093
 21
-6.315734821374
 31
0.0
 70
           1
 71
           5
 72
           1
 41
1.0
 42
0.0
  1
<>
  3
STANDARD
100
AcDbAlignedDimension
 13
11.113442053759
 23
-5.031457845451
 33
0.0
 14
11.704442053759
 24
-5.031457845451
 34
0.0
1001
ACAD
1000
DSTYLE
1002
{
1070
          41
1040
0.35
1070
         176
1070
           7
1070
         177
1070
           7
1070
         178
1070
           7
1070
         179
1070
           2
1070
         271
1070
           2
1070
          43
1040
0.25
1070
          42
1040
0.1
1070
         147
1040
0.25
1070
          76
1070
           1
1070
          77
1070
           1
1070
         272
1070
           2
1070
          73
1070
           0
1070
         172
1070
           1
1070
          74
1070
           0
1070
         140
1040
0.5
1002
}
  0
LINE
  5
36D
100
AcDbEntity
  8
0
  6
Continuous
 62
           7
100
AcDbLine
 10
11.704442053759
 20
-4.037987594051
 30
0.0
 11
11.704442053759
 21
-8.830378952342
 31
0.0
1001
ACAD
1000
TCW40_DEV_WIDTH
1002
{
1040
-3.0
1002
}
  0
LINE
  5
36E
100
AcDbEntity
  8
0
  6
Continuous
 62
           7
100
AcDbLine
 10
11.113442053759
 20
-4.401057845451
 30
0.0
 11
11.113442053759
 21
-5.031457845451
 31
0.0
1001
ACAD
1000
TCW40_DEV_WIDTH
1002
{
1040
-3.0
1002
}
  0
LINE
  5
36F
100
AcDbEntity
  8
0
  6
Continuous
 62
           7
100
AcDbLine
 10
11.113442053759
 20
-4.401057845451
 30
0.0
 11
12.728842053759
 21
-4.401057845451
 31
0.0
1001
ACAD
1000
TCW40_DEV_WIDTH
1002
{
1040
-3.0
1002
}
  0
LINE
  5
370
100
AcDbEntity
  8
0
  6
HIDDEN
 62
           7
 48
0.20000000298
100
AcDbLine
 10
11.940842053759
 20
-4.401057845451
 30
0.0
 11
11.940842053759
 21
-5.031457845451
 31
0.0
1001
ACAD
1000
TCW40_DEV_WIDTH
1002
{
1040
-3.0
1002
}
  0
LINE
  5
371
100
AcDbEntity
  8
0
  6
HIDDEN
 62
           7
 48
0.20000000298
100
AcDbLine
 10
11.468042053759
 20
-4.401057845451
 30
0.0
 11
11.468042053759
 21
-5.031457845451
 31
0.0
1001
ACAD
1000
TCW40_DEV_WIDTH
1002
{
1040
-3.0
1002
}
  0
ARC
  5
372
100
AcDbEntity
  8
0
  6
Continuous
 62
           7
100
AcDbCircle
 10
12.728842053759
 20
-4.204057845451
 30
0.0
 40
0.196999996901
100
AcDbArc
 50
-89.999982013911
 51
0.0
1001
ACAD
1000
TCW40_DEV_WIDTH
1002
{
1040
-3.0
1002
}
  0
LINE
  5
373
100
AcDbEntity
  8
0
  6
Continuous
 62
           7
100
AcDbLine
 10
16.432442053759
 20
-4.037987594051
 30
0.0
 11
16.432442053759
 21
-8.830378952342
 31
0.0
1001
ACAD
1000
TCW40_DEV_WIDTH
1002
{
1040
-3.0
1002
}
  0
ARC
  5
374
100
AcDbEntity
  8
0
  6
Continuous
 62
           7
100
AcDbCircle
 10
15.851240439759
 20
-4.007057845451
 30
0.0
 40
0.393999993801
100
AcDbArc
 50
-153.999988348332
 51
-89.999982013911
1001
ACAD
1000
TCW40_DEV_WIDTH
1002
{
1040
-3.0
1002
}
  0
LINE
  5
375
100
AcDbEntity
  8
0
  6
Continuous
 62
           7
100
AcDbLine
 10
17.023442053759
 20
-4.401057845451
 30
0.0
 11
17.023442053759
 21
-5.031457845451
 31
0.0
1001
ACAD
1000
TCW40_DEV_WIDTH
1002
{
1040
-3.0
1002
}
  0
LINE
  5
376
100
AcDbEntity
  8
0
  6
HIDDEN
 62
           7
 48
0.20000000298
100
AcDbLine
 10
16.668842053759
 20
-4.401057845451
 30
0.0
 11
16.668842053759
 21
-5.031457845451
 31
0.0
1001
ACAD
1000
TCW40_DEV_WIDTH
1002
{
1040
-3.0
1002
}
  0
LINE
  5
377
100
AcDbEntity
  8
0
  6
HIDDEN
 62
           7
 48
0.20000000298
100
AcDbLine
 10
16.196042053759
 20
-4.401057845451
 30
0.0
 11
16.196042053759
 21
-5.031457845451
 31
0.0
1001
ACAD
1000
TCW40_DEV_WIDTH
1002
{
1040
-3.0
1002
}
  0
LINE
  5
378
100
AcDbEntity
  8
0
  6
Continuous
 62
           7
100
AcDbLine
 10
15.851240439759
 20
-4.401057845451
 30
0.0
 11
17.023442053759
 21
-4.401057845451
 31
0.0
1001
ACAD
1000
TCW40_DEV_WIDTH
1002
{
1040
-3.0
1002
}
  0
DIMENSION
  5
387
100
AcDbEntity
  8
1
  6
Continuous
 62
           7
100
AcDbDimension
  2
*D39
 10
10.325442053759
 20
3.177124066597
 30
0.0
 11
9.325442053759
 21
3.830769909864
 31
0.0
 71
           5
 72
           1
 41
1.0
 42
0.0
  1
<>
  3
STANDARD
100
AcDbAlignedDimension
 13
8.325442053759
 23
0.344042154549
 33
0.0
 14
10.325442053759
 24
0.386042154549
 34
0.0
100
AcDbRotatedDimension
1001
ACAD
1000
DSTYLE
1002
{
1070
          41
1040
0.35
1070
         176
1070
           7
1070
         177
1070
           7
1070
         178
1070
           7
1070
         179
1070
           2
1070
         271
1070
           2
1070
          43
1040
0.25
1070
          42
1040
0.1
1070
         147
1040
0.25
1070
          75
1070
           1
1070
          77
1070
           1
1070
         272
1070
           2
1070
          73
1070
           0
1070
         174
1070
           1
1070
         172
1070
           1
1070
          74
1070
           0
1070
         140
1040
0.5
1002
}
  0
LINE
  5
388
100
AcDbEntity
  8
0
 62
           7
100
AcDbLine
 10
8.325442053759
 20
0.344042154549
 30
0.0
 11
10.138443235759
 21
0.344042154549
 31
0.0
1001
ACAD
1000
TCW40_DEV_WIDTH
1002
{
1040
-3.0
1002
}
  0
LINE
  5
389
100
AcDbEntity
  8
0
 62
           7
100
AcDbLine
 10
8.355443235759
 20
12.352096254683
 30
0.0
 11
10.138443235759
 21
12.352096254683
 31
0.0
1001
ACAD
1000
TCW40_DEV_WIDTH
1002
{
1040
-3.0
1002
}
  0
LINE
  5
38A
100
AcDbEntity
  8
0
 62
           7
100
AcDbLine
 10
8.355443235759
 20
12.666096254683
 30
0.0
 11
10.138443235759
 21
12.666096254683
 31
0.0
1001
ACAD
1000
TCW40_DEV_WIDTH
1002
{
1040
-3.0
1002
}
  0
LINE
  5
38B
100
AcDbEntity
  8
0
 62
           7
100
AcDbLine
 10
8.355443235759
 20
11.821596254683
 30
0.0
 11
10.325443235759
 21
11.821596254683
 31
0.0
1001
ACAD
1000
TCW40_DEV_WIDTH
1002
{
1040
-3.0
1002
}
  0
LINE
  5
38C
100
AcDbEntity
  8
0
 62
           7
100
AcDbLine
 10
8.355443235759
 20
13.196596254683
 30
0.0
 11
10.325443235759
 21
13.196596254683
 31
0.0
1001
ACAD
1000
TCW40_DEV_WIDTH
1002
{
1040
-3.0
1002
}
  0
LINE
  5
38D
100
AcDbEntity
  8
0
 62
           7
100
AcDbLine
 10
8.325442053759
 20
-1.187957845451
 30
0.0
 11
10.325442053759
 21
-1.187957845451
 31
0.0
1001
ACAD
1000
TCW40_DEV_WIDTH
1002
{
1040
-3.0
1002
}
  0
LINE
  5
38E
100
AcDbEntity
  8
0
 62
           7
100
AcDbLine
 10
8.325442053759
 20
0.187042154549
 30
0.0
 11
10.325442053759
 21
0.18704215455
 31
0.0
1001
ACAD
1000
TCW40_DEV_WIDTH
1002
{
1040
-3.0
1002
}
  0
LINE
  5
38F
100
AcDbEntity
  8
0
  6
Continuous
 62
           7
100
AcDbLine
 10
7.9412906375
 20
-0.500457845451
 30
0.0
 11
19.379426770027
 21
-0.500457845451
 31
0.0
1001
ACAD
1000
TCW40_DEV_WIDTH
1002
{
1040
-3.0
1002
}
  0
LINE
  5
390
100
AcDbEntity
  8
0
  6
Continuous
 62
           7
100
AcDbLine
 10
7.941289847683
 20
12.509096254683
 30
0.0
 11
19.462569210862
 21
12.509096254683
 31
0.0
1001
ACAD
1000
TCW40_DEV_WIDTH
1002
{
1040
-3.0
1002
}
  0
LINE
  5
391
100
AcDbEntity
  8
0
  6
Continuous
 62
           7
100
AcDbLine
 10
-9.154512101102
 20
-0.500457845451
 30
0.0
 11
2.340691999191
 21
-0.500457845451
 31
0.0
1001
ACAD
1000
TCW40_DEV_WIDTH
1002
{
1040
-3.0
1002
}
  0
DIMENSION
  5
39C
100
AcDbEntity
  8
1
  6
Continuous
 62
           7
100
AcDbDimension
  2
*D40
 10
-3.875405680467
 20
-3.114193688011
 30
0.0
 11
-8.334553674938
 21
3.778748943911
 31
0.0
 70
         131
 71
           5
 72
           1
 41
1.0
 42
0.0
  1
%%c5.91
  3
STANDARD
100
AcDbDiametricDimension
 15
-6.653883641737
 25
2.113277997109
 35
0.0
 40
1.22089615567
1001
ACAD
1000
DSTYLE
1002
{
1070
          41
1040
0.35
1070
         176
1070
           7
1070
         177
1070
           7
1070
         178
1070
           7
1070
         179
1070
           2
1070
         271
1070
           2
1070
          43
1040
0.25
1070
          42
1040
0.1
1070
         147
1040
0.25
1070
          77
1070
           1
1070
         272
1070
           2
1070
         172
1070
           1
1070
         140
1040
0.5
1002
}
  0
ARC
  5
39D
100
AcDbEntity
  8
1
  6
Continuous
 62
           7
100
AcDbCircle
 10
-5.264644661102
 20
-0.500457845451
 30
0.0
 40
2.960000038147
100
AcDbArc
 50
52.463806580986
 51
127.536188182686
1001
ACAD
1000
TCW40_DEV_WIDTH
1002
{
1040
-3.0
1002
}
  0
ARC
  5
39E
100
AcDbEntity
  8
0
  6
Continuous
 62
           7
100
AcDbCircle
 10
-5.264644661102
 20
-1.091457845451
 30
0.0
 40
3.447499990463
100
AcDbArc
 50
0.0
 51
179.999964027821
1001
ACAD
1000
TCW40_DEV_WIDTH
1002
{
1040
-3.0
1002
}
  0
CIRCLE
  5
39F
100
AcDbEntity
  8
0
  6
Continuous
 62
           7
100
AcDbCircle
 10
-5.264644661102
 20
-0.500457845451
 30
0.0
 40
1.477499961853
1001
ACAD
1000
TCW40_DEV_WIDTH
1002
{
1040
-3.0
1002
}
  0
ARC
  5
3A0
100
AcDbEntity
  8
0
  6
Continuous
 62
           7
100
AcDbCircle
 10
-5.264644661102
 20
-0.500457845451
 30
0.0
 40
0.689499974251
100
AcDbArc
 50
103.161770204904
 51
436.838227973864
1001
ACAD
1000
TCW40_DEV_WIDTH
1002
{
1040
-3.0
1002
}
  0
ARC
  5
3A1
100
AcDbEntity
  8
0
  6
Continuous
 62
           7
100
AcDbCircle
 10
-5.264644661102
 20
-0.500457845451
 30
0.0
 40
2.521600008011
100
AcDbArc
 50
-98.695427544362
 51
-81.802491424899
1001
ACAD
1000
TCW40_DEV_WIDTH
1002
{
1040
-3.0
1002
}
  0
ARC
  5
3A2
100
AcDbEntity
  8
0
  6
Continuous
 62
           7
100
AcDbCircle
 10
-5.264644661102
 20
-0.500457845451
 30
0.0
 40
2.521600008011
100
AcDbArc
 50
81.304556974027
 51
98.197520414247
1001
ACAD
1000
TCW40_DEV_WIDTH
1002
{
1040
-3.0
1002
}
  0
CIRCLE
  5
3A3
100
AcDbEntity
  8
0
  6
Continuous
 62
           7
100
AcDbCircle
 10
-5.264644661102
 20
-0.500457845451
 30
0.0
 40
1.97000002861
1001
ACAD
1000
TCW40_DEV_WIDTH
1002
{
1040
-3.0
1002
}
  0
LINE
  5
3A4
100
AcDbEntity
  8
0
  6
CENTER
 62
           7
100
AcDbLine
 10
-2.065791061862
 20
-0.500457845451
 30
0.0
 11
-9.175087385579
 21
-0.500457845451
 31
0.0
1001
ACAD
1000
TCW40_DEV_WIDTH
1002
{
1040
-3.0
1002
}
  0
ARC
  5
3A5
100
AcDbEntity
  8
0
  6
Continuous
 62
           7
100
AcDbCircle
 10
-5.264644661102
 20
-0.500457845451
 30
0.0
 40
2.521600008011
100
AcDbArc
 50
-158.695429214014
 51
-141.802486264362
1001
ACAD
1000
TCW40_DEV_WIDTH
1002
{
1040
-3.0
1002
}
  0
ARC
  5
3A6
100
AcDbEntity
  8
0
  6
Continuous
 62
           7
100
AcDbCircle
 10
-5.264644661102
 20
-0.500457845451
 30
0.0
 40
2.521600008011
100
AcDbArc
 50
141.30455181349
 51
158.19750842352
1001
ACAD
1000
TCW40_DEV_WIDTH
1002
{
1040
-3.0
1002
}
  0
ARC
  5
3A7
100
AcDbEntity
  8
0
  6
Continuous
 62
           7
100
AcDbCircle
 10
-7.349497197702
 20
-1.091457845451
 30
0.0
 40
0.196999996901
100
AcDbArc
 50
15.826484042836
 51
89.999982013911
1001
ACAD
1000
TCW40_DEV_WIDTH
1002
{
1040
-3.0
1002
}
  0
ARC
  5
3A8
100
AcDbEntity
  8
0
  6
Continuous
 62
           7
100
AcDbCircle
 10
-7.349497197702
 20
0.090542154549
 30
0.0
 40
0.196999996901
100
AcDbArc
 50
-89.999982013911
 51
-15.826480627741
1001
ACAD
1000
TCW40_DEV_WIDTH
1002
{
1040
-3.0
1002
}
  0
ARC
  5
3A9
100
AcDbEntity
  8
0
  6
Continuous
 62
           7
100
AcDbCircle
 10
-8.199944661102
 20
-1.091457845451
 30
0.0
 40
0.196999996901
100
AcDbArc
 50
89.999982013911
 51
179.999964027821
1001
ACAD
1000
TCW40_DEV_WIDTH
1002
{
1040
-3.0
1002
}
  0
ARC
  5
3AA
100
AcDbEntity
  8
0
  6
Continuous
 62
           7
100
AcDbCircle
 10
-8.418183743302
 20
-0.303457845451
 30
0.0
 40
0.196999996901
100
AcDbArc
 50
89.999982013911
 51
165.9703866424
1001
ACAD
1000
TCW40_DEV_WIDTH
1002
{
1040
-3.0
1002
}
  0
ARC
  5
3AB
100
AcDbEntity
  8
0
  6
Continuous
 62
           7
100
AcDbCircle
 10
-7.020193140302
 20
-1.963396866251
 30
0.0
 40
0.315200001001
100
AcDbArc
 50
-15.000010662697
 51
39.805249652567
1001
ACAD
1000
TCW40_DEV_WIDTH
1002
{
1040
-3.0
1002
}
  0
ARC
  5
3AC
100
AcDbEntity
  8
0
  6
Continuous
 62
           7
100
AcDbCircle
 10
-6.133945654902
 20
-2.613856391251
 30
0.0
 40
0.315200001001
100
AcDbArc
 50
67.641405577198
 51
165.000062648151
1001
ACAD
1000
TCW40_DEV_WIDTH
1002
{
1040
-3.0
1002
}
  0
LINE
  5
3AD
100
AcDbEntity
  8
0
  6
Continuous
 62
           7
100
AcDbLine
 10
-7.679303723302
 20
-1.894549069851
 30
0.0
 11
-7.043365659302
 21
-1.527390241051
 31
0.0
1001
ACAD
1000
TCW40_DEV_WIDTH
1002
{
1040
-3.0
1002
}
  0
LINE
  5
3AE
100
AcDbEntity
  8
0
  6
Continuous
 62
           7
100
AcDbLine
 10
-7.679298443702
 20
0.893642559149
 30
0.0
 11
-7.043360379702
 21
0.526483493949
 31
0.0
1001
ACAD
1000
TCW40_DEV_WIDTH
1002
{
1040
-3.0
1002
}
  0
LINE
  5
3AF
100
AcDbEntity
  8
0
  6
Continuous
 62
           7
100
AcDbLine
 10
-8.199944661102
 20
-0.894457845451
 30
0.0
 11
-7.349497197702
 21
-0.894457845451
 31
0.0
1001
ACAD
1000
TCW40_DEV_WIDTH
1002
{
1040
-3.0
1002
}
  0
LINE
  5
3B0
100
AcDbEntity
  8
0
  6
Continuous
 62
           7
100
AcDbLine
 10
-8.418183743302
 20
-0.106457845451
 30
0.0
 11
-7.349497197702
 21
-0.106457845451
 31
0.0
1001
ACAD
1000
TCW40_DEV_WIDTH
1002
{
1040
-3.0
1002
}
  0
LINE
  5
3B1
100
AcDbEntity
  8
0
  6
Continuous
 62
           7
100
AcDbLine
 10
-5.421644661102
 20
0.032042154549
 30
0.0
 11
-5.421644661102
 21
0.346042154549
 31
0.0
1001
ACAD
1000
TCW40_DEV_WIDTH
1002
{
1040
-3.0
1002
}
  0
LINE
  5
3B2
100
AcDbEntity
  8
0
  6
Continuous
 62
           7
100
AcDbLine
 10
-5.107644661102
 20
0.032042154549
 30
0.0
 11
-5.107644661102
 21
0.346042154549
 31
0.0
1001
ACAD
1000
TCW40_DEV_WIDTH
1002
{
1040
-3.0
1002
}
  0
LINE
  5
3B3
100
AcDbEntity
  8
1
  6
Continuous
 62
           7
100
AcDbLine
 10
-5.421644661102
 20
0.032042154549
 30
0.0
 11
-5.107644661102
 21
0.032042154549
 31
0.0
1001
ACAD
1000
TCW40_DEV_WIDTH
1002
{
1040
-3.0
1002
}
  0
LINE
  5
3B4
100
AcDbEntity
  8
1
  6
Continuous
 62
           7
100
AcDbLine
 10
-5.421644661102
 20
0.346042154549
 30
0.0
 11
-5.107644661102
 21
0.346042154549
 31
0.0
1001
ACAD
1000
TCW40_DEV_WIDTH
1002
{
1040
-3.0
1002
}
  0
ARC
  5
3B5
100
AcDbEntity
  8
0
  6
Continuous
 62
           7
100
AcDbCircle
 10
-5.264644661102
 20
-0.500457845451
 30
0.0
 40
2.521600008011
100
AcDbArc
 50
-38.695439535088
 51
-21.802500000531
1001
ACAD
1000
TCW40_DEV_WIDTH
1002
{
1040
-3.0
1002
}
  0
ARC
  5
3B6
100
AcDbEntity
  8
0
  6
Continuous
 62
           7
100
AcDbCircle
 10
-5.264644661102
 20
-0.500457845451
 30
0.0
 40
2.521600008011
100
AcDbArc
 50
21.304555304375
 51
38.197498254027
1001
ACAD
1000
TCW40_DEV_WIDTH
1002
{
1040
-3.0
1002
}
  0
ARC
  5
3B7
100
AcDbEntity
  8
0
  6
Continuous
 62
           7
100
AcDbCircle
 10
-2.111105578902
 20
-0.303457845451
 30
0.0
 40
0.196999996901
100
AcDbArc
 50
14.029577385421
 51
89.999982013911
1001
ACAD
1000
TCW40_DEV_WIDTH
1002
{
1040
-3.0
1002
}
  0
ARC
  5
3B8
100
AcDbEntity
  8
0
  6
Continuous
 62
           7
100
AcDbCircle
 10
-3.179792124502
 20
0.090542154549
 30
0.0
 40
0.196999996901
100
AcDbArc
 50
-164.173541456688
 51
-90.000036655424
1001
ACAD
1000
TCW40_DEV_WIDTH
1002
{
1040
-3.0
1002
}
  0
ARC
  5
3B9
100
AcDbEntity
  8
0
  6
Continuous
 62
           7
100
AcDbCircle
 10
-3.179792124502
 20
-1.091457845451
 30
0.0
 40
0.196999996901
100
AcDbArc
 50
89.999982013911
 51
164.173486815175
1001
ACAD
1000
TCW40_DEV_WIDTH
1002
{
1040
-3.0
1002
}
  0
ARC
  5
3BA
100
AcDbEntity
  8
0
  6
Continuous
 62
           7
100
AcDbCircle
 10
-2.329344661102
 20
-1.091457845451
 30
0.0
 40
0.196999996901
100
AcDbArc
 50
0.0
 51
89.999982013911
1001
ACAD
1000
TCW40_DEV_WIDTH
1002
{
1040
-3.0
1002
}
  0
ARC
  5
3BB
100
AcDbEntity
  8
0
  6
Continuous
 62
           7
100
AcDbCircle
 10
-4.395343667302
 20
-2.613856391251
 30
0.0
 40
0.315200001001
100
AcDbArc
 50
14.99990137967
 51
112.358558450623
1001
ACAD
1000
TCW40_DEV_WIDTH
1002
{
1040
-3.0
1002
}
  0
ARC
  5
3BC
100
AcDbEntity
  8
0
  6
Continuous
 62
           7
100
AcDbCircle
 10
-3.509096181902
 20
-1.963396866251
 30
0.0
 40
0.315200001001
100
AcDbArc
 50
140.194714375254
 51
194.999964672605
1001
ACAD
1000
TCW40_DEV_WIDTH
1002
{
1040
-3.0
1002
}
  0
LINE
  5
3BD
100
AcDbEntity
  8
0
  6
Continuous
 62
           7
100
AcDbLine
 10
-2.849992533302
 20
-1.894565893651
 30
0.0
 11
-3.485930439702
 21
-1.527406749651
 31
0.0
1001
ACAD
1000
TCW40_DEV_WIDTH
1002
{
1040
-3.0
1002
}
  0
LINE
  5
3BE
100
AcDbEntity
  8
0
  6
Continuous
 62
           7
100
AcDbLine
 10
-2.111105578902
 20
-0.106457845451
 30
0.0
 11
-3.179792124502
 21
-0.106457845451
 31
0.0
1001
ACAD
1000
TCW40_DEV_WIDTH
1002
{
1040
-3.0
1002
}
  0
LINE
  5
3BF
100
AcDbEntity
  8
0
  6
Continuous
 62
           7
100
AcDbLine
 10
-2.329344661102
 20
-0.894457845451
 30
0.0
 11
-3.179792124502
 21
-0.894457845451
 31
0.0
1001
ACAD
1000
TCW40_DEV_WIDTH
1002
{
1040
-3.0
1002
}
  0
LINE
  5
3C0
100
AcDbEntity
  8
0
  6
Continuous
 62
           7
100
AcDbLine
 10
-2.850005456502
 20
0.893670217949
 30
0.0
 11
-3.485943678102
 21
0.526511507349
 31
0.0
1001
ACAD
1000
TCW40_DEV_WIDTH
1002
{
1040
-3.0
1002
}
  0
POINT
  5
3C1
100
AcDbEntity
  8
0
  6
Continuous
 62
           7
100
AcDbPoint
 10
-1.868179599302
 20
-0.500457845451
 30
-0.0
1001
TCAD
1000
TC25ExternalObject
1002
{
1000
TCW30POINT
1000

1070
           0
1071
        0
1040
1.0
1040
0.0
1000
Continuous
1000
0
1071
        1
1071
      242
1010
-1.868179599302
1020
-0.500457845451
1030
-0.0
1070
           3
1071
-2147483645
1070
           0
1000
$POINTSIZE
1070
           5
1040
1.933340808218
1000
$POINTTYPE
1070
          18
1070
           5
1000
ExplodeScale
1070
           5
1040
1.0
1002
}
  0
POINT
  5
3C2
100
AcDbEntity
  8
0
  6
Continuous
 62
           7
100
AcDbPoint
 10
-5.264644661102
 20
-0.500457845451
 30
-0.0
1001
TCAD
1000
TC25ExternalObject
1002
{
1000
TCW30POINT
1000

1070
           0
1071
        0
1040
1.0
1040
0.0
1000
Continuous
1000
0
1071
        1
1071
      242
1010
-5.264644661102
1020
-0.500457845451
1030
-0.0
1070
           3
1071
-2147483645
1070
           0
1000
$POINTSIZE
1070
           5
1040
1.933340808218
1000
$POINTTYPE
1070
          18
1070
           5
1000
ExplodeScale
1070
           5
1040
1.0
1002
}
  0
LINE
  5
3C3
100
AcDbEntity
  8
0
  6
Continuous
 62
           7
100
AcDbLine
 10
8.325442053759
 20
0.344042154549
 30
0.0
 11
8.325442053759
 21
-1.187957845451
 31
0.0
1001
ACAD
1000
TCW40_DEV_WIDTH
1002
{
1040
-3.0
1002
}
  0
LINE
  5
3C4
100
AcDbEntity
  8
0
  6
Continuous
 62
           7
100
AcDbLine
 10
8.355443235759
 20
13.198596254683
 30
0.0
 11
8.355443235759
 21
11.819596254683
 31
0.0
1001
ACAD
1000
TCW40_DEV_WIDTH
1002
{
1040
-3.0
1002
}
  0
DIMENSION
  5
3D1
100
AcDbEntity
  8
1
  6
Continuous
 62
           7
100
AcDbDimension
  2
*D41
 10
17.023443235759
 20
7.030067968301
 30
0.0
 11
14.068443235759
 21
7.683713811568
 31
0.0
 71
           5
 72
           1
 41
1.0
 42
0.0
  1
<>
  3
STANDARD
100
AcDbAlignedDimension
 13
11.113443235759
 23
9.258596323449
 33
0.0
 14
17.023443235759
 24
9.258596254683
 34
0.0
100
AcDbRotatedDimension
1001
ACAD
1000
DSTYLE
1002
{
1070
          41
1040
0.35
1070
         176
1070
           7
1070
         177
1070
           7
1070
         178
1070
           7
1070
         179
1070
           2
1070
         271
1070
           2
1070
          43
1040
0.25
1070
          42
1040
0.1
1070
         147
1040
0.25
1070
          77
1070
           1
1070
         272
1070
           2
1070
          73
1070
           0
1070
          74
1070
           0
1070
         140
1040
0.5
1002
}
  0
LINE
  5
3D2
100
AcDbEntity
  8
0
  6
Continuous
 62
           7
100
AcDbLine
 10
13.792642053759
 20
2.356041563549
 30
0.0
 11
13.792642053759
 21
-0.500457845451
 31
0.0
1001
ACAD
1000
TCW40_DEV_WIDTH
1002
{
1040
-3.0
1002
}
  0
LINE
  5
3D3
100
AcDbEntity
  8
0
  6
Continuous
 62
           7
100
AcDbLine
 10
13.319842053759
 20
2.356041563549
 30
0.0
 11
13.319842053759
 21
0.076717049149
 31
0.0
1001
ACAD
1000
TCW40_DEV_WIDTH
1002
{
1040
-3.0
1002
}
  0
LINE
  5
3D4
100
AcDbEntity
  8
0
  6
Continuous
 62
           7
100
AcDbLine
 10
15.368642053759
 20
2.35387246951
 30
0.0
 11
15.368642053759
 21
-3.354788554112
 31
0.0
1001
ACAD
1000
TCW40_DEV_WIDTH
1002
{
1040
-3.0
1002
}
  0
LINE
  5
3D5
100
AcDbEntity
  8
0
  6
Continuous
 62
           7
100
AcDbLine
 10
13.931634179744
 20
0.658388217542
 30
0.0
 11
15.230846778169
 21
0.658388217542
 31
0.0
1001
ACAD
1000
TCW40_DEV_WIDTH
1002
{
1040
-3.0
1002
}
  0
LINE
  5
3D6
100
AcDbEntity
  8
0
  6
Continuous
 62
           7
100
AcDbLine
 10
13.931634179744
 20
0.009375619116
 30
0.0
 11
15.230846778169
 21
0.009375619116
 31
0.0
1001
ACAD
1000
TCW40_DEV_WIDTH
1002
{
1040
-3.0
1002
}
  0
LINE
  5
3D7
100
AcDbEntity
  8
0
  6
Continuous
 62
           7
100
AcDbLine
 10
13.931634179744
 20
-0.342979892695
 30
0.0
 11
15.230846778169
 21
-0.342979892695
 31
0.0
1001
ACAD
1000
TCW40_DEV_WIDTH
1002
{
1040
-3.0
1002
}
  0
LINE
  5
3D8
100
AcDbEntity
  8
0
  6
Continuous
 62
           7
100
AcDbLine
 10
14.267799970245
 20
-1.65930745175
 30
0.0
 11
15.230846778169
 21
-1.65930745175
 31
0.0
1001
ACAD
1000
TCW40_DEV_WIDTH
1002
{
1040
-3.0
1002
}
  0
LINE
  5
3D9
100
AcDbEntity
  8
0
  6
Continuous
 62
           7
100
AcDbLine
 10
13.931634179744
 20
0.316263414392
 30
0.0
 11
15.230846778169
 21
0.316263414392
 31
0.0
1001
ACAD
1000
TCW40_DEV_WIDTH
1002
{
1040
-3.0
1002
}
  0
LINE
  5
3DA
100
AcDbEntity
  8
0
  6
Continuous
 62
           7
100
AcDbLine
 10
13.95364438459
 20
-1.010297215529
 30
0.0
 11
15.230846778169
 21
-1.010297215529
 31
0.0
1001
ACAD
1000
TCW40_DEV_WIDTH
1002
{
1040
-3.0
1002
}
  0
LINE
  5
3DB
100
AcDbEntity
  8
0
  6
Continuous
 62
           7
100
AcDbLine
 10
13.931634179744
 20
-0.657941703718
 30
0.0
 11
15.230846778169
 21
-0.657941703718
 31
0.0
1001
ACAD
1000
TCW40_DEV_WIDTH
1002
{
1040
-3.0
1002
}
  0
LINE
  5
3DC
100
AcDbEntity
  8
0
  6
Continuous
 62
           7
100
AcDbLine
 10
14.100935489446
 20
-1.317185010805
 30
0.0
 11
15.230846778169
 21
-1.317185010805
 31
0.0
1001
ACAD
1000
TCW40_DEV_WIDTH
1002
{
1040
-3.0
1002
}
  0
LINE
  5
3DD
100
AcDbEntity
  8
0
  6
Continuous
 62
           7
100
AcDbLine
 10
10.138443235759
 20
0.344042154549
 30
0.0
 11
10.138443235759
 21
0.18704215455
 31
0.0
1001
ACAD
1000
TCW40_DEV_WIDTH
1002
{
1040
-3.0
1002
}
  0
ARC
  5
3DE
100
AcDbEntity
  8
0
  6
Continuous
 62
           7
100
AcDbCircle
 10
15.762642053759
 20
-0.230279630511
 30
0.0
 40
1.97000002861
100
AcDbArc
 50
179.9999776882
 51
206.000011651668
1001
ACAD
1000
TCW40_DEV_WIDTH
1002
{
1040
-3.0
1002
}
  0
LINE
  5
3DF
100
AcDbEntity
  8
0
  6
Continuous
 62
           7
100
AcDbLine
 10
11.704441462759
 20
1.469541405949
 30
0.0
 11
13.133151851759
 21
1.544416929549
 31
0.0
1001
ACAD
1000
TCW40_DEV_WIDTH
1002
{
1040
-3.0
1002
}
  0
ARC
  5
3E0
100
AcDbEntity
  8
0
  6
Continuous
 62
           7
100
AcDbCircle
 10
13.241042053759
 20
-0.421657845451
 30
0.0
 40
0.315200001001
100
AcDbArc
 50
103.342421878261
 51
179.999964027821
1001
ACAD
1000
TCW40_DEV_WIDTH
1002
{
1040
-3.0
1002
}
  0
ARC
  5
3E1
100
AcDbEntity
  8
0
  6
Continuous
 62
           7
100
AcDbCircle
 10
13.122842053759
 20
0.076717049149
 30
0.0
 40
0.196999996901
100
AcDbArc
 50
-76.657699243911
 51
0.0
1001
ACAD
1000
TCW40_DEV_WIDTH
1002
{
1040
-3.0
1002
}
  0
ARC
  5
3E2
100
AcDbEntity
  8
0
  6
Continuous
 62
           7
100
AcDbCircle
 10
11.234993102559
 20
-2.076556424251
 30
0.0
 40
0.196999996901
100
AcDbArc
 50
-2.999910010363
 51
89.999982013911
1001
ACAD
1000
TCW40_DEV_WIDTH
1002
{
1040
-3.0
1002
}
  0
ARC
  5
3E3
100
AcDbEntity
  8
0
  6
Continuous
 62
           7
100
AcDbCircle
 10
13.122842053759
 20
1.741147000149
 30
0.0
 40
0.196999996901
100
AcDbArc
 50
-86.999999005901
 51
0.0
1001
ACAD
1000
TCW40_DEV_WIDTH
1002
{
1040
-3.0
1002
}
  0
LINE
  5
3E4
100
AcDbEntity
  8
0
  6
Continuous
 62
           7
100
AcDbLine
 10
10.522442053759
 20
0.977042154549
 30
0.0
 11
10.522442053759
 21
-1.977957845451
 31
0.0
1001
ACAD
1000
TCW40_DEV_WIDTH
1002
{
1040
-3.0
1002
}
  0
LINE
  5
3E5
100
AcDbEntity
  8
0
  6
Continuous
 62
           7
100
AcDbLine
 10
10.601242053759
 20
1.469542154549
 30
0.0
 11
10.601242053759
 21
1.022538871149
 31
0.0
1001
ACAD
1000
TCW40_DEV_WIDTH
1002
{
1040
-3.0
1002
}
  0
LINE
  5
3E6
100
AcDbEntity
  8
0
  6
Continuous
 62
           7
100
AcDbLine
 10
10.522442053759
 20
0.977043218349
 30
0.0
 11
10.601242053759
 21
1.022538437749
 31
0.0
1001
ACAD
1000
TCW40_DEV_WIDTH
1002
{
1040
-3.0
1002
}
  0
LINE
  5
3E7
100
AcDbEntity
  8
0
  6
Continuous
 62
           7
100
AcDbLine
 10
10.522442368959
 20
-1.977958160651
 30
0.0
 11
10.601241896159
 21
-2.023453064851
 31
0.0
1001
ACAD
1000
TCW40_DEV_WIDTH
1002
{
1040
-3.0
1002
}
  0
LINE
  5
3E8
100
AcDbEntity
  8
0
  6
Continuous
 62
           7
100
AcDbLine
 10
10.325442053759
 20
-1.386957845451
 30
0.0
 11
10.522442053759
 21
-1.386957845451
 31
0.0
1001
ACAD
1000
TCW40_DEV_WIDTH
1002
{
1040
-3.0
1002
}
  0
LINE
  5
3E9
100
AcDbEntity
  8
0
  6
Continuous
 62
           7
100
AcDbLine
 10
10.325442053759
 20
0.386042154549
 30
0.0
 11
10.522442053759
 21
0.386042154549
 31
0.0
1001
ACAD
1000
TCW40_DEV_WIDTH
1002
{
1040
-3.0
1002
}
  0
LINE
  5
3EA
100
AcDbEntity
  8
0
  6
Continuous
 62
           7
100
AcDbLine
 10
10.325442053759
 20
0.386042154549
 30
0.0
 11
10.325442053759
 21
-1.386957845451
 31
0.0
1001
ACAD
1000
TCW40_DEV_WIDTH
1002
{
1040
-3.0
1002
}
  0
LINE
  5
3EB
100
AcDbEntity
  8
0
  6
Continuous
 62
           7
100
AcDbLine
 10
10.601242053759
 20
-2.023452789051
 30
0.0
 11
10.601242053759
 21
-2.470457845451
 31
0.0
1001
ACAD
1000
TCW40_DEV_WIDTH
1002
{
1040
-3.0
1002
}
  0
LINE
  5
3EC
100
AcDbEntity
  8
0
  6
Continuous
 62
           7
100
AcDbLine
 10
10.601242053759
 20
-2.470457845451
 30
0.0
 11
11.444657917359
 21
-2.470457845451
 31
0.0
1001
ACAD
1000
TCW40_DEV_WIDTH
1002
{
1040
-3.0
1002
}
  0
LINE
  5
3ED
100
AcDbEntity
  8
0
  6
Continuous
 62
           7
100
AcDbLine
 10
10.601242053759
 20
1.469542154549
 30
0.0
 11
11.704442053759
 21
1.469542154549
 31
0.0
1001
ACAD
1000
TCW40_DEV_WIDTH
1002
{
1040
-3.0
1002
}
  0
LINE
  5
3EE
100
AcDbEntity
  8
0
  6
Continuous
 62
           7
100
AcDbLine
 10
15.055402908059
 20
-3.274130680096
 30
0.0
 11
15.230846778169
 21
-3.274130680096
 31
0.0
1001
ACAD
1000
TCW40_DEV_WIDTH
1002
{
1040
-3.0
1002
}
  0
LINE
  5
3EF
100
AcDbEntity
  8
0
  6
Continuous
 62
           7
100
AcDbLine
 10
14.986431669691
 20
-3.132718869073
 30
0.0
 11
15.230846778169
 21
-3.132718869073
 31
0.0
1001
ACAD
1000
TCW40_DEV_WIDTH
1002
{
1040
-3.0
1002
}
  0
LINE
  5
3F0
100
AcDbEntity
  8
0
  6
Continuous
 62
           7
100
AcDbLine
 10
14.567131258256
 20
-2.273026743088
 30
0.0
 11
15.230846778169
 21
-2.273026743088
 31
0.0
1001
ACAD
1000
TCW40_DEV_WIDTH
1002
{
1040
-3.0
1002
}
  0
LINE
  5
3F1
100
AcDbEntity
  8
0
  6
Continuous
 62
           7
100
AcDbLine
 10
14.806738460979
 20
-2.764293672222
 30
0.0
 11
15.230846778169
 21
-2.764293672222
 31
0.0
1001
ACAD
1000
TCW40_DEV_WIDTH
1002
{
1040
-3.0
1002
}
  0
LINE
  5
3F2
100
AcDbEntity
  8
0
  6
Continuous
 62
           7
100
AcDbLine
 10
14.701972020522
 20
-2.549490916317
 30
0.0
 11
15.230846778169
 21
-2.549490916317
 31
0.0
1001
ACAD
1000
TCW40_DEV_WIDTH
1002
{
1040
-3.0
1002
}
  0
LINE
  5
3F3
100
AcDbEntity
  8
0
  6
Continuous
 62
           7
100
AcDbLine
 10
15.142747671405
 20
-3.453213750963
 30
0.0
 11
15.230846778169
 21
-3.453213750963
 31
0.0
1001
ACAD
1000
TCW40_DEV_WIDTH
1002
{
1040
-3.0
1002
}
  0
LINE
  5
3F4
100
AcDbEntity
  8
0
  6
Continuous
 62
           7
100
AcDbLine
 10
15.230846778169
 20
-3.45321256986
 30
0.0
 11
15.368642053759
 21
-3.289398002931
 31
0.0
1001
ACAD
1000
TCW40_DEV_WIDTH
1002
{
1040
-3.0
1002
}
  0
LINE
  5
3F5
100
AcDbEntity
  8
0
  6
Continuous
 62
           7
100
AcDbLine
 10
14.909623288109
 20
-2.975238554112
 30
0.0
 11
15.230846778169
 21
-2.975238554112
 31
0.0
1001
ACAD
1000
TCW40_DEV_WIDTH
1002
{
1040
-3.0
1002
}
  0
LINE
  5
3F6
100
AcDbEntity
  8
0
  6
Continuous
 62
           7
100
AcDbLine
 10
13.931634179744
 20
2.452298060061
 30
0.0
 11
15.230846778169
 21
2.452298060061
 31
0.0
1001
ACAD
1000
TCW40_DEV_WIDTH
1002
{
1040
-3.0
1002
}
  0
LINE
  5
3F7
100
AcDbEntity
  8
0
  6
Continuous
 62
           7
100
AcDbLine
 10
13.319842053759
 20
2.356041563549
 30
0.0
 11
13.792642053759
 21
2.356041563549
 31
0.0
1001
ACAD
1000
TCW40_DEV_WIDTH
1002
{
1040
-3.0
1002
}
  0
LINE
  5
3F8
100
AcDbEntity
  8
0
  6
Continuous
 62
           7
100
AcDbLine
 10
13.931634179744
 20
2.452298060061
 30
0.0
 11
13.793838904153
 21
2.288483493132
 31
0.0
1001
ACAD
1000
TCW40_DEV_WIDTH
1002
{
1040
-3.0
1002
}
  0
LINE
  5
3F9
100
AcDbEntity
  8
0
  6
Continuous
 62
           7
100
AcDbLine
 10
15.230847959271
 20
2.452297666361
 30
0.0
 11
15.368643234862
 21
2.28848231203
 31
0.0
1001
ACAD
1000
TCW40_DEV_WIDTH
1002
{
1040
-3.0
1002
}
  0
LINE
  5
3FA
100
AcDbEntity
  8
0
  6
Continuous
 62
           7
100
AcDbLine
 10
10.601243235759
 20
14.479096254683
 30
0.0
 11
10.601243235759
 21
13.986596254683
 31
0.0
1001
ACAD
1000
TCW40_DEV_WIDTH
1002
{
1040
-3.0
1002
}
  0
LINE
  5
3FB
100
AcDbEntity
  8
0
  6
Continuous
 62
           7
100
AcDbLine
 10
13.319843235759
 20
15.956597476083
 30
0.0
 11
13.319843235759
 21
9.061596254683
 31
0.0
1001
ACAD
1000
TCW40_DEV_WIDTH
1002
{
1040
-3.0
1002
}
  0
LINE
  5
3FC
100
AcDbEntity
  8
0
  6
Continuous
 62
           7
100
AcDbLine
 10
15.368642053759
 20
15.363426963345
 30
0.0
 11
15.368642053759
 21
9.654765546021
 31
0.0
1001
ACAD
1000
TCW40_DEV_WIDTH
1002
{
1040
-3.0
1002
}
  0
LINE
  5
3FD
100
AcDbEntity
  8
0
  6
Continuous
 62
           7
100
AcDbLine
 10
13.793838904153
 20
15.641397476083
 30
0.0
 11
13.793838904153
 21
9.376796254683
 31
0.0
1001
ACAD
1000
TCW40_DEV_WIDTH
1002
{
1040
-3.0
1002
}
  0
LINE
  5
3FE
100
AcDbEntity
  8
0
  6
Continuous
 62
           7
100
AcDbLine
 10
15.486843235759
 20
9.376796254683
 30
0.0
 11
13.792643235759
 21
9.376796254683
 31
0.0
1001
ACAD
1000
TCW40_DEV_WIDTH
1002
{
1040
-3.0
1002
}
  0
LINE
  5
3FF
100
AcDbEntity
  8
0
  6
Continuous
 62
           7
100
AcDbLine
 10
16.826443235759
 20
9.061596254683
 30
0.0
 11
11.310443235759
 21
9.061596254683
 31
0.0
1001
ACAD
1000
TCW40_DEV_WIDTH
1002
{
1040
-3.0
1002
}
  0
LINE
  5
400
100
AcDbEntity
  8
0
  6
Continuous
 62
           7
100
AcDbLine
 10
13.931634179744
 20
13.521771609014
 30
0.0
 11
15.230846778169
 21
13.521771609014
 31
0.0
1001
ACAD
1000
TCW40_DEV_WIDTH
1002
{
1040
-3.0
1002
}
  0
LINE
  5
401
100
AcDbEntity
  8
0
  6
Continuous
 62
           7
100
AcDbLine
 10
13.931634179744
 20
12.863429364919
 30
0.0
 11
15.230846778169
 21
12.863429364919
 31
0.0
1001
ACAD
1000
TCW40_DEV_WIDTH
1002
{
1040
-3.0
1002
}
  0
LINE
  5
402
100
AcDbEntity
  8
0
  6
Continuous
 62
           7
100
AcDbLine
 10
13.931634179744
 20
9.671538813738
 30
0.0
 11
15.230846778169
 21
9.671538813738
 31
0.0
1001
ACAD
1000
TCW40_DEV_WIDTH
1002
{
1040
-3.0
1002
}
  0
LINE
  5
403
100
AcDbEntity
  8
0
  6
Continuous
 62
           7
100
AcDbLine
 10
13.931634179744
 20
13.846992868856
 30
0.0
 11
15.230846778169
 21
13.846992868856
 31
0.0
1001
ACAD
1000
TCW40_DEV_WIDTH
1002
{
1040
-3.0
1002
}
  0
LINE
  5
404
100
AcDbEntity
  8
0
  6
Continuous
 62
           7
100
AcDbLine
 10
13.931634179744
 20
13.220572750746
 30
0.0
 11
15.230846778169
 21
13.220572750746
 31
0.0
1001
ACAD
1000
TCW40_DEV_WIDTH
1002
{
1040
-3.0
1002
}
  0
LINE
  5
405
100
AcDbEntity
  8
0
  6
Continuous
 62
           7
100
AcDbLine
 10
13.931634179744
 20
9.793245664132
 30
0.0
 11
15.230846778169
 21
9.793245664132
 31
0.0
1001
ACAD
1000
TCW40_DEV_WIDTH
1002
{
1040
-3.0
1002
}
  0
LINE
  5
406
100
AcDbEntity
  8
0
  6
Continuous
 62
           7
100
AcDbLine
 10
13.931634179744
 20
9.556340349171
 30
0.0
 11
15.230846778169
 21
9.556340349171
 31
0.0
1001
ACAD
1000
TCW40_DEV_WIDTH
1002
{
1040
-3.0
1002
}
  0
ARC
  5
407
100
AcDbEntity
  8
1
  6
Continuous
 62
           7
100
AcDbCircle
 10
10.138443235759
 20
12.509096254683
 30
0.0
 40
0.157000005245
100
AcDbArc
 50
-90.0
 51
90.000002504478
1001
ACAD
1000
TCW40_DEV_WIDTH
1002
{
1040
-3.0
1002
}
  0
LINE
  5
408
100
AcDbEntity
  8
0
  6
Continuous
 62
           7
100
AcDbLine
 10
10.138443235759
 20
12.666096254683
 30
0.0
 11
10.138443235759
 21
12.352096254683
 31
0.0
1001
ACAD
1000
TCW40_DEV_WIDTH
1002
{
1040
-3.0
1002
}
  0
LINE
  5
409
100
AcDbEntity
  8
0
  6
Continuous
 62
           7
100
AcDbLine
 10
10.295443235759
 20
13.198596254683
 30
0.0
 11
10.295443235759
 21
11.819596254683
 31
0.0
1001
ACAD
1000
TCW40_DEV_WIDTH
1002
{
1040
-3.0
1002
}
  0
LINE
  5
40A
100
AcDbEntity
  8
0
  6
Continuous
 62
           7
100
AcDbLine
 10
11.704443235759
 20
10.539096569883
 30
0.0
 11
13.133153427759
 21
10.464221006883
 31
0.0
1001
ACAD
1000
TCW40_DEV_WIDTH
1002
{
1040
-3.0
1002
}
  0
ARC
  5
40B
100
AcDbEntity
  8
0
  6
Continuous
 62
           7
100
AcDbCircle
 10
13.122843235759
 20
10.267491409083
 30
0.0
 40
0.196999996901
100
AcDbArc
 50
0.0
 51
86.999999005901
1001
ACAD
1000
TCW40_DEV_WIDTH
1002
{
1040
-3.0
1002
}
  0
LINE
  5
40C
100
AcDbEntity
  8
0
  6
Continuous
 62
           7
100
AcDbLine
 10
10.522443235759
 20
13.986596254683
 30
0.0
 11
10.522443235759
 21
11.031596254683
 31
0.0
1001
ACAD
1000
TCW40_DEV_WIDTH
1002
{
1040
-3.0
1002
}
  0
LINE
  5
40D
100
AcDbEntity
  8
0
  6
Continuous
 62
           7
100
AcDbLine
 10
10.601243235759
 20
11.031596254683
 30
0.0
 11
10.522443235759
 21
11.031596254683
 31
0.0
1001
ACAD
1000
TCW40_DEV_WIDTH
1002
{
1040
-3.0
1002
}
  0
LINE
  5
40E
100
AcDbEntity
  8
0
  6
Continuous
 62
           7
100
AcDbLine
 10
10.601243235759
 20
13.986596254683
 30
0.0
 11
10.522443235759
 21
13.986596254683
 31
0.0
1001
ACAD
1000
TCW40_DEV_WIDTH
1002
{
1040
-3.0
1002
}
  0
LINE
  5
40F
100
AcDbEntity
  8
0
  6
Continuous
 62
           7
100
AcDbLine
 10
10.325443235759
 20
11.622596254683
 30
0.0
 11
10.522443235759
 21
11.622596254683
 31
0.0
1001
ACAD
1000
TCW40_DEV_WIDTH
1002
{
1040
-3.0
1002
}
  0
LINE
  5
410
100
AcDbEntity
  8
0
  6
Continuous
 62
           7
100
AcDbLine
 10
10.325443235759
 20
13.395596254683
 30
0.0
 11
10.522443235759
 21
13.395596254683
 31
0.0
1001
ACAD
1000
TCW40_DEV_WIDTH
1002
{
1040
-3.0
1002
}
  0
LINE
  5
411
100
AcDbEntity
  8
0
  6
Continuous
 62
           7
100
AcDbLine
 10
10.325443235759
 20
13.395596254683
 30
0.0
 11
10.325443235759
 21
11.622596254683
 31
0.0
1001
ACAD
1000
TCW40_DEV_WIDTH
1002
{
1040
-3.0
1002
}
  0
LINE
  5
412
100
AcDbEntity
  8
0
  6
Continuous
 62
           7
100
AcDbLine
 10
10.601243235759
 20
11.031596254683
 30
0.0
 11
10.601243235759
 21
10.539096254683
 31
0.0
1001
ACAD
1000
TCW40_DEV_WIDTH
1002
{
1040
-3.0
1002
}
  0
LINE
  5
413
100
AcDbEntity
  8
0
  6
Continuous
 62
           7
100
AcDbLine
 10
11.704443235759
 20
10.539096254683
 30
0.0
 11
10.601243235759
 21
10.539096254683
 31
0.0
1001
ACAD
1000
TCW40_DEV_WIDTH
1002
{
1040
-3.0
1002
}
  0
LINE
  5
414
100
AcDbEntity
  8
0
  6
Continuous
 62
           7
100
AcDbLine
 10
12.080912363359
 20
9.652596254683
 30
0.0
 11
11.346519806359
 21
9.652596254683
 31
0.0
1001
ACAD
1000
TCW40_DEV_WIDTH
1002
{
1040
-3.0
1002
}
  0
ARC
  5
415
100
AcDbEntity
  8
0
  6
Continuous
 62
           7
100
AcDbCircle
 10
11.310443235759
 20
9.258596254683
 30
0.0
 40
0.196999996901
100
AcDbArc
 50
179.9999776882
 51
270.000031646468
1001
ACAD
1000
TCW40_DEV_WIDTH
1002
{
1040
-3.0
1002
}
  0
CIRCLE
  5
416
100
AcDbEntity
  8
0
  6
Continuous
 62
           7
100
AcDbCircle
 10
11.704443235759
 20
9.652596254683
 30
0.0
 40
0.2363999933
1001
ACAD
1000
TCW40_DEV_WIDTH
1002
{
1040
-3.0
1002
}
  0
LINE
  5
417
100
AcDbEntity
  8
0
  6
Continuous
 62
           7
100
AcDbLine
 10
11.113443235759
 20
10.539096254683
 30
0.0
 11
11.113443235759
 21
9.258596254683
 31
0.0
1001
ACAD
1000
TCW40_DEV_WIDTH
1002
{
1040
-3.0
1002
}
  0
LINE
  5
418
100
AcDbEntity
  8
0
  6
Continuous
 62
           7
100
AcDbLine
 10
12.925843235759
 20
10.475085675083
 30
0.0
 11
12.925843235759
 21
9.061596254683
 31
0.0
1001
ACAD
1000
TCW40_DEV_WIDTH
1002
{
1040
-3.0
1002
}
  0
LINE
  5
419
100
AcDbEntity
  8
0
  6
Continuous
 62
           7
100
AcDbLine
 10
11.704443235759
 20
10.009786213683
 30
0.0
 11
11.704443235759
 21
9.305369334283
 31
0.0
1001
ACAD
1000
TCW40_DEV_WIDTH
1002
{
1040
-3.0
1002
}
  0
LINE
  5
41A
100
AcDbEntity
  8
0
  6
Continuous
 62
           7
100
AcDbLine
 10
13.931634179744
 20
9.556340664132
 30
0.0
 11
13.793838904153
 21
9.720154246809
 31
0.0
1001
ACAD
1000
TCW40_DEV_WIDTH
1002
{
1040
-3.0
1002
}
  0
ARC
  5
41B
100
AcDbEntity
  8
0
  6
Continuous
 62
           7
100
AcDbCircle
 10
15.486843235759
 20
9.494996254683
 30
0.0
 40
0.11819999665
100
AcDbArc
 50
-90.0
 51
-16.370049280005
1001
ACAD
1000
TCW40_DEV_WIDTH
1002
{
1040
-3.0
1002
}
  0
LINE
  5
41C
100
AcDbEntity
  8
0
  6
Continuous
 62
           7
100
AcDbLine
 10
16.055974265759
 20
9.652596254683
 30
0.0
 11
16.790366625759
 21
9.652596254683
 31
0.0
1001
ACAD
1000
TCW40_DEV_WIDTH
1002
{
1040
-3.0
1002
}
  0
LINE
  5
41D
100
AcDbEntity
  8
0
  6
Continuous
 62
           7
100
AcDbLine
 10
16.432443235759
 20
10.009786213683
 30
0.0
 11
16.432443235759
 21
9.305369334283
 31
0.0
1001
ACAD
1000
TCW40_DEV_WIDTH
1002
{
1040
-3.0
1002
}
  0
CIRCLE
  5
41E
100
AcDbEntity
  8
0
  6
Continuous
 62
           7
100
AcDbCircle
 10
16.432443235759
 20
9.652596254683
 30
0.0
 40
0.2363999933
1001
ACAD
1000
TCW40_DEV_WIDTH
1002
{
1040
-3.0
1002
}
  0
ARC
  5
41F
100
AcDbEntity
  8
0
  6
Continuous
 62
           7
100
AcDbCircle
 10
16.826443235759
 20
9.258596254683
 30
0.0
 40
0.196999996901
100
AcDbArc
 50
-89.99998201391
 51
0.0
1001
ACAD
1000
TCW40_DEV_WIDTH
1002
{
1040
-3.0
1002
}
  0
LINE
  5
420
100
AcDbEntity
  8
0
  6
Continuous
 62
           7
100
AcDbLine
 10
17.023443235759
 20
10.342377561754
 30
0.0
 11
17.023443235759
 21
9.25859808185
 31
0.0
1001
ACAD
1000
TCW40_DEV_WIDTH
1002
{
1040
-3.0
1002
}
  0
LINE
  5
421
100
AcDbEntity
  8
0
  6
CENTER
 62
           7
100
AcDbLine
 10
15.171791660059
 20
9.556340349171
 30
0.0
 11
14.541870400216
 21
9.556340349171
 31
0.0
1001
ACAD
1000
TCW40_DEV_WIDTH
1002
{
1040
-3.0
1002
}
  0
LINE
  5
422
100
AcDbEntity
  8
0
  6
Continuous
 62
           7
100
AcDbLine
 10
15.230846778169
 20
9.556339128699
 30
0.0
 11
15.368642053759
 21
9.720153971218
 31
0.0
1001
ACAD
1000
TCW40_DEV_WIDTH
1002
{
1040
-3.0
1002
}
  0
LINE
  5
423
100
AcDbEntity
  8
0
  6
Continuous
 62
           7
100
AcDbLine
 10
15.486843235759
 20
15.641397476083
 30
0.0
 11
13.792643235759
 21
15.641397476083
 31
0.0
1001
ACAD
1000
TCW40_DEV_WIDTH
1002
{
1040
-3.0
1002
}
  0
LINE
  5
424
100
AcDbEntity
  8
0
  6
Continuous
 62
           7
100
AcDbLine
 10
16.826443235759
 20
15.956597476083
 30
0.0
 11
11.310443235759
 21
15.956597476083
 31
0.0
1001
ACAD
1000
TCW40_DEV_WIDTH
1002
{
1040
-3.0
1002
}
  0
LINE
  5
425
100
AcDbEntity
  8
0
  6
Continuous
 62
           7
100
AcDbLine
 10
13.931634179744
 20
14.635181412163
 30
0.0
 11
15.230846778169
 21
14.635181412163
 31
0.0
1001
ACAD
1000
TCW40_DEV_WIDTH
1002
{
1040
-3.0
1002
}
  0
LINE
  5
426
100
AcDbEntity
  8
0
  6
Continuous
 62
           7
100
AcDbLine
 10
13.931634179744
 20
15.346651923975
 30
0.0
 11
15.230846778169
 21
15.346651923975
 31
0.0
1001
ACAD
1000
TCW40_DEV_WIDTH
1002
{
1040
-3.0
1002
}
  0
LINE
  5
427
100
AcDbEntity
  8
0
  6
Continuous
 62
           7
100
AcDbLine
 10
13.931634179744
 20
14.404832593266
 30
0.0
 11
15.230846778169
 21
14.404832593266
 31
0.0
1001
ACAD
1000
TCW40_DEV_WIDTH
1002
{
1040
-3.0
1002
}
  0
LINE
  5
428
100
AcDbEntity
  8
0
  6
Continuous
 62
           7
100
AcDbLine
 10
13.931634184796
 20
15.461852160195
 30
0.0
 11
15.230847043103
 21
15.461852160195
 31
0.0
1001
ACAD
1000
TCW40_DEV_WIDTH
1002
{
1040
-3.0
1002
}
  0
LINE
  5
429
100
AcDbEntity
  8
0
  6
Continuous
 62
           7
100
AcDbLine
 10
13.931634179744
 20
15.224943223187
 30
0.0
 11
15.230846778169
 21
15.224943223187
 31
0.0
1001
ACAD
1000
TCW40_DEV_WIDTH
1002
{
1040
-3.0
1002
}
  0
LINE
  5
42A
100
AcDbEntity
  8
0
  6
Continuous
 62
           7
100
AcDbLine
 10
13.931634179744
 20
14.870611333423
 30
0.0
 11
15.230846778169
 21
14.870611333423
 31
0.0
1001
ACAD
1000
TCW40_DEV_WIDTH
1002
{
1040
-3.0
1002
}
  0
LINE
  5
42B
100
AcDbEntity
  8
0
  6
Continuous
 62
           7
100
AcDbLine
 10
13.931634179744
 20
14.119757553896
 30
0.0
 11
15.230846778169
 21
14.119757553896
 31
0.0
1001
ACAD
1000
TCW40_DEV_WIDTH
1002
{
1040
-3.0
1002
}
  0
ARC
  5
42C
100
AcDbEntity
  8
0
  6
Continuous
 62
           7
100
AcDbCircle
 10
11.310443235759
 20
15.759597476083
 30
0.0
 40
0.196999996901
100
AcDbArc
 50
89.999982013911
 51
179.999964027821
1001
ACAD
1000
TCW40_DEV_WIDTH
1002
{
1040
-3.0
1002
}
  0
LINE
  5
42D
100
AcDbEntity
  8
0
  6
Continuous
 62
           7
100
AcDbLine
 10
11.704442644759
 20
14.479095348483
 30
0.0
 11
13.133153427759
 21
14.553970911483
 31
0.0
1001
ACAD
1000
TCW40_DEV_WIDTH
1002
{
1040
-3.0
1002
}
  0
LINE
  5
42E
100
AcDbEntity
  8
0
  6
Continuous
 62
           7
100
AcDbLine
 10
12.080912363359
 20
15.365596254683
 30
0.0
 11
11.346519806359
 21
15.365596254683
 31
0.0
1001
ACAD
1000
TCW40_DEV_WIDTH
1002
{
1040
-3.0
1002
}
  0
LINE
  5
42F
100
AcDbEntity
  8
0
  6
Continuous
 62
           7
100
AcDbLine
 10
11.704443235759
 20
15.008406295683
 30
0.0
 11
11.704443235759
 21
15.712824396483
 31
0.0
1001
ACAD
1000
TCW40_DEV_WIDTH
1002
{
1040
-3.0
1002
}
  0
CIRCLE
  5
430
100
AcDbEntity
  8
0
  6
Continuous
 62
           7
100
AcDbCircle
 10
11.704443235759
 20
15.365596254683
 30
0.0
 40
0.2363999933
1001
ACAD
1000
TCW40_DEV_WIDTH
1002
{
1040
-3.0
1002
}
  0
ARC
  5
431
100
AcDbEntity
  8
0
  6
Continuous
 62
           7
100
AcDbCircle
 10
13.122843235759
 20
14.750702321683
 30
0.0
 40
0.196999996901
100
AcDbArc
 50
-86.999999005901
 51
0.0
1001
ACAD
1000
TCW40_DEV_WIDTH
1002
{
1040
-3.0
1002
}
  0
LINE
  5
432
100
AcDbEntity
  8
0
  6
Continuous
 62
           7
100
AcDbLine
 10
11.704443235759
 20
14.479096254683
 30
0.0
 11
10.601243235759
 21
14.479096254683
 31
0.0
1001
ACAD
1000
TCW40_DEV_WIDTH
1002
{
1040
-3.0
1002
}
  0
LINE
  5
433
100
AcDbEntity
  8
0
  6
Continuous
 62
           7
100
AcDbLine
 10
11.113443235759
 20
15.759597476083
 30
0.0
 11
11.113443235759
 21
14.479096254683
 31
0.0
1001
ACAD
1000
TCW40_DEV_WIDTH
1002
{
1040
-3.0
1002
}
  0
LINE
  5
434
100
AcDbEntity
  8
0
  6
Continuous
 62
           7
100
AcDbLine
 10
12.925843235759
 20
14.543106834283
 30
0.0
 11
12.925843235759
 21
15.956597476083
 31
0.0
1001
ACAD
1000
TCW40_DEV_WIDTH
1002
{
1040
-3.0
1002
}
  0
LINE
  5
435
100
AcDbEntity
  8
0
  6
Continuous
 62
           7
100
AcDbLine
 10
13.931632998641
 20
15.461851569644
 30
0.0
 11
13.793837723051
 21
15.298036727124
 31
0.0
1001
ACAD
1000
TCW40_DEV_WIDTH
1002
{
1040
-3.0
1002
}
  0
ARC
  5
436
100
AcDbEntity
  8
0
  6
Continuous
 62
           7
100
AcDbCircle
 10
15.486843235759
 20
15.523197476083
 30
0.0
 40
0.11819999665
100
AcDbArc
 50
20.022832740581
 51
90.000002504478
1001
ACAD
1000
TCW40_DEV_WIDTH
1002
{
1040
-3.0
1002
}
  0
ARC
  5
437
100
AcDbEntity
  8
0
  6
Continuous
 62
           7
100
AcDbCircle
 10
16.826443235759
 20
15.759597476083
 30
0.0
 40
0.196999996901
100
AcDbArc
 50
0.0
 51
89.99998201391
1001
ACAD
1000
TCW40_DEV_WIDTH
1002
{
1040
-3.0
1002
}
  0
ARC
  5
438
100
AcDbEntity
  8
0
  6
Continuous
 62
           7
100
AcDbCircle
 10
16.826443235759
 20
14.730456434683
 30
0.0
 40
0.196999996901
100
AcDbArc
 50
-4.355229996897
 51
0.0
1001
ACAD
1000
TCW40_DEV_WIDTH
1002
{
1040
-3.0
1002
}
  0
LINE
  5
439
100
AcDbEntity
  8
0
  6
Continuous
 62
           7
100
AcDbLine
 10
17.023443235759
 20
14.675920732749
 30
0.0
 11
17.023443235759
 21
15.759595513901
 31
0.0
1001
ACAD
1000
TCW40_DEV_WIDTH
1002
{
1040
-3.0
1002
}
  0
LINE
  5
43A
100
AcDbEntity
  8
0
  6
Continuous
 62
           7
100
AcDbLine
 10
16.055974265759
 20
15.365596254683
 30
0.0
 11
16.790366625759
 21
15.365596254683
 31
0.0
1001
ACAD
1000
TCW40_DEV_WIDTH
1002
{
1040
-3.0
1002
}
  0
LINE
  5
43B
100
AcDbEntity
  8
0
  6
Continuous
 62
           7
100
AcDbLine
 10
16.432443235759
 20
15.008406295683
 30
0.0
 11
16.432443235759
 21
15.712824396483
 31
0.0
1001
ACAD
1000
TCW40_DEV_WIDTH
1002
{
1040
-3.0
1002
}
  0
CIRCLE
  5
43C
100
AcDbEntity
  8
0
  6
Continuous
 62
           7
100
AcDbCircle
 10
16.432443235759
 20
15.365596254683
 30
0.0
 40
0.2363999933
1001
ACAD
1000
TCW40_DEV_WIDTH
1002
{
1040
-3.0
1002
}
  0
LINE
  5
43D
100
AcDbEntity
  8
0
  6
Continuous
 62
           7
100
AcDbLine
 10
15.230847043103
 20
15.461852160195
 30
0.0
 11
15.368642053759
 21
15.298037632636
 31
0.0
1001
ACAD
1000
TCW40_DEV_WIDTH
1002
{
1040
-3.0
1002
}
  0
DIMENSION
  5
44A
100
AcDbEntity
  8
1
  6
Continuous
 62
           7
100
AcDbDimension
  2
*D42
 10
18.804364299446
 20
4.75117684853
 30
0.0
 11
13.564902951876
 21
5.404822691798
 31
0.0
 71
           5
 72
           1
 41
1.0
 42
0.0
  1
10.47
  3
STANDARD
100
AcDbAlignedDimension
 13
8.325441604307
 23
0.344043187683
 33
0.0
 14
18.804364299446
 24
-0.043270752553
 34
0.0
100
AcDbRotatedDimension
1001
ACAD
1000
DSTYLE
1002
{
1070
          41
1040
0.35
1070
         176
1070
           7
1070
         177
1070
           7
1070
         178
1070
           7
1070
         179
1070
           2
1070
         271
1070
           2
1070
          43
1040
0.25
1070
          42
1040
0.1
1070
         147
1040
0.25
1070
          77
1070
           1
1070
         272
1070
           2
1070
          73
1070
           0
1070
          74
1070
           0
1070
         140
1040
0.5
1002
}
  0
DIMENSION
  5
458
100
AcDbEntity
  8
0
  6
Continuous
 62
           7
100
AcDbDimension
  2
*D43
 10
18.804364537703
 20
3.331404786688
 30
0.0
 11
20.107255527198
 21
3.838071697594
 31
0.0
 70
         128
 71
           5
 72
           1
 41
1.0
 42
0.0
  1
1.19
  3
STANDARD
100
AcDbAlignedDimension
 13
17.614487064494
 23
-0.043814442078
 33
0.0
 14
18.804365196048
 24
-0.043269511657
 34
0.0
 50
0.000011177493
100
AcDbRotatedDimension
1001
ACAD
1000
DSTYLE
1002
{
1070
         176
1070
           7
1070
         177
1070
           7
1070
         178
1070
           7
1070
          77
1070
           1
1070
          73
1070
           0
1070
         172
1070
           1
1070
          74
1070
           0
1070
         140
1040
0.516129032258
1002
}
  0
LINE
  5
459
100
AcDbEntity
  8
0
  6
CENTER
 62
           7
100
AcDbLine
 10
15.637659921553
 20
12.509097406326
 30
0.0
 11
18.496273782285
 21
12.509097406326
 31
0.0
1001
ACAD
1000
TCW40_DEV_WIDTH
1002
{
1040
-3.0
1002
}
  0
LINE
  5
45A
100
AcDbEntity
  8
0
  6
Continuous
 62
           7
100
AcDbLine
 10
15.368660058953
 20
15.365597406326
 30
0.0
 11
15.762660058953
 21
15.365597406326
 31
0.0
1001
ACAD
1000
TCW40_DEV_WIDTH
1002
{
1040
-3.0
1002
}
  0
LINE
  5
45B
100
AcDbEntity
  8
0
  6
Continuous
 62
           7
100
AcDbLine
 10
17.803579664953
 20
12.602918652386
 30
0.0
 11
18.804340452953
 21
12.602918652386
 31
0.0
1001
ACAD
1000
TCW40_DEV_WIDTH
1002
{
1040
-3.0
1002
}
  0
LINE
  5
45C
100
AcDbEntity
  8
0
  6
Continuous
 62
           7
100
AcDbLine
 10
17.803579664953
 20
12.415276160266
 30
0.0
 11
18.804340452953
 21
12.415276160266
 31
0.0
1001
ACAD
1000
TCW40_DEV_WIDTH
1002
{
1040
-3.0
1002
}
  0
LINE
  5
45D
100
AcDbEntity
  8
0
  6
Continuous
 62
           7
100
AcDbLine
 10
17.819340452953
 20
12.602918652386
 30
0.0
 11
17.819340452953
 21
12.415276160266
 31
0.0
1001
ACAD
1000
TCW40_DEV_WIDTH
1002
{
1040
-3.0
1002
}
  0
LINE
  5
45E
100
AcDbEntity
  8
0
  6
Continuous
 62
           7
100
AcDbLine
 10
18.804340452953
 20
12.884382390566
 30
0.0
 11
18.804340452953
 21
12.133812422086
 31
0.0
1001
ACAD
1000
TCW40_DEV_WIDTH
1002
{
1040
-3.0
1002
}
  0
ARC
  5
45F
100
AcDbEntity
  8
0
  6
Continuous
 62
           7
100
AcDbCircle
 10
17.803579664953
 20
12.509097406326
 30
0.0
 40
0.093821242452
100
AcDbArc
 50
90.0
 51
269.999997495522
1001
ACAD
1000
TCW40_DEV_WIDTH
1002
{
1040
-3.0
1002
}
  0
ARC
  5
460
100
AcDbEntity
  8
0
  6
Continuous
 62
           7
100
AcDbCircle
 10
17.378060058953
 20
13.713501152526
 30
0.0
 40
0.07880000025
100
AcDbArc
 50
0.0
 51
88.000000172095
1001
ACAD
1000
TCW40_DEV_WIDTH
1002
{
1040
-3.0
1002
}
  0
LINE
  5
461
100
AcDbEntity
  8
0
  6
Continuous
 62
           7
100
AcDbLine
 10
17.380809784953
 20
13.792253202726
 30
0.0
 11
16.274860058953
 21
13.830873752526
 31
0.0
1001
ACAD
1000
TCW40_DEV_WIDTH
1002
{
1040
-3.0
1002
}
  0
LINE
  5
462
100
AcDbEntity
  8
0
  6
Continuous
 62
           7
100
AcDbLine
 10
16.826432746942
 20
14.479097406326
 30
0.0
 11
15.760970673069
 21
14.479097406326
 31
0.0
1001
ACAD
1000
TCW40_DEV_WIDTH
1002
{
1040
-3.0
1002
}
  0
ELLIPSE
  5
463
100
AcDbEntity
  8
0
  6
Continuous
 62
           7
100
AcDbEllipse
 10
16.826112367148
 20
14.676336768798
 30
0.0
 11
0.1973134875297546
 21
0.0
 31
0.0
210
0.0
220
0.0
230
1.0
 40
0.999610617662
 41
-1.5707963267948966
 42
0.0
1001
ACAD
1000
TCW40_DEV_WIDTH
1002
{
1040
-3.0
1002
}
  0
ARC
  5
464
100
AcDbEntity
  8
0
  6
Continuous
 62
           7
100
AcDbCircle
 10
15.959660058953
 20
14.170694221526
 30
0.0
 40
0.196999996901
100
AcDbArc
 50
179.999991348578
 51
247.999992329857
1001
ACAD
1000
TCW40_DEV_WIDTH
1002
{
1040
-3.0
1002
}
  0
LINE
  5
465
100
AcDbEntity
  8
0
  6
Continuous
 62
           7
100
AcDbLine
 10
16.274860058953
 20
13.830874028326
 30
0.0
 11
15.885861888953
 21
13.988039209926
 31
0.0
1001
ACAD
1000
TCW40_DEV_WIDTH
1002
{
1040
-3.0
1002
}
  0
LINE
  5
466
100
AcDbEntity
  8
0
  6
Continuous
 62
           7
100
AcDbLine
 10
17.456860058953
 20
13.001597406326
 30
0.0
 11
17.515960058953
 21
13.001597406326
 31
0.0
1001
ACAD
1000
TCW40_DEV_WIDTH
1002
{
1040
-3.0
1002
}
  0
LINE
  5
467
100
AcDbEntity
  8
0
  6
Continuous
 62
           7
100
AcDbLine
 10
17.515960058953
 20
13.001597524526
 30
0.0
 11
17.614460058953
 21
12.965746243126
 31
0.0
1001
ACAD
1000
TCW40_DEV_WIDTH
1002
{
1040
-3.0
1002
}
  0
LINE
  5
468
100
AcDbEntity
  8
0
  6
Continuous
 62
           7
100
AcDbLine
 10
17.456860058953
 20
12.016597406326
 30
0.0
 11
17.515960058953
 21
12.016597406326
 31
0.0
1001
ACAD
1000
TCW40_DEV_WIDTH
1002
{
1040
-3.0
1002
}
  0
LINE
  5
469
100
AcDbEntity
  8
0
  6
Continuous
 62
           7
100
AcDbLine
 10
17.515960058953
 20
12.016597288126
 30
0.0
 11
17.614460058953
 21
12.052448569526
 31
0.0
1001
ACAD
1000
TCW40_DEV_WIDTH
1002
{
1040
-3.0
1002
}
  0
LINE
  5
46A
100
AcDbEntity
  8
0
  6
Continuous
 62
           7
100
AcDbLine
 10
17.515960058953
 20
13.001597406326
 30
0.0
 11
17.515960058953
 21
12.016597406326
 31
0.0
1001
ACAD
1000
TCW40_DEV_WIDTH
1002
{
1040
-3.0
1002
}
  0
LINE
  5
46B
100
AcDbEntity
  8
0
  6
Continuous
 62
           7
100
AcDbLine
 10
17.614460058953
 20
12.965746361326
 30
0.0
 11
17.614460058953
 21
12.052448451326
 31
0.0
1001
ACAD
1000
TCW40_DEV_WIDTH
1002
{
1040
-3.0
1002
}
  0
LINE
  5
46C
100
AcDbEntity
  8
0
  6
Continuous
 62
           7
100
AcDbLine
 10
17.614460058953
 20
12.133812422086
 30
0.0
 11
18.804340452953
 21
12.133812422086
 31
0.0
1001
ACAD
1000
TCW40_DEV_WIDTH
1002
{
1040
-3.0
1002
}
  0
LINE
  5
46D
100
AcDbEntity
  8
0
  6
Continuous
 62
           7
100
AcDbLine
 10
17.614460058953
 20
12.884382390566
 30
0.0
 11
18.804340452953
 21
12.884382390566
 31
0.0
1001
ACAD
1000
TCW40_DEV_WIDTH
1002
{
1040
-3.0
1002
}
  0
ARC
  5
46E
100
AcDbEntity
  8
0
  6
Continuous
 62
           7
100
AcDbCircle
 10
17.378060058953
 20
11.304693660126
 30
0.0
 40
0.07880000025
100
AcDbArc
 50
-88.000000172095
 51
0.0
1001
ACAD
1000
TCW40_DEV_WIDTH
1002
{
1040
-3.0
1002
}
  0
LINE
  5
46F
100
AcDbEntity
  8
0
  6
Continuous
 62
           7
100
AcDbLine
 10
17.380809784953
 20
11.225941609926
 30
0.0
 11
16.274860058953
 21
11.187321060126
 31
0.0
1001
ACAD
1000
TCW40_DEV_WIDTH
1002
{
1040
-3.0
1002
}
  0
ARC
  5
470
100
AcDbEntity
  8
0
  6
Continuous
 62
           7
100
AcDbCircle
 10
15.959660058953
 20
10.847500591126
 30
0.0
 40
0.196999996901
100
AcDbArc
 50
112.000000839954
 51
180.000008651422
1001
ACAD
1000
TCW40_DEV_WIDTH
1002
{
1040
-3.0
1002
}
  0
LINE
  5
471
100
AcDbEntity
  8
0
  6
Continuous
 62
           7
100
AcDbLine
 10
15.762715315577
 20
10.539097406326
 30
0.0
 11
16.826925557116
 21
10.539097406326
 31
0.0
1001
ACAD
1000
TCW40_DEV_WIDTH
1002
{
1040
-3.0
1002
}
  0
ELLIPSE
  5
472
100
AcDbEntity
  8
0
  6
Continuous
 62
           7
100
AcDbEllipse
 10
16.825963048582
 20
10.341752691129
 30
0.0
 11
0.1974783390760422
 21
0.0
 31
0.0
210
0.0
220
0.0
230
1.0
 40
0.999320658889
 41
0.0
 42
1.5707963705062897
1001
ACAD
1000
TCW40_DEV_WIDTH
1002
{
1040
-3.0
1002
}
  0
LINE
  5
473
100
AcDbEntity
  8
0
  6
Continuous
 62
           7
100
AcDbLine
 10
16.274860058953
 20
11.187320784326
 30
0.0
 11
15.885861888953
 21
11.030155602726
 31
0.0
1001
ACAD
1000
TCW40_DEV_WIDTH
1002
{
1040
-3.0
1002
}
  0
LINE
  5
474
100
AcDbEntity
  8
0
  6
Continuous
 62
           7
100
AcDbLine
 10
15.368660058953
 20
9.652597406326
 30
0.0
 11
15.762660058953
 21
9.652597406326
 31
0.0
1001
ACAD
1000
TCW40_DEV_WIDTH
1002
{
1040
-3.0
1002
}
  0
LINE
  5
475
100
AcDbEntity
  8
0
  6
Continuous
 62
           7
100
AcDbLine
 10
15.762660058953
 20
15.365597406326
 30
0.0
 11
15.762660058953
 21
9.652597406326
 31
0.0
1001
ACAD
1000
TCW40_DEV_WIDTH
1002
{
1040
-3.0
1002
}
  0
LINE
  5
476
100
AcDbEntity
  8
0
  6
Continuous
 62
           7
100
AcDbLine
 10
17.456860058953
 20
13.713501152526
 30
0.0
 11
17.456860058953
 21
11.304693660126
 31
0.0
1001
ACAD
1000
TCW40_DEV_WIDTH
1002
{
1040
-3.0
1002
}
  0
LINE
  5
477
100
AcDbEntity
  8
0
  6
Continuous
 62
           7
100
AcDbLine
 10
16.274860058953
 20
13.789597406326
 30
0.0
 11
16.274860058953
 21
11.228597406326
 31
0.0
1001
ACAD
1000
TCW40_DEV_WIDTH
1002
{
1040
-3.0
1002
}
  0
LINE
  5
478
100
AcDbEntity
  8
0
  6
CENTER
 62
           7
100
AcDbLine
 10
15.57711417223
 20
-0.50045953399
 30
0.0
 11
18.643617509749
 21
-0.50045953399
 31
0.0
1001
ACAD
1000
TCW40_DEV_WIDTH
1002
{
1040
-3.0
1002
}
  0
LINE
  5
479
100
AcDbEntity
  8
0
  6
Continuous
 62
           7
100
AcDbLine
 10
17.819366103631
 20
-0.043270207989
 30
0.0
 11
17.819366103631
 21
-0.12517492799
 31
0.0
1001
ACAD
1000
TCW40_DEV_WIDTH
1002
{
1040
-3.0
1002
}
  0
LINE
  5
47A
100
AcDbEntity
  8
0
  6
Continuous
 62
           7
100
AcDbLine
 10
17.819366103631
 20
-0.043270207989
 30
0.0
 11
18.804366103631
 21
-0.043270207989
 31
0.0
1001
ACAD
1000
TCW40_DEV_WIDTH
1002
{
1040
-3.0
1002
}
  0
LINE
  5
47B
100
AcDbEntity
  8
0
  6
Continuous
 62
           7
100
AcDbLine
 10
15.368685709631
 20
2.35604046601
 30
0.0
 11
15.762685709631
 21
2.35604046601
 31
0.0
1001
ACAD
1000
TCW40_DEV_WIDTH
1002
{
1040
-3.0
1002
}
  0
ARC
  5
47C
100
AcDbEntity
  8
0
  6
Continuous
 62
           7
100
AcDbCircle
 10
17.378085709631
 20
0.703944882011
 30
0.0
 40
0.07880000025
100
AcDbArc
 50
0.0
 51
88.000000172095
1001
ACAD
1000
TCW40_DEV_WIDTH
1002
{
1040
-3.0
1002
}
  0
LINE
  5
47D
100
AcDbEntity
  8
0
  6
Continuous
 62
           7
100
AcDbLine
 10
17.380835435631
 20
0.782696420011
 30
0.0
 11
16.274885709631
 21
0.821317482011
 31
0.0
1001
ACAD
1000
TCW40_DEV_WIDTH
1002
{
1040
-3.0
1002
}
  0
LINE
  5
47E
100
AcDbEntity
  8
0
  6
Continuous
 62
           7
100
AcDbLine
 10
17.456885709631
 20
-0.007959533989
 30
0.0
 11
17.515985709631
 21
-0.007959533989
 31
0.0
1001
ACAD
1000
TCW40_DEV_WIDTH
1002
{
1040
-3.0
1002
}
  0
LINE
  5
47F
100
AcDbEntity
  8
0
  6
Continuous
 62
           7
100
AcDbLine
 10
17.515985709631
 20
-0.007959533989
 30
0.0
 11
17.614486891631
 21
-0.043811169989
 31
0.0
1001
ACAD
1000
TCW40_DEV_WIDTH
1002
{
1040
-3.0
1002
}
  0
ARC
  5
480
100
AcDbEntity
  8
0
  6
Continuous
 62
           7
100
AcDbCircle
 10
15.959685709631
 20
1.161137754011
 30
0.0
 40
0.196999996901
100
AcDbArc
 50
179.999991348578
 51
247.999992329857
1001
ACAD
1000
TCW40_DEV_WIDTH
1002
{
1040
-3.0
1002
}
  0
LINE
  5
481
100
AcDbEntity
  8
0
  6
Continuous
 62
           7
100
AcDbLine
 10
16.274885709631
 20
0.821317482011
 30
0.0
 11
15.885888721631
 21
0.978482112011
 31
0.0
1001
ACAD
1000
TCW40_DEV_WIDTH
1002
{
1040
-3.0
1002
}
  0
LINE
  5
482
100
AcDbEntity
  8
0
  6
Continuous
 62
           7
100
AcDbLine
 10
17.614485709631
 20
-0.12517492799
 30
0.0
 11
18.804366103631
 21
-0.12517492799
 31
0.0
1001
ACAD
1000
TCW40_DEV_WIDTH
1002
{
1040
-3.0
1002
}
  0
LINE
  5
483
100
AcDbEntity
  8
0
  6
Continuous
 62
           7
100
AcDbLine
 10
17.456885709631
 20
-0.992959533989
 30
0.0
 11
17.515985709631
 21
-0.992959533989
 31
0.0
1001
ACAD
1000
TCW40_DEV_WIDTH
1002
{
1040
-3.0
1002
}
  0
LINE
  5
484
100
AcDbEntity
  8
0
  6
Continuous
 62
           7
100
AcDbLine
 10
17.515985709631
 20
-0.992959533989
 30
0.0
 11
17.614485709631
 21
-0.95710789799
 31
0.0
1001
ACAD
1000
TCW40_DEV_WIDTH
1002
{
1040
-3.0
1002
}
  0
ARC
  5
485
100
AcDbEntity
  8
0
  6
Continuous
 62
           7
100
AcDbCircle
 10
17.378085709631
 20
-1.704863555989
 30
0.0
 40
0.07880000025
100
AcDbArc
 50
-88.000000172095
 51
0.0
1001
ACAD
1000
TCW40_DEV_WIDTH
1002
{
1040
-3.0
1002
}
  0
LINE
  5
486
100
AcDbEntity
  8
0
  6
Continuous
 62
           7
100
AcDbLine
 10
17.380835435631
 20
-1.78361430599
 30
0.0
 11
16.274885709631
 21
-1.822235367989
 31
0.0
1001
ACAD
1000
TCW40_DEV_WIDTH
1002
{
1040
-3.0
1002
}
  0
ARC
  5
487
100
AcDbEntity
  8
0
  6
Continuous
 62
           7
100
AcDbCircle
 10
15.959685709631
 20
-2.162056427989
 30
0.0
 40
0.196999996901
100
AcDbArc
 50
112.000000839954
 51
180.000008651422
1001
ACAD
1000
TCW40_DEV_WIDTH
1002
{
1040
-3.0
1002
}
  0
LINE
  5
488
100
AcDbEntity
  8
0
  6
Continuous
 62
           7
100
AcDbLine
 10
16.274885709631
 20
-1.822236549989
 30
0.0
 11
15.885887539631
 21
-1.979401179989
 31
0.0
1001
ACAD
1000
TCW40_DEV_WIDTH
1002
{
1040
-3.0
1002
}
  0
LINE
  5
489
100
AcDbEntity
  8
0
  6
Continuous
 62
           7
100
AcDbLine
 10
15.368685709631
 20
-3.35695953399
 30
0.0
 11
15.762685709631
 21
-3.35695953399
 31
0.0
1001
ACAD
1000
TCW40_DEV_WIDTH
1002
{
1040
-3.0
1002
}
  0
LINE
  5
48A
100
AcDbEntity
  8
0
  6
Continuous
 62
           7
100
AcDbLine
 10
17.614485709631
 20
-0.875744139989
 30
0.0
 11
18.804366103631
 21
-0.875744139989
 31
0.0
1001
ACAD
1000
TCW40_DEV_WIDTH
1002
{
1040
-3.0
1002
}
  0
LINE
  5
48B
100
AcDbEntity
  8
0
  6
Continuous
 62
           7
100
AcDbLine
 10
17.614485709631
 20
-0.043809987989
 30
0.0
 11
17.614485709631
 21
-0.957109079989
 31
0.0
1001
ACAD
1000
TCW40_DEV_WIDTH
1002
{
1040
-3.0
1002
}
  0
LINE
  5
48C
100
AcDbEntity
  8
0
  6
Continuous
 62
           7
100
AcDbLine
 10
18.804366103631
 20
-0.043270207989
 30
0.0
 11
18.804366103631
 21
-0.875744139989
 31
0.0
1001
ACAD
1000
TCW40_DEV_WIDTH
1002
{
1040
-3.0
1002
}
  0
LINE
  5
48D
100
AcDbEntity
  8
0
  6
Continuous
 62
           7
100
AcDbLine
 10
16.274885709631
 20
0.780040466011
 30
0.0
 11
16.274885709631
 21
-1.78095953399
 31
0.0
1001
ACAD
1000
TCW40_DEV_WIDTH
1002
{
1040
-3.0
1002
}
  0
LINE
  5
48E
100
AcDbEntity
  8
0
  6
Continuous
 62
           7
100
AcDbLine
 10
17.456885709631
 20
0.703944882011
 30
0.0
 11
17.456885709631
 21
-1.704863555989
 31
0.0
1001
ACAD
1000
TCW40_DEV_WIDTH
1002
{
1040
-3.0
1002
}
  0
LINE
  5
48F
100
AcDbEntity
  8
0
  6
Continuous
 62
           7
100
AcDbLine
 10
15.762685709631
 20
2.35604046601
 30
0.0
 11
15.762685709631
 21
-3.35695953399
 31
0.0
1001
ACAD
1000
TCW40_DEV_WIDTH
1002
{
1040
-3.0
1002
}
  0
LINE
  5
490
100
AcDbEntity
  8
0
  6
Continuous
 62
           7
100
AcDbLine
 10
17.515985709631
 20
-0.007959533989
 30
0.0
 11
17.515985709631
 21
-0.992959533989
 31
0.0
1001
ACAD
1000
TCW40_DEV_WIDTH
1002
{
1040
-3.0
1002
}
  0
LINE
  5
491
100
AcDbEntity
  8
0
  6
ByBlock
 62
           7
100
AcDbLine
 10
-13.908571474042
 20
-8.578204600245
 30
0.0
 11
-10.182535733795
 21
-8.578204600245
 31
0.0
1001
ACAD
1000
TCW40_DEV_WIDTH
1002
{
1040
-3.0
1002
}
  0
LINE
  5
492
100
AcDbEntity
  8
DEFPOINTS-0
  6
Continuous
 62
           7
100
AcDbLine
 10
-5.746676511577
 20
11.586750160993
 30
0.5
 11
-5.746676511577
 21
8.799620293255
 31
0.5
1001
ACAD
1000
TCW40_DEV_WIDTH
1002
{
1040
-3.0
1002
}
  0
LINE
  5
493
100
AcDbEntity
  8
0
  6
Continuous
 62
           7
100
AcDbLine
 10
-4.542203101096
 20
10.133316519002
 30
0.5
 11
-7.01800691365
 21
10.133316519002
 31
0.5
1001
ACAD
1000
TCW40_DEV_WIDTH
1002
{
1040
-3.0
1002
}
  0
LINE
  5
494
100
AcDbEntity
  8
0
  6
Continuous
 62
           7
100
AcDbLine
 10
-5.526363470737
 20
11.207341745476
 30
0.5
 11
-5.526363470737
 21
10.766717692705
 31
0.5
1001
ACAD
1000
TCW40_DEV_WIDTH
1002
{
1040
-3.0
1002
}
  0
LINE
  5
495
100
AcDbEntity
  8
0
  6
Continuous
 62
           7
100
AcDbLine
 10
-5.966988751628
 20
11.207341745476
 30
0.5
 11
-5.966988751628
 21
10.766717692705
 31
0.5
1001
ACAD
1000
TCW40_DEV_WIDTH
1002
{
1040
-3.0
1002
}
  0
LINE
  5
496
100
AcDbEntity
  8
0
  6
Continuous
 62
           7
100
AcDbLine
 10
-5.526363470737
 20
10.766717692705
 30
0.5
 11
-5.966988751628
 21
10.766717692705
 31
0.5
1001
ACAD
1000
TCW40_DEV_WIDTH
1002
{
1040
-3.0
1002
}
  0
LINE
  5
497
100
AcDbEntity
  8
0
  6
Continuous
 62
           7
100
AcDbLine
 10
-5.526363470737
 20
11.207341745476
 30
0.5
 11
-5.966988751628
 21
11.207341745476
 31
0.5
1001
ACAD
1000
TCW40_DEV_WIDTH
1002
{
1040
-3.0
1002
}
  0
ARC
  5
498
100
AcDbEntity
  8
0
370
           0
  6
Continuous
 62
           7
100
AcDbCircle
 10
-5.746675757048
 20
10.133316176813
 30
-0.5
 40
0.881250023842
100
AcDbArc
 50
104.477619808885
 51
437.006448702932
  0
LINE
  5
499
100
AcDbEntity
  8
0
370
           0
  6
Continuous
 62
           7
100
AcDbLine
 10
-5.52636457175
 20
11.004901884724
 30
-0.5
 11
-5.52636457175
 21
10.968263144188
 31
-0.5
  0
TEXT
  5
49A
100
AcDbEntity
  8
0
  6
Continuous
 62
           7
100
AcDbText
 10
-5.253409411452
 20
12.899291856692
 30
0.0
 40
0.500005143689
  1
Key 3/16x3/16x0.98
100
AcDbText
1001
TCAD
1000
TCW40_TEXT
1002
{
1000
romand.shx
1070
           0
1070
        1025
1002
}
  0
LEADER
  5
49B
100
AcDbEntity
  8
0
  6
Continuous
 62
           7
100
AcDbLeader
  3
STANDARD
 73
           3
 74
           0
 75
           0
 40
0.0
 76
           2
 10
-5.748612132483
 20
11.207938148724
 30
0.0
 10
-5.318195206051
 20
12.688113775239
 30
0.0
 77
           7
211
0.0001
221
0.0
231
0.0
1001
ACAD
1000
DSTYLE
1002
{
1002
}
  0
LINE
  5
49C
100
AcDbEntity
  8
0
  6
Continuous
 62
           7
100
AcDbLine
 10
-5.322717600489
 20
12.687968779961
 30
0.0
 11
2.96686362219
 21
12.687968779961
 31
0.0
1001
ACAD
1000
TCW40_DEV_WIDTH
1002
{
1040
-3.0
1002
}
  0
TEXT
  5
49D
100
AcDbEntity
  8
0
  6
Continuous
 62
           7
100
AcDbText
 10
-20.19399432972
 20
14.921153545114
 30
0.0
 40
0.664876187232
  1
OUTPUT  SHAFT
100
AcDbText
1001
TCAD
1000
TCW40_TEXT
1002
{
1000
romand.shx
1070
           0
1070
        1025
1002
}
  0
LINE
  5
49E
100
AcDbEntity
  8
0
  6
Continuous
 62
           7
100
AcDbLine
 10
-20.362030994845
 20
14.626973839995
 30
0.0
 11
-11.837969005155
 21
14.626973839995
 31
0.0
1001
ACAD
1000
TCW40_DEV_WIDTH
1002
{
1040
-3.0
1002
}
  0
POINT
  5
49F
100
AcDbEntity
  8
0
  6
Continuous
 62
           7
100
AcDbPoint
 10
-19.5541643778
 20
9.804917886428
 30
-0.0
1001
TCAD
1000
TC25ExternalObject
1002
{
1000
TCW30POINT
1000

1070
           0
1071
        0
1040
1.0
1040
0.0
1000
Continuous
1000
0
1071
        1
1071
      242
1010
-19.5541643778
1020
9.804917886428
1030
-0.0
1070
           3
1071
-2147483645
1070
           0
1000
$POINTSIZE
1070
           5
1040
1.933340808218
1000
$POINTTYPE
1070
          18
1070
           5
1000
ExplodeScale
1070
           5
1040
1.0
1002
}
  0
ARC
  5
4A0
100
AcDbEntity
  8
0
100
AcDbCircle
 10
-19.554164810477
 20
9.804915999532
 30
0.0
 40
1.258124947548
100
AcDbArc
 50
103.115167824197
 51
436.88483718476
1001
ACAD
1000
TCW40_DEV_WIDTH
1002
{
1040
-3.0
1002
}
  0
LINE
  5
4A1
100
AcDbEntity
  8
0
  6
CENTER
 62
           7
100
AcDbLine
 10
-19.839644810477
 20
11.348520999532
 30
0.0
 11
-19.268684810477
 21
11.348520999532
 31
0.0
1001
ACAD
1000
TCW40_DEV_WIDTH
1002
{
1040
-3.0
1002
}
  0
LINE
  5
4A2
100
AcDbEntity
  8
0
  6
CENTER
 62
           7
100
AcDbLine
 10
-19.839644810477
 20
10.775730999532
 30
0.0
 11
-19.268684810477
 21
10.775730999532
 31
0.0
1001
ACAD
1000
TCW40_DEV_WIDTH
1002
{
1040
-3.0
1002
}
  0
LINE
  5
4A3
100
AcDbEntity
  8
0
  6
CENTER
 62
           7
100
AcDbLine
 10
-19.839644810477
 20
11.348520999532
 30
0.0
 11
-19.839644810477
 21
10.775730999532
 31
0.0
1001
ACAD
1000
TCW40_DEV_WIDTH
1002
{
1040
-3.0
1002
}
  0
LINE
  5
4A4
100
AcDbEntity
  8
0
  6
CENTER
 62
           7
100
AcDbLine
 10
-19.268684810477
 20
11.348520999532
 30
0.0
 11
-19.268684810477
 21
10.775730999532
 31
0.0
1001
ACAD
1000
TCW40_DEV_WIDTH
1002
{
1040
-3.0
1002
}
  0
LINE
  5
4A5
100
AcDbEntity
  8
0
  6
Continuous
 62
           7
100
AcDbLine
 10
-17.916956402192
 20
9.804915999532
 30
0.0
 11
-21.170951916691
 21
9.804915999532
 31
0.0
1001
ACAD
1000
TCW40_DEV_WIDTH
1002
{
1040
-3.0
1002
}
  0
LINE
  5
4A6
100
AcDbEntity
  8
0
  6
Continuous
 62
           7
100
AcDbLine
 10
-19.554164810477
 20
11.722361694085
 30
0.0
 11
-19.554164810477
 21
8.249072081347
 31
0.0
1001
ACAD
1000
TCW40_DEV_WIDTH
1002
{
1040
-3.0
1002
}
  0
TEXT
  5
4A7
100
AcDbEntity
  8
0
  6
Continuous
 62
           7
100
AcDbText
 10
-19.144364295868
 20
13.08702493616
 30
0.0
 40
0.500005143689
  1
Key 5/16x5/16x1.77
100
AcDbText
1001
TCAD
1000
TCW40_TEXT
1002
{
1000
romand.shx
1070
           0
1070
        1025
1002
}
  0
LEADER
  5
4A8
100
AcDbEntity
  8
0
  6
Continuous
 62
           7
100
AcDbLeader
  3
STANDARD
 73
           3
 74
           0
 75
           0
 40
0.0
 76
           2
 10
-19.554668764549
 20
11.351587139919
 30
0.0
 10
-19.124251838117
 20
12.831762766434
 30
0.0
 77
           7
211
0.0001
221
0.0
231
0.0
1001
ACAD
1000
DSTYLE
1002
{
1002
}
  0
LINE
  5
4A9
100
AcDbEntity
  8
0
  6
Continuous
 62
           7
100
AcDbLine
 10
-19.128774232555
 20
12.831617771156
 30
0.0
 11
-10.839193009876
 21
12.831617771156
 31
0.0
1001
ACAD
1000
TCW40_DEV_WIDTH
1002
{
1040
-3.0
1002
}
  0
LINE
  5
4AA
100
AcDbEntity
  8
0
100
AcDbLine
 10
-26.128066499519
 20
-10.609173397582
 30
0.0
 11
26.128129454207
 21
-10.609173397582
 31
0.0
1001
ACAD
1000
TCW40_DEV_WIDTH
1002
{
1040
-3.0
1002
}
  0
LINE
  5
4AB
100
AcDbEntity
  8
0
100
AcDbLine
 10
10.546247835704
 20
-16.693715113707
 30
0.0
 11
26.128129576145
 21
-16.693715113707
 31
0.0
1001
ACAD
1000
TCW40_DEV_WIDTH
1002
{
1040
-3.0
1002
}
  0
LINE
  5
4AC
100
AcDbEntity
  8
0
100
AcDbLine
 10
-16.429669121142
 20
-13.872023625758
 30
0.0
 11
1.940677299577
 21
-13.872023625758
 31
0.0
1001
ACAD
1000
TCW40_DEV_WIDTH
1002
{
1040
-3.0
1002
}
  0
LINE
  5
4AD
100
AcDbEntity
  8
0
100
AcDbLine
 10
10.546247823425
 20
-10.609173455898
 30
0.0
 11
10.546247823425
 21
-19.262684039225
 31
0.0
1001
ACAD
1000
TCW40_DEV_WIDTH
1002
{
1040
-3.0
1002
}
  0
LINE
  5
4AE
100
AcDbEntity
  8
0
100
AcDbLine
 10
22.14744047111
 20
-16.693715113707
 30
0.0
 11
22.14744047111
 21
-19.283408081438
 31
0.0
1001
ACAD
1000
TCW40_DEV_WIDTH
1002
{
1040
-3.0
1002
}
  0
LINE
  5
4AF
100
AcDbEntity
  8
0
100
AcDbLine
 10
10.546247823425
 20
-13.649205273085
 30
0.0
 11
26.128129454207
 21
-13.649205273085
 31
0.0
1001
ACAD
1000
TCW40_DEV_WIDTH
1002
{
1040
-3.0
1002
}
  0
LINE
  5
4B0
100
AcDbEntity
  8
0
100
AcDbLine
 10
-16.429669121142
 20
-10.609173397582
 30
0.0
 11
-16.429669121142
 21
-19.24101433223
 31
0.0
1001
ACAD
1000
TCW40_DEV_WIDTH
1002
{
1040
-3.0
1002
}
  0
LINE
  5
4B1
100
AcDbEntity
  8
0
100
AcDbLine
 10
-16.429669121142
 20
-16.450559686895
 30
0.0
 11
1.940677299577
 21
-16.450559686895
 31
0.0
1001
ACAD
1000
TCW40_DEV_WIDTH
1002
{
1040
-3.0
1002
}
  0
LINE
  5
4B2
100
AcDbEntity
  8
0
100
AcDbLine
 10
-10.162637895112
 20
-10.609173397582
 30
0.0
 11
-10.162637895112
 21
-19.283408081438
 31
0.0
1001
ACAD
1000
TCW40_DEV_WIDTH
1002
{
1040
-3.0
1002
}
  0
TEXT
  5
4B4
100
AcDbEntity
  8
0
  6
Continuous
100
AcDbText
 10
22.339551019053
 20
-17.190867522992
 30
0.0
 40
0.249549984932
  1
REV. MARK
  7
_TCW_TXTSTY_3
100
AcDbText
1001
TCAD
1000
TCW40_TEXT
1002
{
1000
Times New Roman
1070
           0
1070
        1025
1002
}
  0
TEXT
  5
4B5
100
AcDbEntity
  8
0
  6
Continuous
100
AcDbText
 10
10.884193211086
 20
-14.178260188954
 30
0.0
 40
0.249549984932
  1
MODEL
  7
_TCW_TXTSTY_3
100
AcDbText
1001
TCAD
1000
TCW40_TEXT
1002
{
1000
Times New Roman
1070
           0
1070
        1025
1002
}
  0
TEXT
  5
4B6
100
AcDbEntity
  8
0
  6
Continuous
100
AcDbText
 10
10.867898416901
 20
-11.026608397562
 30
0.0
 40
0.249549984932
  1
TITLE
  7
_TCW_TXTSTY_3
100
AcDbText
1001
TCAD
1000
TCW40_TEXT
1002
{
1000
Times New Roman
1070
           0
1070
        1025
1002
}
  0
TEXT
  5
4B7
100
AcDbEntity
  8
PV-0
  6
Continuous
100
AcDbText
 10
13.237177720741
 20
-16.301624333749
 30
0.0
 40
0.886363636364
  1
Circulute Series II
  7
_TCW_TXTSTY_3
100
AcDbText
1001
TCAD
1000
TCW40_TEXT
1002
{
1000
Times New Roman
1070
           0
1070
        1025
1002
}
  0
LWPOLYLINE
  5
4B8
100
AcDbEntity
  8
0
100
AcDbPolyline
 90
        4
 70
           1
 43
0.10000000149
 10
-26.128066499519
 20
19.283408081438
 10
26.128066499519
 20
19.283408081438
 10
26.128066499519
 20
-19.283408081438
 10
-26.128066499519
 20
-19.283408081438
  0
LWPOLYLINE
  5
4B9
100
AcDbEntity
  8
0
 62
           1
100
AcDbPolyline
 90
       14
 70
           0
 10
22.565876922834
 20
-11.233927659424
 10
21.883031495546
 20
-11.233927659424
 10
21.883031495546
 20
-11.960827630409
 10
22.565876922834
 20
-11.960827630409
 10
22.565876922834
 20
-11.806636727473
 10
22.103304214026
 20
-11.806636727473
 10
22.103304214026
 20
-11.674473096385
 10
22.565876922834
 20
-11.674473096385
 10
22.565876922834
 20
-11.520282193449
 10
22.103304214026
 20
-11.520282193449
 10
22.103304214026
 20
-11.38811856236
 10
22.565876922834
 20
-11.38811856236
 10
22.565876922834
 20
-11.233927659424
 10
22.565876922834
 20
-11.233927659424
1001
ACAD
1000
TCW40_DEV_WIDTH
1002
{
1040
-3.0
1002
}
  0
LWPOLYLINE
  5
4BA
100
AcDbEntity
  8
0
 62
           1
100
AcDbPolyline
 90
      117
 70
           0
 10
23.62318597154
 20
-11.784609455625
 10
23.62318597154
 20
-11.806636727473
 10
23.601158699692
 20
-11.806636727473
 10
23.601158699692
 20
-11.850691271169
 10
23.579131427844
 20
-11.850691271169
 10
23.579131427844
 20
-11.872718543017
 10
23.557104155996
 20
-11.872718543017
 10
23.557104155996
 20
-11.894745814865
 10
23.5130496123
 20
-11.894745814865
 10
23.5130496123
 20
-11.916773086713
 10
23.468995068604
 20
-11.916773086713
 10
23.446967796756
 20
-11.938800358561
 10
23.358858709364
 20
-11.938800358561
 10
23.358858709364
 20
-11.960827630409
 10
22.984395087947
 20
-11.960827630409
 10
22.962367816099
 20
-11.938800358561
 10
22.852231456859
 20
-11.938800358561
 10
22.830204185011
 20
-11.916773086713
 10
22.764122369467
 20
-11.916773086713
 10
22.764122369467
 20
-11.894745814865
 10
22.720067825771
 20
-11.894745814865
 10
22.720067825771
 20
-11.872718543017
 10
22.698040553923
 20
-11.872718543017
 10
22.742095097619
 20
-11.718527640081
 10
22.764122369467
 20
-11.718527640081
 10
22.764122369467
 20
-11.740554911929
 10
22.808176913163
 20
-11.740554911929
 10
22.808176913163
 20
-11.762582183777
 10
22.874258728707
 20
-11.762582183777
 10
22.874258728707
 20
-11.784609455625
 10
22.962367816099
 20
-11.784609455625
 10
22.962367816099
 20
-11.806636727473
 10
23.072504175339
 20
-11.806636727473
 10
23.072504175339
 20
-11.828663999321
 10
23.358858709364
 20
-11.828663999321
 10
23.358858709364
 20
-11.806636727473
 10
23.380885981211
 20
-11.806636727473
 10
23.380885981211
 20
-11.762582183777
 10
23.358858709364
 20
-11.762582183777
 10
23.358858709364
 20
-11.740554911929
 10
23.314804165668
 20
-11.740554911929
 10
23.292776893819
 20
-11.718527640081
 10
23.248722350123
 20
-11.718527640081
 10
23.226695078275
 20
-11.696500368233
 10
23.006422359795
 20
-11.696500368233
 10
23.006422359795
 20
-11.674473096385
 10
22.896286000555
 20
-11.674473096385
 10
22.896286000555
 20
-11.652445824537
 10
22.830204185011
 20
-11.652445824537
 10
22.808176913163
 20
-11.630418552689
 10
22.764122369467
 20
-11.630418552689
 10
22.764122369467
 20
-11.608391280841
 10
22.742095097619
 20
-11.608391280841
 10
22.676013282075
 20
-11.542309465297
 10
22.676013282075
 20
-11.520282193449
 10
22.653986010227
 20
-11.498254921601
 10
22.653986010227
 20
-11.410145834209
 10
22.676013282075
 20
-11.38811856236
 10
22.676013282075
 20
-11.366091290513
 10
22.698040553923
 20
-11.344064018664
 10
22.698040553923
 20
-11.322036746816
 10
22.720067825771
 20
-11.322036746816
 10
22.742095097619
 20
-11.300009474968
 10
22.764122369467
 20
-11.300009474968
 10
22.764122369467
 20
-11.27798220312
 10
22.808176913163
 20
-11.27798220312
 10
22.808176913163
 20
-11.255954931272
 10
22.896286000555
 20
-11.255954931272
 10
22.918313272403
 20
-11.233927659424
 10
23.270749621971
 20
-11.233927659424
 10
23.292776893819
 20
-11.255954931272
 10
23.40291325306
 20
-11.255954931272
 10
23.424940524908
 20
-11.27798220312
 10
23.491022340452
 20
-11.27798220312
 10
23.491022340452
 20
-11.300009474968
 10
23.557104155996
 20
-11.300009474968
 10
23.557104155996
 20
-11.322036746816
 10
23.579131427844
 20
-11.322036746816
 10
23.535076884148
 20
-11.498254921601
 10
23.5130496123
 20
-11.498254921601
 10
23.491022340452
 20
-11.476227649753
 10
23.446967796756
 20
-11.476227649753
 10
23.446967796756
 20
-11.454200377905
 10
23.380885981211
 20
-11.454200377905
 10
23.380885981211
 20
-11.432173106057
 10
23.314804165668
 20
-11.432173106057
 10
23.292776893819
 20
-11.410145834209
 10
23.204667806427
 20
-11.410145834209
 10
23.182640534579
 20
-11.38811856236
 10
23.050476903491
 20
-11.38811856236
 10
23.028449631643
 20
-11.366091290513
 10
22.918313272403
 20
-11.366091290513
 10
22.896286000555
 20
-11.38811856236
 10
22.896286000555
 20
-11.410145834209
 10
22.874258728707
 20
-11.410145834209
 10
22.874258728707
 20
-11.454200377905
 10
22.896286000555
 20
-11.454200377905
 10
22.896286000555
 20
-11.476227649753
 10
22.940340544251
 20
-11.476227649753
 10
22.940340544251
 20
-11.498254921601
 10
23.182640534579
 20
-11.498254921601
 10
23.204667806427
 20
-11.520282193449
 10
23.270749621971
 20
-11.520282193449
 10
23.270749621971
 20
-11.542309465297
 10
23.358858709364
 20
-11.542309465297
 10
23.380885981211
 20
-11.564336737145
 10
23.446967796756
 20
-11.564336737145
 10
23.446967796756
 20
-11.586364008993
 10
23.491022340452
 20
-11.586364008993
 10
23.5130496123
 20
-11.608391280841
 10
23.535076884148
 20
-11.608391280841
 10
23.579131427844
 20
-11.652445824537
 10
23.601158699692
 20
-11.652445824537
 10
23.601158699692
 20
-11.696500368233
 10
23.62318597154
 20
-11.696500368233
 10
23.62318597154
 20
-11.784609455625
 10
23.62318597154
 20
-11.784609455625
1001
ACAD
1000
TCW40_DEV_WIDTH
1002
{
1040
-3.0
1002
}
  0
LWPOLYLINE
  5
4BB
100
AcDbEntity
  8
0
 62
           1
100
AcDbPolyline
 90
        9
 70
           0
 10
20.957886077928
 20
-11.233927659424
 10
21.200186068257
 20
-11.233927659424
 10
21.376404243041
 20
-11.652445824537
 10
21.552622417825
 20
-11.233927659424
 10
21.794922408154
 20
-11.233927659424
 10
21.486540602281
 20
-11.960827630409
 10
21.266267883801
 20
-11.960827630409
 10
20.957886077928
 20
-11.233927659424
 10
20.957886077928
 20
-11.233927659424
1001
ACAD
1000
TCW40_DEV_WIDTH
1002
{
1040
-3.0
1002
}
  0
LWPOLYLINE
  5
4BC
100
AcDbEntity
  8
0
 62
           1
100
AcDbPolyline
 90
        5
 70
           0
 10
20.627477000208
 20
-11.233927659424
 10
20.913831534233
 20
-11.233927659424
 10
20.913831534233
 20
-11.982854902257
 10
20.627477000208
 20
-11.982854902257
 10
20.627477000208
 20
-11.233927659424
1001
ACAD
1000
TCW40_DEV_WIDTH
1002
{
1040
-3.0
1002
}
  0
LWPOLYLINE
  5
4BD
100
AcDbEntity
  8
0
 62
           1
100
AcDbPolyline
 90
       74
 70
           0
 10
18.622995262038
 20
-11.27798220312
 10
18.622995262038
 20
-11.938800358561
 10
18.667049805734
 20
-11.938800358561
 10
18.689077077582
 20
-11.960827630409
 10
18.777186164974
 20
-11.960827630409
 10
18.799213436822
 20
-11.982854902257
 10
19.063540698998
 20
-11.982854902257
 10
19.085567970846
 20
-11.960827630409
 10
19.173677058238
 20
-11.960827630409
 10
19.195704330086
 20
-11.938800358561
 10
19.239758873783
 20
-11.938800358561
 10
19.26178614563
 20
-11.916773086713
 10
19.305840689327
 20
-11.916773086713
 10
19.327867961175
 20
-11.894745814865
 10
19.349895233023
 20
-11.894745814865
 10
19.393949776719
 20
-11.850691271169
 10
19.415977048567
 20
-11.850691271169
 10
19.526113407807
 20
-11.740554911929
 10
19.526113407807
 20
-11.718527640081
 10
19.548140679655
 20
-11.696500368233
 10
19.548140679655
 20
-11.674473096385
 10
19.570167951503
 20
-11.652445824537
 10
19.570167951503
 20
-11.564336737145
 10
19.548140679655
 20
-11.542309465297
 10
19.548140679655
 20
-11.520282193449
 10
19.526113407807
 20
-11.498254921601
 10
19.526113407807
 20
-11.476227649753
 10
19.415977048567
 20
-11.366091290513
 10
19.393949776719
 20
-11.366091290513
 10
19.349895233023
 20
-11.322036746816
 10
19.327867961175
 20
-11.322036746816
 10
19.305840689327
 20
-11.300009474968
 10
19.26178614563
 20
-11.300009474968
 10
19.239758873783
 20
-11.27798220312
 10
19.195704330086
 20
-11.27798220312
 10
19.173677058238
 20
-11.255954931272
 10
19.085567970846
 20
-11.255954931272
 10
19.063540698998
 20
-11.233927659424
 10
18.799213436822
 20
-11.233927659424
 10
18.777186164974
 20
-11.255954931272
 10
18.689077077582
 20
-11.255954931272
 10
18.667049805734
 20
-11.27798220312
 10
18.622995262038
 20
-11.27798220312
 10
18.865295252366
 20
-11.410145834209
 10
18.843267980518
 20
-11.410145834209
 10
18.887322524214
 20
-11.410145834209
 10
18.909349796062
 20
-11.38811856236
 10
19.107595242694
 20
-11.38811856236
 10
19.129622514542
 20
-11.410145834209
 10
19.173677058238
 20
-11.410145834209
 10
19.195704330086
 20
-11.432173106057
 10
19.217731601935
 20
-11.432173106057
 10
19.26178614563
 20
-11.476227649753
 10
19.283813417479
 20
-11.476227649753
 10
19.305840689327
 20
-11.498254921601
 10
19.305840689327
 20
-11.520282193449
 10
19.349895233023
 20
-11.564336737145
 10
19.349895233023
 20
-11.652445824537
 10
19.305840689327
 20
-11.696500368233
 10
19.305840689327
 20
-11.718527640081
 10
19.283813417479
 20
-11.740554911929
 10
19.26178614563
 20
-11.740554911929
 10
19.217731601935
 20
-11.784609455625
 10
19.195704330086
 20
-11.784609455625
 10
19.173677058238
 20
-11.806636727473
 10
19.129622514542
 20
-11.806636727473
 10
19.107595242694
 20
-11.828663999321
 10
18.909349796062
 20
-11.828663999321
 10
18.887322524214
 20
-11.806636727473
 10
18.843267980518
 20
-11.806636727473
 10
18.865295252366
 20
-11.784609455625
 10
18.865295252366
 20
-11.432173106057
 10
18.622995262038
 20
-11.27798220312
 10
18.622995262038
 20
-11.27798220312
1001
ACAD
1000
TCW40_DEV_WIDTH
1002
{
1040
-3.0
1002
}
  0
LWPOLYLINE
  5
4BE
100
AcDbEntity
  8
0
 62
           1
100
AcDbPolyline
 90
        6
 70
           0
 10
20.561395184664
 20
-11.960827630409
 10
20.297067922488
 20
-11.960827630409
 10
19.944631572919
 20
-11.696500368233
 10
20.186931563248
 20
-11.696500368233
 10
20.561395184664
 20
-11.960827630409
 10
20.561395184664
 20
-11.960827630409
1001
ACAD
1000
TCW40_DEV_WIDTH
1002
{
1040
-3.0
1002
}
  0
LWPOLYLINE
  5
4BF
100
AcDbEntity
  8
0
 62
           1
100
AcDbPolyline
 90
       60
 70
           0
 10
19.878549757375
 20
-11.740554911929
 10
19.878549757375
 20
-11.960827630409
 10
19.636249767047
 20
-11.960827630409
 10
19.636249767047
 20
-11.27798220312
 10
19.702331582591
 20
-11.27798220312
 10
19.724358854439
 20
-11.255954931272
 10
19.812467941831
 20
-11.255954931272
 10
19.834495213679
 20
-11.233927659424
 10
20.1649042914
 20
-11.233927659424
 10
20.186931563248
 20
-11.255954931272
 10
20.27504065064
 20
-11.255954931272
 10
20.297067922488
 20
-11.27798220312
 10
20.341122466184
 20
-11.27798220312
 10
20.363149738032
 20
-11.300009474968
 10
20.38517700988
 20
-11.300009474968
 10
20.407204281728
 20
-11.322036746816
 10
20.429231553576
 20
-11.322036746816
 10
20.451258825424
 20
-11.344064018664
 10
20.473286097272
 20
-11.344064018664
 10
20.561395184664
 20
-11.432173106057
 10
20.561395184664
 20
-11.454200377905
 10
20.583422456512
 20
-11.498254921601
 10
20.583422456512
 20
-11.476227649753
 10
20.583422456512
 20
-11.564336737145
 10
20.539367912816
 20
-11.608391280841
 10
20.539367912816
 20
-11.630418552689
 10
20.49531336912
 20
-11.674473096385
 10
20.473286097272
 20
-11.674473096385
 10
20.429231553576
 20
-11.718527640081
 10
20.38517700988
 20
-11.718527640081
 10
20.363149738032
 20
-11.740554911929
 10
20.341122466184
 20
-11.740554911929
 10
20.319095194336
 20
-11.762582183777
 10
20.230986106944
 20
-11.762582183777
 10
20.208958835096
 20
-11.784609455625
 10
19.988686116615
 20
-11.784609455625
 10
19.966658844767
 20
-11.762582183777
 10
19.878549757375
 20
-11.762582183777
 10
19.856522485527
 20
-11.740554911929
 10
19.878549757375
 20
-11.564336737145
 10
19.878549757375
 20
-11.432173106057
 10
19.856522485527
 20
-11.432173106057
 10
19.922604301071
 20
-11.410145834209
 10
20.186931563248
 20
-11.410145834209
 10
20.208958835096
 20
-11.432173106057
 10
20.253013378792
 20
-11.432173106057
 10
20.27504065064
 20
-11.454200377905
 10
20.297067922488
 20
-11.454200377905
 10
20.341122466184
 20
-11.498254921601
 10
20.319095194336
 20
-11.542309465297
 10
20.297067922488
 20
-11.564336737145
 10
20.27504065064
 20
-11.564336737145
 10
20.253013378792
 20
-11.586364008993
 10
20.208958835096
 20
-11.586364008993
 10
20.186931563248
 20
-11.608391280841
 10
19.922604301071
 20
-11.608391280841
 10
19.900577029223
 20
-11.586364008993
 10
19.856522485527
 20
-11.586364008993
 10
19.878549757375
 20
-11.740554911929
 10
19.878549757375
 20
-11.740554911929
1001
ACAD
1000
TCW40_DEV_WIDTH
1002
{
1040
-3.0
1002
}
  0
LWPOLYLINE
  5
4C0
100
AcDbEntity
  8
0
 62
           1
100
AcDbPolyline
 90
       59
 70
           0
 10
16.647060618958
 20
-11.740554911929
 10
16.647060618958
 20
-11.960827630409
 10
16.40476062863
 20
-11.960827630409
 10
16.40476062863
 20
-11.27798220312
 10
16.470842444174
 20
-11.27798220312
 10
16.492869716022
 20
-11.255954931272
 10
16.580978803414
 20
-11.255954931272
 10
16.603006075262
 20
-11.233927659424
 10
16.933415152982
 20
-11.233927659424
 10
16.95544242483
 20
-11.255954931272
 10
17.043551512222
 20
-11.255954931272
 10
17.06557878407
 20
-11.27798220312
 10
17.131660599614
 20
-11.27798220312
 10
17.153687871462
 20
-11.300009474968
 10
17.17571514331
 20
-11.300009474968
 10
17.197742415158
 20
-11.322036746816
 10
17.219769687007
 20
-11.322036746816
 10
17.241796958854
 20
-11.344064018664
 10
17.263824230702
 20
-11.344064018664
 10
17.351933318095
 20
-11.432173106057
 10
17.351933318095
 20
-11.454200377905
 10
17.373960589943
 20
-11.498254921601
 10
17.373960589943
 20
-11.476227649753
 10
17.373960589943
 20
-11.564336737145
 10
17.329906046246
 20
-11.608391280841
 10
17.329906046246
 20
-11.630418552689
 10
17.285851502551
 20
-11.674473096385
 10
17.263824230702
 20
-11.674473096385
 10
17.219769687007
 20
-11.718527640081
 10
17.17571514331
 20
-11.718527640081
 10
17.153687871462
 20
-11.740554911929
 10
17.131660599614
 20
-11.740554911929
 10
17.109633327766
 20
-11.762582183777
 10
17.021524240374
 20
-11.762582183777
 10
16.999496968526
 20
-11.784609455625
 10
16.757196978198
 20
-11.784609455625
 10
16.73516970635
 20
-11.762582183777
 10
16.647060618958
 20
-11.762582183777
 10
16.647060618958
 20
-11.432173106057
 10
16.691115162654
 20
-11.432173106057
 10
16.713142434502
 20
-11.410145834209
 10
16.977469696678
 20
-11.410145834209
 10
16.999496968526
 20
-11.432173106057
 10
17.043551512222
 20
-11.432173106057
 10
17.06557878407
 20
-11.454200377905
 10
17.087606055918
 20
-11.454200377905
 10
17.131660599614
 20
-11.498254921601
 10
17.109633327766
 20
-11.542309465297
 10
17.087606055918
 20
-11.564336737145
 10
17.06557878407
 20
-11.564336737145
 10
17.043551512222
 20
-11.586364008993
 10
16.999496968526
 20
-11.586364008993
 10
16.977469696678
 20
-11.608391280841
 10
16.713142434502
 20
-11.608391280841
 10
16.691115162654
 20
-11.586364008993
 10
16.647060618958
 20
-11.586364008993
 10
16.647060618958
 20
-11.564336737145
 10
16.647060618958
 20
-11.740554911929
 10
16.647060618958
 20
-11.740554911929
1001
ACAD
1000
TCW40_DEV_WIDTH
1002
{
1040
-3.0
1002
}
  0
LWPOLYLINE
  5
4C1
100
AcDbEntity
  8
0
 62
           1
100
AcDbPolyline
 90
      117
 70
           0
 10
14.003787997195
 20
-11.784609455625
 10
14.003787997195
 20
-11.806636727473
 10
13.981760725346
 20
-11.806636727473
 10
13.981760725346
 20
-11.850691271169
 10
13.959733453498
 20
-11.850691271169
 10
13.959733453498
 20
-11.872718543017
 10
13.93770618165
 20
-11.872718543017
 10
13.93770618165
 20
-11.894745814865
 10
13.893651637954
 20
-11.894745814865
 10
13.893651637954
 20
-11.916773086713
 10
13.849597094258
 20
-11.916773086713
 10
13.82756982241
 20
-11.938800358561
 10
13.739460735018
 20
-11.938800358561
 10
13.739460735018
 20
-11.960827630409
 10
13.364997113602
 20
-11.960827630409
 10
13.342969841754
 20
-11.938800358561
 10
13.232833482514
 20
-11.938800358561
 10
13.210806210666
 20
-11.916773086713
 10
13.144724395121
 20
-11.916773086713
 10
13.144724395121
 20
-11.894745814865
 10
13.100669851425
 20
-11.894745814865
 10
13.100669851425
 20
-11.872718543017
 10
13.078642579577
 20
-11.872718543017
 10
13.122697123273
 20
-11.718527640081
 10
13.144724395121
 20
-11.718527640081
 10
13.144724395121
 20
-11.740554911929
 10
13.188778938818
 20
-11.740554911929
 10
13.188778938818
 20
-11.762582183777
 10
13.254860754362
 20
-11.762582183777
 10
13.254860754362
 20
-11.784609455625
 10
13.342969841754
 20
-11.784609455625
 10
13.342969841754
 20
-11.806636727473
 10
13.453106200994
 20
-11.806636727473
 10
13.453106200994
 20
-11.828663999321
 10
13.739460735018
 20
-11.828663999321
 10
13.739460735018
 20
-11.806636727473
 10
13.761488006866
 20
-11.806636727473
 10
13.761488006866
 20
-11.762582183777
 10
13.739460735018
 20
-11.762582183777
 10
13.739460735018
 20
-11.740554911929
 10
13.695406191322
 20
-11.740554911929
 10
13.673378919474
 20
-11.718527640081
 10
13.629324375778
 20
-11.718527640081
 10
13.60729710393
 20
-11.696500368233
 10
13.38702438545
 20
-11.696500368233
 10
13.38702438545
 20
-11.674473096385
 10
13.27688802621
 20
-11.674473096385
 10
13.27688802621
 20
-11.652445824537
 10
13.210806210666
 20
-11.652445824537
 10
13.188778938818
 20
-11.630418552689
 10
13.144724395121
 20
-11.630418552689
 10
13.144724395121
 20
-11.608391280841
 10
13.122697123273
 20
-11.608391280841
 10
13.056615307729
 20
-11.542309465297
 10
13.056615307729
 20
-11.520282193449
 10
13.034588035881
 20
-11.498254921601
 10
13.034588035881
 20
-11.410145834209
 10
13.056615307729
 20
-11.38811856236
 10
13.056615307729
 20
-11.366091290513
 10
13.078642579577
 20
-11.344064018664
 10
13.078642579577
 20
-11.322036746816
 10
13.100669851425
 20
-11.322036746816
 10
13.122697123273
 20
-11.300009474968
 10
13.144724395121
 20
-11.300009474968
 10
13.144724395121
 20
-11.27798220312
 10
13.188778938818
 20
-11.27798220312
 10
13.188778938818
 20
-11.255954931272
 10
13.27688802621
 20
-11.255954931272
 10
13.298915298058
 20
-11.233927659424
 10
13.651351647626
 20
-11.233927659424
 10
13.673378919474
 20
-11.255954931272
 10
13.783515278714
 20
-11.255954931272
 10
13.805542550562
 20
-11.27798220312
 10
13.871624366106
 20
-11.27798220312
 10
13.871624366106
 20
-11.300009474968
 10
13.93770618165
 20
-11.300009474968
 10
13.93770618165
 20
-11.322036746816
 10
13.959733453498
 20
-11.322036746816
 10
13.915678909802
 20
-11.498254921601
 10
13.893651637954
 20
-11.498254921601
 10
13.871624366106
 20
-11.476227649753
 10
13.82756982241
 20
-11.476227649753
 10
13.82756982241
 20
-11.454200377905
 10
13.761488006866
 20
-11.454200377905
 10
13.761488006866
 20
-11.432173106057
 10
13.695406191322
 20
-11.432173106057
 10
13.673378919474
 20
-11.410145834209
 10
13.585269832082
 20
-11.410145834209
 10
13.563242560234
 20
-11.38811856236
 10
13.431078929146
 20
-11.38811856236
 10
13.409051657298
 20
-11.366091290513
 10
13.298915298058
 20
-11.366091290513
 10
13.27688802621
 20
-11.38811856236
 10
13.27688802621
 20
-11.410145834209
 10
13.254860754362
 20
-11.410145834209
 10
13.254860754362
 20
-11.454200377905
 10
13.27688802621
 20
-11.454200377905
 10
13.27688802621
 20
-11.476227649753
 10
13.320942569906
 20
-11.476227649753
 10
13.320942569906
 20
-11.498254921601
 10
13.563242560234
 20
-11.498254921601
 10
13.585269832082
 20
-11.520282193449
 10
13.651351647626
 20
-11.520282193449
 10
13.651351647626
 20
-11.542309465297
 10
13.739460735018
 20
-11.542309465297
 10
13.761488006866
 20
-11.564336737145
 10
13.82756982241
 20
-11.564336737145
 10
13.82756982241
 20
-11.586364008993
 10
13.871624366106
 20
-11.586364008993
 10
13.893651637954
 20
-11.608391280841
 10
13.915678909802
 20
-11.608391280841
 10
13.959733453498
 20
-11.652445824537
 10
13.981760725346
 20
-11.652445824537
 10
13.981760725346
 20
-11.696500368233
 10
14.003787997195
 20
-11.696500368233
 10
14.003787997195
 20
-11.784609455625
 10
14.003787997195
 20
-11.784609455625
1001
ACAD
1000
TCW40_DEV_WIDTH
1002
{
1040
-3.0
1002
}
  0
LWPOLYLINE
  5
4C2
100
AcDbEntity
  8
0
 62
           1
100
AcDbPolyline
 90
       27
 70
           0
 10
17.880587842447
 20
-11.366091290513
 10
17.836533298751
 20
-11.366091290513
 10
17.814506026903
 20
-11.38811856236
 10
17.770451483207
 20
-11.38811856236
 10
17.660315123967
 20
-11.498254921601
 10
17.660315123967
 20
-11.542309465297
 10
17.638287852119
 20
-11.564336737145
 10
17.638287852119
 20
-11.652445824537
 10
17.660315123967
 20
-11.674473096385
 10
17.660315123967
 20
-11.718527640081
 10
17.770451483207
 20
-11.828663999321
 10
17.814506026903
 20
-11.828663999321
 10
17.836533298751
 20
-11.850691271169
 10
17.924642386143
 20
-11.850691271169
 10
17.946669657991
 20
-11.828663999321
 10
17.990724201687
 20
-11.828663999321
 10
18.100860560928
 20
-11.718527640081
 10
18.100860560928
 20
-11.674473096385
 10
18.122887832776
 20
-11.652445824537
 10
18.122887832776
 20
-11.564336737145
 10
18.100860560928
 20
-11.542309465297
 10
18.100860560928
 20
-11.498254921601
 10
17.990724201687
 20
-11.38811856236
 10
17.946669657991
 20
-11.38811856236
 10
17.924642386143
 20
-11.366091290513
 10
17.880587842447
 20
-11.366091290513
 10
17.880587842447
 20
-11.366091290513
1001
ACAD
1000
TCW40_DEV_WIDTH
1002
{
1040
-3.0
1002
}
  0
LWPOLYLINE
  5
4C3
100
AcDbEntity
  8
0
 62
           1
100
AcDbPolyline
 90
       15
 70
           0
 10
15.325424308076
 20
-11.960827630409
 10
15.413533395468
 20
-11.233927659424
 10
15.655833385796
 20
-11.233927659424
 10
15.832051560581
 20
-11.652445824537
 10
16.008269735365
 20
-11.233927659424
 10
16.250569725693
 20
-11.233927659424
 10
16.338678813085
 20
-11.960827630409
 10
16.118406094605
 20
-11.960827630409
 10
16.096378822757
 20
-11.652445824537
 10
15.942187919821
 20
-11.960827630409
 10
15.721915201341
 20
-11.960827630409
 10
15.589751570253
 20
-11.652445824537
 10
15.545697026556
 20
-11.960827630409
 10
15.325424308076
 20
-11.960827630409
 10
15.325424308076
 20
-11.960827630409
1001
ACAD
1000
TCW40_DEV_WIDTH
1002
{
1040
-3.0
1002
}
  0
LWPOLYLINE
  5
4C4
100
AcDbEntity
  8
0
 62
           1
100
AcDbPolyline
 90
        5
 70
           0
 10
15.017042502204
 20
-11.233927659424
 10
15.259342492532
 20
-11.233927659424
 10
15.259342492532
 20
-11.982854902257
 10
15.017042502204
 20
-11.982854902257
 10
15.017042502204
 20
-11.233927659424
1001
ACAD
1000
TCW40_DEV_WIDTH
1002
{
1040
-3.0
1002
}
  0
LWPOLYLINE
  5
4C5
100
AcDbEntity
  8
0
 62
           1
100
AcDbPolyline
 90
       14
 70
           0
 10
14.069869812739
 20
-11.960827630409
 10
14.069869812739
 20
-11.233927659424
 10
14.290142531219
 20
-11.233927659424
 10
14.290142531219
 20
-11.520282193449
 10
14.664606152635
 20
-11.520282193449
 10
14.664606152635
 20
-11.233927659424
 10
14.906906142964
 20
-11.233927659424
 10
14.906906142964
 20
-11.960827630409
 10
14.664606152635
 20
-11.960827630409
 10
14.664606152635
 20
-11.696500368233
 10
14.290142531219
 20
-11.696500368233
 10
14.290142531219
 20
-11.960827630409
 10
14.069869812739
 20
-11.960827630409
 10
14.069869812739
 20
-11.960827630409
1001
ACAD
1000
TCW40_DEV_WIDTH
1002
{
1040
-3.0
1002
}
  0
LINE
  5
4C6
100
AcDbEntity
  8
0
 62
           1
100
AcDbLine
 10
17.880587842447
 20
-11.233927659424
 30
0.0
 11
17.792478755055
 21
-11.233927659424
 31
0.0
1001
ACAD
1000
TCW40_DEV_WIDTH
1002
{
1040
-3.0
1002
}
  0
LINE
  5
4C7
100
AcDbEntity
  8
0
 62
           1
100
AcDbLine
 10
17.792478755055
 20
-11.233927659424
 30
0.0
 11
17.770451483207
 21
-11.255954931272
 31
0.0
1001
ACAD
1000
TCW40_DEV_WIDTH
1002
{
1040
-3.0
1002
}
  0
LINE
  5
4C8
100
AcDbEntity
  8
0
 62
           1
100
AcDbLine
 10
17.770451483207
 20
-11.255954931272
 30
0.0
 11
17.726396939511
 21
-11.255954931272
 31
0.0
1001
ACAD
1000
TCW40_DEV_WIDTH
1002
{
1040
-3.0
1002
}
  0
LINE
  5
4C9
100
AcDbEntity
  8
0
 62
           1
100
AcDbLine
 10
17.726396939511
 20
-11.255954931272
 30
0.0
 11
17.704369667663
 21
-11.27798220312
 31
0.0
1001
ACAD
1000
TCW40_DEV_WIDTH
1002
{
1040
-3.0
1002
}
  0
LINE
  5
4CA
100
AcDbEntity
  8
0
 62
           1
100
AcDbLine
 10
17.704369667663
 20
-11.27798220312
 30
0.0
 11
17.682342395815
 21
-11.27798220312
 31
0.0
1001
ACAD
1000
TCW40_DEV_WIDTH
1002
{
1040
-3.0
1002
}
  0
LINE
  5
4CB
100
AcDbEntity
  8
0
 62
           1
100
AcDbLine
 10
17.682342395815
 20
-11.27798220312
 30
0.0
 11
17.660315123967
 21
-11.300009474968
 31
0.0
1001
ACAD
1000
TCW40_DEV_WIDTH
1002
{
1040
-3.0
1002
}
  0
LINE
  5
4CC
100
AcDbEntity
  8
0
 62
           1
100
AcDbLine
 10
17.660315123967
 20
-11.300009474968
 30
0.0
 11
17.638287852119
 21
-11.300009474968
 31
0.0
1001
ACAD
1000
TCW40_DEV_WIDTH
1002
{
1040
-3.0
1002
}
  0
LINE
  5
4CD
100
AcDbEntity
  8
0
 62
           1
100
AcDbLine
 10
17.638287852119
 20
-11.300009474968
 30
0.0
 11
17.616260580271
 21
-11.322036746816
 31
0.0
1001
ACAD
1000
TCW40_DEV_WIDTH
1002
{
1040
-3.0
1002
}
  0
LINE
  5
4CE
100
AcDbEntity
  8
0
 62
           1
100
AcDbLine
 10
17.616260580271
 20
-11.322036746816
 30
0.0
 11
17.594233308423
 21
-11.322036746816
 31
0.0
1001
ACAD
1000
TCW40_DEV_WIDTH
1002
{
1040
-3.0
1002
}
  0
LINE
  5
4CF
100
AcDbEntity
  8
0
 62
           1
100
AcDbLine
 10
17.594233308423
 20
-11.322036746816
 30
0.0
 11
17.506124221031
 21
-11.410145834209
 31
0.0
1001
ACAD
1000
TCW40_DEV_WIDTH
1002
{
1040
-3.0
1002
}
  0
LINE
  5
4D0
100
AcDbEntity
  8
0
 62
           1
100
AcDbLine
 10
17.506124221031
 20
-11.410145834209
 30
0.0
 11
17.506124221031
 21
-11.432173106057
 31
0.0
1001
ACAD
1000
TCW40_DEV_WIDTH
1002
{
1040
-3.0
1002
}
  0
LINE
  5
4D1
100
AcDbEntity
  8
0
 62
           1
100
AcDbLine
 10
17.506124221031
 20
-11.432173106057
 30
0.0
 11
17.484096949183
 21
-11.454200377905
 31
0.0
1001
ACAD
1000
TCW40_DEV_WIDTH
1002
{
1040
-3.0
1002
}
  0
LINE
  5
4D2
100
AcDbEntity
  8
0
 62
           1
100
AcDbLine
 10
17.484096949183
 20
-11.454200377905
 30
0.0
 11
17.484096949183
 21
-11.476227649753
 31
0.0
1001
ACAD
1000
TCW40_DEV_WIDTH
1002
{
1040
-3.0
1002
}
  0
LINE
  5
4D3
100
AcDbEntity
  8
0
 62
           1
100
AcDbLine
 10
17.484096949183
 20
-11.476227649753
 30
0.0
 11
17.462069677335
 21
-11.498254921601
 31
0.0
1001
ACAD
1000
TCW40_DEV_WIDTH
1002
{
1040
-3.0
1002
}
  0
LINE
  5
4D4
100
AcDbEntity
  8
0
 62
           1
100
AcDbLine
 10
17.462069677335
 20
-11.498254921601
 30
0.0
 11
17.462069677335
 21
-11.520282193449
 31
0.0
1001
ACAD
1000
TCW40_DEV_WIDTH
1002
{
1040
-3.0
1002
}
  0
LINE
  5
4D5
100
AcDbEntity
  8
0
 62
           1
100
AcDbLine
 10
17.462069677335
 20
-11.520282193449
 30
0.0
 11
17.440042405487
 21
-11.542309465297
 31
0.0
1001
ACAD
1000
TCW40_DEV_WIDTH
1002
{
1040
-3.0
1002
}
  0
LINE
  5
4D6
100
AcDbEntity
  8
0
 62
           1
100
AcDbLine
 10
17.440042405487
 20
-11.542309465297
 30
0.0
 11
17.440042405487
 21
-11.674473096385
 31
0.0
1001
ACAD
1000
TCW40_DEV_WIDTH
1002
{
1040
-3.0
1002
}
  0
LINE
  5
4D7
100
AcDbEntity
  8
0
 62
           1
100
AcDbLine
 10
17.440042405487
 20
-11.674473096385
 30
0.0
 11
17.462069677335
 21
-11.696500368233
 31
0.0
1001
ACAD
1000
TCW40_DEV_WIDTH
1002
{
1040
-3.0
1002
}
  0
LINE
  5
4D8
100
AcDbEntity
  8
0
 62
           1
100
AcDbLine
 10
17.462069677335
 20
-11.696500368233
 30
0.0
 11
17.462069677335
 21
-11.718527640081
 31
0.0
1001
ACAD
1000
TCW40_DEV_WIDTH
1002
{
1040
-3.0
1002
}
  0
LINE
  5
4D9
100
AcDbEntity
  8
0
 62
           1
100
AcDbLine
 10
17.462069677335
 20
-11.718527640081
 30
0.0
 11
17.484096949183
 21
-11.740554911929
 31
0.0
1001
ACAD
1000
TCW40_DEV_WIDTH
1002
{
1040
-3.0
1002
}
  0
LINE
  5
4DA
100
AcDbEntity
  8
0
 62
           1
100
AcDbLine
 10
17.484096949183
 20
-11.740554911929
 30
0.0
 11
17.484096949183
 21
-11.762582183777
 31
0.0
1001
ACAD
1000
TCW40_DEV_WIDTH
1002
{
1040
-3.0
1002
}
  0
LINE
  5
4DB
100
AcDbEntity
  8
0
 62
           1
100
AcDbLine
 10
17.484096949183
 20
-11.762582183777
 30
0.0
 11
17.506124221031
 21
-11.784609455625
 31
0.0
1001
ACAD
1000
TCW40_DEV_WIDTH
1002
{
1040
-3.0
1002
}
  0
LINE
  5
4DC
100
AcDbEntity
  8
0
 62
           1
100
AcDbLine
 10
17.506124221031
 20
-11.784609455625
 30
0.0
 11
17.506124221031
 21
-11.806636727473
 31
0.0
1001
ACAD
1000
TCW40_DEV_WIDTH
1002
{
1040
-3.0
1002
}
  0
LINE
  5
4DD
100
AcDbEntity
  8
0
 62
           1
100
AcDbLine
 10
17.506124221031
 20
-11.806636727473
 30
0.0
 11
17.594233308423
 21
-11.894745814865
 31
0.0
1001
ACAD
1000
TCW40_DEV_WIDTH
1002
{
1040
-3.0
1002
}
  0
LINE
  5
4DE
100
AcDbEntity
  8
0
 62
           1
100
AcDbLine
 10
17.594233308423
 20
-11.894745814865
 30
0.0
 11
17.616260580271
 21
-11.894745814865
 31
0.0
1001
ACAD
1000
TCW40_DEV_WIDTH
1002
{
1040
-3.0
1002
}
  0
LINE
  5
4DF
100
AcDbEntity
  8
0
 62
           1
100
AcDbLine
 10
17.616260580271
 20
-11.894745814865
 30
0.0
 11
17.638287852119
 21
-11.916773086713
 31
0.0
1001
ACAD
1000
TCW40_DEV_WIDTH
1002
{
1040
-3.0
1002
}
  0
LINE
  5
4E0
100
AcDbEntity
  8
0
 62
           1
100
AcDbLine
 10
17.638287852119
 20
-11.916773086713
 30
0.0
 11
17.660315123967
 21
-11.916773086713
 31
0.0
1001
ACAD
1000
TCW40_DEV_WIDTH
1002
{
1040
-3.0
1002
}
  0
LINE
  5
4E1
100
AcDbEntity
  8
0
 62
           1
100
AcDbLine
 10
17.660315123967
 20
-11.916773086713
 30
0.0
 11
17.682342395815
 21
-11.938800358561
 31
0.0
1001
ACAD
1000
TCW40_DEV_WIDTH
1002
{
1040
-3.0
1002
}
  0
LINE
  5
4E2
100
AcDbEntity
  8
0
 62
           1
100
AcDbLine
 10
17.682342395815
 20
-11.938800358561
 30
0.0
 11
17.704369667663
 21
-11.938800358561
 31
0.0
1001
ACAD
1000
TCW40_DEV_WIDTH
1002
{
1040
-3.0
1002
}
  0
LINE
  5
4E3
100
AcDbEntity
  8
0
 62
           1
100
AcDbLine
 10
17.704369667663
 20
-11.938800358561
 30
0.0
 11
17.726396939511
 21
-11.960827630409
 31
0.0
1001
ACAD
1000
TCW40_DEV_WIDTH
1002
{
1040
-3.0
1002
}
  0
LINE
  5
4E4
100
AcDbEntity
  8
0
 62
           1
100
AcDbLine
 10
17.726396939511
 20
-11.960827630409
 30
0.0
 11
17.770451483207
 21
-11.960827630409
 31
0.0
1001
ACAD
1000
TCW40_DEV_WIDTH
1002
{
1040
-3.0
1002
}
  0
LINE
  5
4E5
100
AcDbEntity
  8
0
 62
           1
100
AcDbLine
 10
17.770451483207
 20
-11.960827630409
 30
0.0
 11
17.792478755055
 21
-11.982854902257
 31
0.0
1001
ACAD
1000
TCW40_DEV_WIDTH
1002
{
1040
-3.0
1002
}
  0
LINE
  5
4E6
100
AcDbEntity
  8
0
 62
           1
100
AcDbLine
 10
17.792478755055
 20
-11.982854902257
 30
0.0
 11
17.990724201687
 21
-11.982854902257
 31
0.0
1001
ACAD
1000
TCW40_DEV_WIDTH
1002
{
1040
-3.0
1002
}
  0
LINE
  5
4E7
100
AcDbEntity
  8
0
 62
           1
100
AcDbLine
 10
17.990724201687
 20
-11.982854902257
 30
0.0
 11
18.012751473535
 21
-11.960827630409
 31
0.0
1001
ACAD
1000
TCW40_DEV_WIDTH
1002
{
1040
-3.0
1002
}
  0
LINE
  5
4E8
100
AcDbEntity
  8
0
 62
           1
100
AcDbLine
 10
18.012751473535
 20
-11.960827630409
 30
0.0
 11
18.056806017231
 21
-11.960827630409
 31
0.0
1001
ACAD
1000
TCW40_DEV_WIDTH
1002
{
1040
-3.0
1002
}
  0
LINE
  5
4E9
100
AcDbEntity
  8
0
 62
           1
100
AcDbLine
 10
18.056806017231
 20
-11.960827630409
 30
0.0
 11
18.078833289079
 21
-11.938800358561
 31
0.0
1001
ACAD
1000
TCW40_DEV_WIDTH
1002
{
1040
-3.0
1002
}
  0
LINE
  5
4EA
100
AcDbEntity
  8
0
 62
           1
100
AcDbLine
 10
18.078833289079
 20
-11.938800358561
 30
0.0
 11
18.100860560928
 21
-11.938800358561
 31
0.0
1001
ACAD
1000
TCW40_DEV_WIDTH
1002
{
1040
-3.0
1002
}
  0
LINE
  5
4EB
100
AcDbEntity
  8
0
 62
           1
100
AcDbLine
 10
18.100860560928
 20
-11.938800358561
 30
0.0
 11
18.122887832776
 21
-11.916773086713
 31
0.0
1001
ACAD
1000
TCW40_DEV_WIDTH
1002
{
1040
-3.0
1002
}
  0
LINE
  5
4EC
100
AcDbEntity
  8
0
 62
           1
100
AcDbLine
 10
18.122887832776
 20
-11.916773086713
 30
0.0
 11
18.144915104624
 21
-11.916773086713
 31
0.0
1001
ACAD
1000
TCW40_DEV_WIDTH
1002
{
1040
-3.0
1002
}
  0
LINE
  5
4ED
100
AcDbEntity
  8
0
 62
           1
100
AcDbLine
 10
18.144915104624
 20
-11.916773086713
 30
0.0
 11
18.166942376472
 21
-11.894745814865
 31
0.0
1001
ACAD
1000
TCW40_DEV_WIDTH
1002
{
1040
-3.0
1002
}
  0
LINE
  5
4EE
100
AcDbEntity
  8
0
 62
           1
100
AcDbLine
 10
18.166942376472
 20
-11.894745814865
 30
0.0
 11
18.18896964832
 21
-11.894745814865
 31
0.0
1001
ACAD
1000
TCW40_DEV_WIDTH
1002
{
1040
-3.0
1002
}
  0
LINE
  5
4EF
100
AcDbEntity
  8
0
 62
           1
100
AcDbLine
 10
18.18896964832
 20
-11.894745814865
 30
0.0
 11
18.277078735712
 21
-11.806636727473
 31
0.0
1001
ACAD
1000
TCW40_DEV_WIDTH
1002
{
1040
-3.0
1002
}
  0
LINE
  5
4F0
100
AcDbEntity
  8
0
 62
           1
100
AcDbLine
 10
18.277078735712
 20
-11.806636727473
 30
0.0
 11
18.277078735712
 21
-11.784609455625
 31
0.0
1001
ACAD
1000
TCW40_DEV_WIDTH
1002
{
1040
-3.0
1002
}
  0
LINE
  5
4F1
100
AcDbEntity
  8
0
 62
           1
100
AcDbLine
 10
18.277078735712
 20
-11.784609455625
 30
0.0
 11
18.29910600756
 21
-11.762582183777
 31
0.0
1001
ACAD
1000
TCW40_DEV_WIDTH
1002
{
1040
-3.0
1002
}
  0
LINE
  5
4F2
100
AcDbEntity
  8
0
 62
           1
100
AcDbLine
 10
18.29910600756
 20
-11.762582183777
 30
0.0
 11
18.29910600756
 21
-11.740554911929
 31
0.0
1001
ACAD
1000
TCW40_DEV_WIDTH
1002
{
1040
-3.0
1002
}
  0
LINE
  5
4F3
100
AcDbEntity
  8
0
 62
           1
100
AcDbLine
 10
18.29910600756
 20
-11.740554911929
 30
0.0
 11
18.321133279408
 21
-11.718527640081
 31
0.0
1001
ACAD
1000
TCW40_DEV_WIDTH
1002
{
1040
-3.0
1002
}
  0
LINE
  5
4F4
100
AcDbEntity
  8
0
 62
           1
100
AcDbLine
 10
18.321133279408
 20
-11.718527640081
 30
0.0
 11
18.321133279408
 21
-11.696500368233
 31
0.0
1001
ACAD
1000
TCW40_DEV_WIDTH
1002
{
1040
-3.0
1002
}
  0
LINE
  5
4F5
100
AcDbEntity
  8
0
 62
           1
100
AcDbLine
 10
18.321133279408
 20
-11.696500368233
 30
0.0
 11
18.343160551256
 21
-11.674473096385
 31
0.0
1001
ACAD
1000
TCW40_DEV_WIDTH
1002
{
1040
-3.0
1002
}
  0
LINE
  5
4F6
100
AcDbEntity
  8
0
 62
           1
100
AcDbLine
 10
18.343160551256
 20
-11.674473096385
 30
0.0
 11
18.343160551256
 21
-11.542309465297
 31
0.0
1001
ACAD
1000
TCW40_DEV_WIDTH
1002
{
1040
-3.0
1002
}
  0
LINE
  5
4F7
100
AcDbEntity
  8
0
 62
           1
100
AcDbLine
 10
18.343160551256
 20
-11.542309465297
 30
0.0
 11
18.321133279408
 21
-11.520282193449
 31
0.0
1001
ACAD
1000
TCW40_DEV_WIDTH
1002
{
1040
-3.0
1002
}
  0
LINE
  5
4F8
100
AcDbEntity
  8
0
 62
           1
100
AcDbLine
 10
18.321133279408
 20
-11.520282193449
 30
0.0
 11
18.321133279408
 21
-11.498254921601
 31
0.0
1001
ACAD
1000
TCW40_DEV_WIDTH
1002
{
1040
-3.0
1002
}
  0
LINE
  5
4F9
100
AcDbEntity
  8
0
 62
           1
100
AcDbLine
 10
18.321133279408
 20
-11.498254921601
 30
0.0
 11
18.29910600756
 21
-11.476227649753
 31
0.0
1001
ACAD
1000
TCW40_DEV_WIDTH
1002
{
1040
-3.0
1002
}
  0
LINE
  5
4FA
100
AcDbEntity
  8
0
 62
           1
100
AcDbLine
 10
18.29910600756
 20
-11.476227649753
 30
0.0
 11
18.29910600756
 21
-11.454200377905
 31
0.0
1001
ACAD
1000
TCW40_DEV_WIDTH
1002
{
1040
-3.0
1002
}
  0
LINE
  5
4FB
100
AcDbEntity
  8
0
 62
           1
100
AcDbLine
 10
18.29910600756
 20
-11.454200377905
 30
0.0
 11
18.277078735712
 21
-11.432173106057
 31
0.0
1001
ACAD
1000
TCW40_DEV_WIDTH
1002
{
1040
-3.0
1002
}
  0
LINE
  5
4FC
100
AcDbEntity
  8
0
 62
           1
100
AcDbLine
 10
18.277078735712
 20
-11.432173106057
 30
0.0
 11
18.277078735712
 21
-11.410145834209
 31
0.0
1001
ACAD
1000
TCW40_DEV_WIDTH
1002
{
1040
-3.0
1002
}
  0
LINE
  5
4FD
100
AcDbEntity
  8
0
 62
           1
100
AcDbLine
 10
18.277078735712
 20
-11.410145834209
 30
0.0
 11
18.18896964832
 21
-11.322036746816
 31
0.0
1001
ACAD
1000
TCW40_DEV_WIDTH
1002
{
1040
-3.0
1002
}
  0
LINE
  5
4FE
100
AcDbEntity
  8
0
 62
           1
100
AcDbLine
 10
18.18896964832
 20
-11.322036746816
 30
0.0
 11
18.166942376472
 21
-11.322036746816
 31
0.0
1001
ACAD
1000
TCW40_DEV_WIDTH
1002
{
1040
-3.0
1002
}
  0
LINE
  5
4FF
100
AcDbEntity
  8
0
 62
           1
100
AcDbLine
 10
18.166942376472
 20
-11.322036746816
 30
0.0
 11
18.144915104624
 21
-11.300009474968
 31
0.0
1001
ACAD
1000
TCW40_DEV_WIDTH
1002
{
1040
-3.0
1002
}
  0
LINE
  5
500
100
AcDbEntity
  8
0
 62
           1
100
AcDbLine
 10
18.144915104624
 20
-11.300009474968
 30
0.0
 11
18.122887832776
 21
-11.300009474968
 31
0.0
1001
ACAD
1000
TCW40_DEV_WIDTH
1002
{
1040
-3.0
1002
}
  0
LINE
  5
501
100
AcDbEntity
  8
0
 62
           1
100
AcDbLine
 10
18.122887832776
 20
-11.300009474968
 30
0.0
 11
18.100860560928
 21
-11.27798220312
 31
0.0
1001
ACAD
1000
TCW40_DEV_WIDTH
1002
{
1040
-3.0
1002
}
  0
LINE
  5
502
100
AcDbEntity
  8
0
 62
           1
100
AcDbLine
 10
18.100860560928
 20
-11.27798220312
 30
0.0
 11
18.078833289079
 21
-11.27798220312
 31
0.0
1001
ACAD
1000
TCW40_DEV_WIDTH
1002
{
1040
-3.0
1002
}
  0
LINE
  5
503
100
AcDbEntity
  8
0
 62
           1
100
AcDbLine
 10
18.078833289079
 20
-11.27798220312
 30
0.0
 11
18.056806017231
 21
-11.255954931272
 31
0.0
1001
ACAD
1000
TCW40_DEV_WIDTH
1002
{
1040
-3.0
1002
}
  0
LINE
  5
504
100
AcDbEntity
  8
0
 62
           1
100
AcDbLine
 10
18.056806017231
 20
-11.255954931272
 30
0.0
 11
18.012751473535
 21
-11.255954931272
 31
0.0
1001
ACAD
1000
TCW40_DEV_WIDTH
1002
{
1040
-3.0
1002
}
  0
LINE
  5
505
100
AcDbEntity
  8
0
 62
           1
100
AcDbLine
 10
18.012751473535
 20
-11.255954931272
 30
0.0
 11
17.990724201687
 21
-11.233927659424
 31
0.0
1001
ACAD
1000
TCW40_DEV_WIDTH
1002
{
1040
-3.0
1002
}
  0
LINE
  5
506
100
AcDbEntity
  8
0
 62
           1
100
AcDbLine
 10
17.990724201687
 20
-11.233927659424
 30
0.0
 11
17.880587842447
 21
-11.233927659424
 31
0.0
1001
ACAD
1000
TCW40_DEV_WIDTH
1002
{
1040
-3.0
1002
}
  0
LINE
  5
507
100
AcDbEntity
  8
0
 62
           1
100
AcDbLine
 10
17.880587842447
 20
-11.233927659424
 30
0.0
 11
17.880587842447
 21
-11.233927659424
 31
0.0
1001
ACAD
1000
TCW40_DEV_WIDTH
1002
{
1040
-3.0
1002
}
  0
INSERT
  5
508
100
AcDbEntity
  8
0
100
AcDbBlockReference
  2
Block_0
 10
-20.377657802944
 20
-17.647015117271
 30
0.0
 41
3.612330026781
 42
3.612330026781
 43
4.229524083164
  0
INSERT
  5
509
100
AcDbEntity
  8
0
100
AcDbBlockReference
  2
Block_3
 10
-20.377657802944
 20
-17.647015117271
 30
0.0
 41
3.612330026781
 42
3.612330026781
 43
4.229524083164
  0
TEXT
  5
50A
100
AcDbEntity
  8
0
  6
Continuous
100
AcDbText
 10
11.225716201874
 20
-13.082608498023
 30
0.0
 40
0.530860827728
  1
Itasca, IL 60143, USA Tel: (630) 924-7138
  7
_TCW_TXTSTY_3
100
AcDbText
1001
TCAD
1000
TCW40_TEXT
1002
{
1000
Times New Roman
1070
           0
1070
        1025
1002
}
  0
TEXT
  5
50B
100
AcDbEntity
  8
0
  6
Continuous
100
AcDbText
 10
-15.493919491642
 20
-12.477459806071
 30
0.0
 40
0.512806299058
  1
FRAME SIZE
  7
_TCW_TXTSTY_3
100
AcDbText
1001
TCAD
1000
TCW40_TEXT
1002
{
1000
Times New Roman
1070
           0
1070
        1025
1002
}
  0
TEXT
  5
50C
100
AcDbEntity
  8
0
  6
Continuous
100
AcDbText
 10
-15.519484498966
 20
-15.432623703366
 30
0.0
 40
0.512806299058
  1
MOUNTING
  7
_TCW_TXTSTY_3
100
AcDbText
1001
TCAD
1000
TCW40_TEXT
1002
{
1000
Times New Roman
1070
           0
1070
        1025
1002
}
  0
MTEXT
  5
50D
100
AcDbEntity
  8
0
100
AcDbMText
 10
-15.523767590668
 20
-16.991188409546
 30
0.0
 40
0.512806299058
 41
4.586186015417
 71
           1
 72
           1
  1
REDUCTION\PRATIOS
  7
_TCW_TXTSTY_3
 73
           1
 44
1.0
1001
TCAD
1000
TCW_REFPOINT
1002
{
1010
-15.523767590668
1020
-16.991188409546
1030
0.0
1002
}
1000
TCW40_TEXT
1002
{
1000
Times New Roman
1070
           0
1070
         257
1002
}
  0
TEXT
  5
50E
100
AcDbEntity
  8
0
  6
Continuous
100
AcDbText
 10
15.669371777536
 20
-18.490321558922
 30
0.0
 40
0.929032258065
  1
B4
100
AcDbText
1001
TCAD
1000
TCW40_TEXT
1002
{
1000
romand.shx
1070
           0
1070
        1025
1002
}
  0
LINE
  5
50F
100
AcDbEntity
  8
0
100
AcDbLine
 10
-26.111667365799
 20
-13.695223485123
 30
0.0
 11
-16.558208262637
 21
-13.695223485123
 31
0.0
1001
ACAD
1000
TCW40_DEV_WIDTH
1002
{
1040
-3.0
1002
}
  0
LINE
  5
510
100
AcDbEntity
  8
0
100
AcDbLine
 10
-26.111667365799
 20
-10.655191609621
 30
0.0
 11
-26.111667365799
 21
-19.329426293476
 31
0.0
1001
ACAD
1000
TCW40_DEV_WIDTH
1002
{
1040
-3.0
1002
}
  0
LINE
  5
511
100
AcDbEntity
  8
0
100
AcDbLine
 10
-26.111667365799
 20
-11.944426965019
 30
0.0
 11
-16.558208262637
 21
-11.944426965019
 31
0.0
1001
ACAD
1000
TCW40_DEV_WIDTH
1002
{
1040
-3.0
1002
}
  0
LINE
  5
512
100
AcDbEntity
  8
0
100
AcDbLine
 10
-26.111667365799
 20
-15.020013938133
 30
0.0
 11
-16.558208262637
 21
-15.020013938133
 31
0.0
1001
ACAD
1000
TCW40_DEV_WIDTH
1002
{
1040
-3.0
1002
}
  0
LINE
  5
513
100
AcDbEntity
  8
0
100
AcDbLine
 10
-26.111667365799
 20
-16.933712398582
 30
0.0
 11
-16.558208262637
 21
-16.933712398582
 31
0.0
1001
ACAD
1000
TCW40_DEV_WIDTH
1002
{
1040
-3.0
1002
}
  0
LINE
  5
514
100
AcDbEntity
  8
0
100
AcDbLine
 10
-21.105805475881
 20
-11.944426965019
 30
0.0
 11
-21.105805475881
 21
-19.329426293476
 31
0.0
1001
ACAD
1000
TCW40_DEV_WIDTH
1002
{
1040
-3.0
1002
}
  0
TEXT
  5
515
100
AcDbEntity
  8
0
  6
Continuous
100
AcDbText
 10
-25.792279919623
 20
-12.414728897574
 30
0.0
 40
0.249549984932
  1
HANDWHEEL
  7
_TCW_TXTSTY_3
100
AcDbText
1001
TCAD
1000
TCW40_TEXT
1002
{
1000
Times New Roman
1070
           0
1070
        1025
1002
}
  0
TEXT
  5
516
100
AcDbEntity
  8
0
  6
Continuous
100
AcDbText
 10
-25.792279919623
 20
-12.818762209757
 30
0.0
 40
0.249549984932
  1
REVOLUTIONS
  7
_TCW_TXTSTY_3
100
AcDbText
1001
TCAD
1000
TCW40_TEXT
1002
{
1000
Times New Roman
1070
           0
1070
        1025
1002
}
  0
TEXT
  5
517
100
AcDbEntity
  8
0
  6
Continuous
100
AcDbText
 10
-20.809059446511
 20
-12.455052653674
 30
0.0
 40
0.249549984932
  1
WEIGHT
  7
_TCW_TXTSTY_3
100
AcDbText
1001
TCAD
1000
TCW40_TEXT
1002
{
1000
Times New Roman
1070
           0
1070
        1025
1002
}
  0
TEXT
  5
518
100
AcDbEntity
  8
0
  6
Continuous
100
AcDbText
 10
-20.788884535536
 20
-14.511562562892
 30
0.0
 40
0.249549984932
  1
REDUCTION SECTION
  7
_TCW_TXTSTY_3
100
AcDbText
1001
TCAD
1000
TCW40_TEXT
1002
{
1000
Times New Roman
1070
           0
1070
        1025
1002
}
  0
TEXT
  5
519
100
AcDbEntity
  8
0
  6
Continuous
100
AcDbText
 10
-25.610705221926
 20
-14.531724440941
 30
0.0
 40
0.249549984932
  1
VER.SPEED SECTION
  7
_TCW_TXTSTY_3
100
AcDbText
1001
TCAD
1000
TCW40_TEXT
1002
{
1000
Times New Roman
1070
           0
1070
        1025
1002
}
  0
TEXT
  5
51A
100
AcDbEntity
  8
0
  6
Continuous
100
AcDbText
 10
-20.846943261553
 20
-15.519655564367
 30
0.0
 40
0.249549984932
  1
RATIO
  7
_TCW_TXTSTY_3
100
AcDbText
1001
TCAD
1000
TCW40_TEXT
1002
{
1000
Times New Roman
1070
           0
1070
        1025
1002
}
  0
TEXT
  5
51B
100
AcDbEntity
  8
0
  6
Continuous
100
AcDbText
 10
-20.869584428897
 20
-17.414870599356
 30
0.0
 40
0.249549984932
  1
LUBRICATION
  7
_TCW_TXTSTY_3
100
AcDbText
1001
TCAD
1000
TCW40_TEXT
1002
{
1000
Times New Roman
1070
           0
1070
        1025
1002
}
  0
TEXT
  5
51C
100
AcDbEntity
  8
0
  6
Continuous
100
AcDbText
 10
-25.812455080059
 20
-17.414870599356
 30
0.0
 40
0.249549984932
  1
LUBRICATION
  7
_TCW_TXTSTY_3
100
AcDbText
1001
TCAD
1000
TCW40_TEXT
1002
{
1000
Times New Roman
1070
           0
1070
        1025
1002
}
  0
TEXT
  5
51D
100
AcDbEntity
  8
0
  6
Continuous
100
AcDbText
 10
-20.846943261553
 20
-18.846362739538
 30
0.0
 40
0.249549984932
  1
QTY.
  7
_TCW_TXTSTY_3
100
AcDbText
1001
TCAD
1000
TCW40_TEXT
1002
{
1000
Times New Roman
1070
           0
1070
        1025
1002
}
  0
TEXT
  5
51E
100
AcDbEntity
  8
0
  6
Continuous
100
AcDbText
 10
-20.394401715401
 20
-13.347100715368
 30
0.0
 40
0.563642120361
  1
29 lbs.
100
AcDbText
1001
TCAD
1000
TCW40_TEXT
1002
{
1000
romand.shx
1070
           0
1070
        1025
1002
}
  0
TEXT
  5
51F
100
AcDbEntity
  8
0
  6
Continuous
100
AcDbText
 10
-20.316821384651
 20
-16.474179627108
 30
0.0
 40
0.563642083445
  1
   : 1
100
AcDbText
1001
TCAD
1000
TCW40_TEXT
1002
{
1000
romand.shx
1070
           0
1070
        1025
1002
}
  0
TEXT
  5
520
100
AcDbEntity
  8
0
  6
Continuous
100
AcDbText
 10
-20.962188466497
 20
-18.115973665293
 30
0.0
 40
0.340645168674
  1
NLGI #0 grease
100
AcDbText
1001
TCAD
1000
TCW40_TEXT
1002
{
1000
romand.shx
1070
           0
1070
        1025
1002
}
  0
TEXT
  5
521
100
AcDbEntity
  8
0
  6
Continuous
100
AcDbText
 10
-19.448093645787
 20
-18.974623116535
 30
0.0
 40
0.433548379713
  1
7 oz
100
AcDbText
1001
TCAD
1000
TCW40_TEXT
1002
{
1000
romand.shx
1070
           0
1070
        1025
1002
}
  0
LINE
  5
522
100
AcDbEntity
  8
0
100
AcDbLine
 10
10.417698492284
 20
-10.609173397582
 30
0.0
 11
10.417698492284
 21
-19.24101433223
 31
0.0
1001
ACAD
1000
TCW40_DEV_WIDTH
1002
{
1040
-3.0
1002
}
  0
TEXT
  5
523
100
AcDbEntity
  8
0
  6
Continuous
100
AcDbText
 10
-9.471198961828
 20
-13.307683736656
 30
0.0
 40
0.563642083445
  1
201, 203, 205, 207
100
AcDbText
1001
TCAD
1000
TCW40_TEXT
1002
{
1000
romand.shx
1070
           0
1070
        1025
1002
}
  0
TEXT
  5
524
100
AcDbEntity
  8
0
  6
Continuous
100
AcDbText
 10
-9.397957760715
 20
-15.456235531027
 30
0.0
 40
0.563642083445
  1
BASE
100
AcDbText
1001
TCAD
1000
TCW40_TEXT
1002
{
1000
romand.shx
1070
           0
1070
        1025
1002
}
  0
LINE
  5
525
100
AcDbEntity
  8
0
100
AcDbLine
 10
2.069226630718
 20
-16.776476135849
 30
0.0
 11
10.417698492284
 21
-16.776476135849
 31
0.0
1001
ACAD
1000
TCW40_DEV_WIDTH
1002
{
1040
-3.0
1002
}
  0
LINE
  5
526
100
AcDbEntity
  8
0
100
AcDbLine
 10
2.069226630718
 20
-15.466834828083
 30
0.0
 11
10.417698492284
 21
-15.466834828083
 31
0.0
1001
ACAD
1000
TCW40_DEV_WIDTH
1002
{
1040
-3.0
1002
}
  0
LINE
  5
527
100
AcDbEntity
  8
0
100
AcDbLine
 10
2.069226630718
 20
-13.878789456671
 30
0.0
 11
10.417698492284
 21
-13.878789456671
 31
0.0
1001
ACAD
1000
TCW40_DEV_WIDTH
1002
{
1040
-3.0
1002
}
  0
LINE
  5
528
100
AcDbEntity
  8
0
100
AcDbLine
 10
2.069226630718
 20
-12.290744085258
 30
0.0
 11
10.417698492284
 21
-12.290744085258
 31
0.0
1001
ACAD
1000
TCW40_DEV_WIDTH
1002
{
1040
-3.0
1002
}
  0
LINE
  5
529
100
AcDbEntity
  8
0
100
AcDbLine
 10
5.792404833714
 20
-10.609173397582
 30
0.0
 11
5.792404833714
 21
-15.466834828083
 31
0.0
1001
ACAD
1000
TCW40_DEV_WIDTH
1002
{
1040
-3.0
1002
}
  0
TEXT
  5
52A
100
AcDbEntity
  8
0
  6
Continuous
100
AcDbText
 10
6.093878612482
 20
-11.119887348086
 30
0.0
 40
0.249549984932
  1
APPROVED BY
  7
_TCW_TXTSTY_3
100
AcDbText
1001
TCAD
1000
TCW40_TEXT
1002
{
1000
Times New Roman
1070
           0
1070
        1025
1002
}
  0
TEXT
  5
52B
100
AcDbEntity
  8
0
  6
Continuous
100
AcDbText
 10
6.093878612482
 20
-12.718697013621
 30
0.0
 40
0.249549984932
  1
CHECKED BY
  7
_TCW_TXTSTY_3
100
AcDbText
1001
TCAD
1000
TCW40_TEXT
1002
{
1000
Times New Roman
1070
           0
1070
        1025
1002
}
  0
TEXT
  5
52C
100
AcDbEntity
  8
0
  6
Continuous
100
AcDbText
 10
6.093878612482
 20
-14.306742385033
 30
0.0
 40
0.249549984932
  1
DRAWN BY
  7
_TCW_TXTSTY_3
100
AcDbText
1001
TCAD
1000
TCW40_TEXT
1002
{
1000
Times New Roman
1070
           0
1070
        1025
1002
}
  0
TEXT
  5
52D
100
AcDbEntity
  8
0
  6
Continuous
100
AcDbText
 10
3.360655833952
 20
-13.521872723665
 30
0.0
 40
0.563642083445
  1
1:1
100
AcDbText
1001
TCAD
1000
TCW40_TEXT
1002
{
1000
romand.shx
1070
           0
1070
        1025
1002
}
  0
TEXT
  5
52E
100
AcDbEntity
  8
0
  6
Continuous
100
AcDbText
 10
4.075886646136
 20
-16.452225885615
 30
0.0
 40
0.563642083445
  1
10/31/05
100
AcDbText
1001
TCAD
1000
TCW40_TEXT
1002
{
1000
romand.shx
1070
           0
1070
        1025
1002
}
  0
TEXT
  5
52F
100
AcDbEntity
  8
0
  6
Continuous
100
AcDbText
 10
3.084788093677
 20
-15.141231779612
 30
0.0
 40
0.563642083445
  1
INCH
100
AcDbText
1001
TCAD
1000
TCW40_TEXT
1002
{
1000
romand.shx
1070
           0
1070
        1025
1002
}
  0
LINE
  5
530
100
AcDbEntity
  8
0
100
AcDbLine
 10
2.069226630718
 20
-10.609173397582
 30
0.0
 11
2.069226630718
 21
-19.319960575899
 31
0.0
1001
ACAD
1000
TCW40_DEV_WIDTH
1002
{
1040
-3.0
1002
}
  0
LINE
  5
531
100
AcDbEntity
  8
0
100
AcDbLine
 10
1.940677299577
 20
-10.609173397582
 30
0.0
 11
1.940677299577
 21
-19.272625523789
 31
0.0
1001
ACAD
1000
TCW40_DEV_WIDTH
1002
{
1040
-3.0
1002
}
  0
TEXT
  5
532
100
AcDbEntity
  8
0
  6
Continuous
100
AcDbText
 10
10.857781546649
 20
-17.191239178661
 30
0.0
 40
0.249105162241
  1
DRAWING NO.
  7
_TCW_TXTSTY_3
100
AcDbText
1001
TCAD
1000
TCW40_TEXT
1002
{
1000
Times New Roman
1070
           0
1070
        1025
1002
}
  0
TEXT
  5
533
100
AcDbEntity
  8
0
  6
Continuous
100
AcDbText
 10
2.444973482112
 20
-12.735942471762
 30
0.0
 40
0.249549984932
  1
SCALE
  7
_TCW_TXTSTY_3
100
AcDbText
1001
TCAD
1000
TCW40_TEXT
1002
{
1000
Times New Roman
1070
           0
1070
        1025
1002
}
  0
TEXT
  5
534
100
AcDbEntity
  8
0
  6
Continuous
100
AcDbText
 10
2.45357502448
 20
-14.296482596217
 30
0.0
 40
0.249549984932
  1
UNITS
  7
_TCW_TXTSTY_3
100
AcDbText
1001
TCAD
1000
TCW40_TEXT
1002
{
1000
Times New Roman
1070
           0
1070
        1025
1002
}
  0
TEXT
  5
535
100
AcDbEntity
  8
0
  6
Continuous
100
AcDbText
 10
2.502417980195
 20
-15.913546943022
 30
0.0
 40
0.249549984932
  1
DATE
  7
_TCW_TXTSTY_3
100
AcDbText
1001
TCAD
1000
TCW40_TEXT
1002
{
1000
Times New Roman
1070
           0
1070
        1025
1002
}
  0
TEXT
  5
536
100
AcDbEntity
  8
0
  6
Continuous
100
AcDbText
 10
-25.775518741438
 20
-15.5129658577
 30
0.0
 40
0.249549984932
  1
RATIO
  7
_TCW_TXTSTY_3
100
AcDbText
1001
TCAD
1000
TCW40_TEXT
1002
{
1000
Times New Roman
1070
           0
1070
        1025
1002
}
  0
TEXT
  5
537
100
AcDbEntity
  8
0
  6
Continuous
100
AcDbText
 10
-25.758447276961
 20
-18.815903666085
 30
0.0
 40
0.249549984932
  1
QTY.
  7
_TCW_TXTSTY_3
100
AcDbText
1001
TCAD
1000
TCW40_TEXT
1002
{
1000
Times New Roman
1070
           0
1070
        1025
1002
}
  0
LINE
  5
538
100
AcDbEntity
  8
0
100
AcDbLine
 10
-16.558208262637
 20
-10.609173397582
 30
0.0
 11
-16.558208262637
 21
-19.307390198293
 31
0.0
1001
ACAD
1000
TCW40_DEV_WIDTH
1002
{
1040
-3.0
1002
}
  0
MTEXT
  5
539
100
AcDbEntity
  8
0
 62
           7
100
AcDbMText
 10
-9.370897848868
 20
-17.325863332426
 30
0.0
 40
0.563612919469
 41
10.685161590576
 71
           1
 72
           1
  1
11,17,29,35,47,59,71
 73
           1
 44
1.0
1001
TCAD
1000
TCW_REFPOINT
1002
{
1010
-9.370897848868
1020
-17.325863332426
1030
0.0
1002
}
1000
TCW40_TEXT
1002
{
1000
romand.shx
1070
           0
1070
         257
1002
}
  0
LINE
  5
53A
100
AcDbEntity
  8
0
100
AcDbLine
 10
-10.162637895112
 20
-12.260809597403
 30
0.0
 11
1.940677299577
 21
-12.260809597403
 31
0.0
1001
ACAD
1000
TCW40_DEV_WIDTH
1002
{
1040
-3.0
1002
}
  0
TEXT
  5
53B
100
AcDbEntity
  8
0
  6
Continuous
100
AcDbText
 10
-9.497476936028
 20
-11.757283258902
 30
0.0
 40
0.563642083445
  1
B01, B03, B05, B07
100
AcDbText
1001
TCAD
1000
TCW40_TEXT
1002
{
1000
romand.shx
1070
           0
1070
        1025
1002
}
  0
TEXT
  5
53C
100
AcDbEntity
  8
PV-0
  6
Continuous
100
AcDbText
 10
14.055221329098
 20
-14.962924640823
 30
0.0
 40
0.886363636364
  1
Circulute 3000
  7
_TCW_TXTSTY_3
100
AcDbText
1001
TCAD
1000
TCW40_TEXT
1002
{
1000
Times New Roman
1070
           0
1070
        1025
1002
}
  0
DIMENSION
  5
54A
100
AcDbEntity
  8
1
  6
Continuous
 62
           7
100
AcDbDimension
  2
*D44
 10
-18.296039862929
 20
7.33635569463
 30
0.0
 11
-16.174722726633
 21
8.317501549649
 31
0.0
 70
         129
 71
           5
 72
           1
 41
1.0
 42
0.0
  1
%%c1.375^M^J%%c1.374
  3
STANDARD
100
AcDbAlignedDimension
 13
-20.812289758025
 23
9.804915999532
 33
0.0
 14
-18.296039862929
 24
9.804915999532
 34
0.0
1001
ACAD
1000
DSTYLE
1002
{
1070
          41
1040
0.35
1070
         176
1070
           7
1070
         177
1070
           7
1070
         178
1070
           7
1070
         179
1070
           3
1070
         271
1070
           3
1070
          43
1040
0.25
1070
          44
1040
0.2
1070
          42
1040
0.2
1070
         147
1040
0.1
1070
          77
1070
           1
1070
         272
1070
           2
1070
          73
1070
           0
1070
         172
1070
           1
1070
          74
1070
           0
1070
         140
1040
0.5
1002
}
  0
DIMENSION
  5
558
100
AcDbEntity
  8
1
  6
Continuous
 62
           7
100
AcDbDimension
  2
*D45
 10
-4.865425733206
 20
7.660076552957
 30
0.0
 11
-2.291835841486
 21
8.641222407976
 31
0.0
 70
         129
 71
           5
 72
           1
 41
1.0
 42
0.0
  1
%%c0.750^M^J%%c0.749
  3
STANDARD
100
AcDbAlignedDimension
 13
-6.62792578089
 23
10.133316519002
 33
0.0
 14
-4.865425733206
 24
10.133316519002
 34
0.0
1001
ACAD
1000
DSTYLE
1002
{
1070
          41
1040
0.35
1070
         176
1070
           7
1070
         177
1070
           7
1070
         178
1070
           7
1070
         179
1070
           3
1070
         271
1070
           3
1070
          43
1040
0.25
1070
          44
1040
0.2
1070
          42
1040
0.2
1070
         147
1040
0.1
1070
          77
1070
           1
1070
         272
1070
           2
1070
          73
1070
           0
1070
         172
1070
           1
1070
          74
1070
           0
1070
         140
1040
0.5
1002
}
  0
ENDSEC
  0
SECTION
  2
OBJECTS
  0
DICTIONARY
  5
19
100
AcDbDictionary
280
           0
281
           1
  3
ACAD_GROUP
350
1A
  3
ACAD_MLINESTYLE
350
1B
  3
ACAD_LAYOUT
350
1E
  3
ACAD_PLOTSETTINGS
350
22
  3
ACAD_PLOTSTYLENAME
350
1F
  0
DICTIONARY
  5
1A
102
{ACAD_REACTORS
330
19
102
}
100
AcDbDictionary
280
           0
281
           1
  0
DICTIONARY
  5
1B
102
{ACAD_REACTORS
330
19
102
}
100
AcDbDictionary
280
           0
281
           1
  3
Standard
350
1C
  0
MLINESTYLE
  5
1C
100
AcDbMlineStyle
  2
STANDARD
 70
           0
  3

 62
         256
 51
90.0
 52
90.0
 71
           2
 49
0.5
 62
         256
  6
ByLayer
 49
-0.5
 62
         256
  6
ByLayer
  0
ACDBDICTIONARYWDFLT
  5
1F
102
{ACAD_REACTORS
330
19
102
}
100
AcDbDictionary
281
           1
  3
Normal
350
1D
100
AcDbDictionaryWithDefault
340
1D
  0
ACDBPLACEHOLDER
  5
1D
102
{ACAD_REACTORS
330
1F
102
}
  0
LAYOUT
  5
21
102
{ACAD_REACTORS
330
1E
102
}
100
AcDbPlotSettings
  1

  2

  4

  6

 40
0.0
 41
0.0
 42
0.0
 43
0.0
 44
0.0
 45
0.0
 46
0.0
 47
0.0
 48
0.0
 49
0.0
140
0.0
141
0.0
142
1.0
143
1.0
 70
           0
 72
           0
 73
           0
 74
           0
  7

 75
           0
147
1.0
148
0.0
149
0.0
100
AcDbLayout
  1
Layout1
 70
           0
 71
           0
 10
0.0
 20
0.0
 11
0.0
 21
0.0
 12
0.0
 22
0.0
 32
0.0
 14
0.0
 24
0.0
 34
0.0
 15
0.0
 25
0.0
 35
0.0
146
0.0
 13
0.0
 23
0.0
 33
0.0
 16
0.0
 26
0.0
 36
0.0
 17
0.0
 27
0.0
 37
0.0
 76
           0
330
B
331
0
345
0
346
0
  0
DICTIONARY
  5
1E
102
{ACAD_REACTORS
330
19
102
}
100
AcDbDictionary
280
           0
281
           1
  3
Model
350
559
  3
_PAPER_SPACE
350
55C
  0
DICTIONARY
  5
22
102
{ACAD_REACTORS
330
19
102
}
100
AcDbDictionary
280
           0
281
           1
  0
LAYOUT
  5
559
100
AcDbPlotSettings
  1

  2

  4

  6

 40
0.0
 41
0.0
 42
0.0
 43
0.0
 44
0.0
 45
0.0
 46
0.0
 47
0.0
 48
0.0
 49
0.0
140
0.0
141
0.0
142
1.0
143
1.0
 70
           0
 72
           0
 73
           0
 74
           0
  7

 75
           0
147
1.0
148
0.0
149
0.0
100
AcDbLayout
  1
Model
 70
           0
 71
           0
 10
0.0
 20
0.0
 11
0.0
 21
0.0
 12
0.0
 22
0.0
 32
0.0
 14
0.0
 24
0.0
 34
0.0
 15
0.0
 25
0.0
 35
0.0
146
0.0
 13
0.0
 23
0.0
 33
0.0
 16
0.0
 26
0.0
 36
0.0
 17
0.0
 27
0.0
 37
0.0
 76
           0
330
A
331
0
345
0
346
0
  0
LAYOUT
  5
55C
100
AcDbPlotSettings
  1

  2
none_device
  4

  6

 40
0.0
 41
0.0
 42
0.0
 43
0.0
 44
279.399912484328
 45
215.899932375062
 46
26.214881589837
 47
26.384243731587
 48
0.0
 49
0.0
140
0.0
141
0.0
142
1.0
143
1.136364
 70
           0
 72
           0
 73
           0
 74
           0
  7

 75
           0
147
1.0
148
0.0
149
0.0
100
AcDbLayout
  1
_PAPER_SPACE
 70
           1
 71
           1
 10
-26.214881589837
 20
-26.384243731587
 11
253.185030894491
 21
189.515688643475
 12
0.0
 22
0.0
 32
0.0
 14
0.0
 24
0.0
 34
0.0
 15
0.0
 25
0.0
 35
0.0
146
0.0
 13
0.0
 23
0.0
 33
0.0
 16
0.0
 26
0.0
 36
0.0
 17
0.0
 27
0.0
 37
0.0
 76
           0
330
B
331
55A
345
0
346
0
  0
ENDSEC
  0
EOF
